  0
SECTION
  2
HEADER
  9
$ACADVER
  1
AC1015
  9
$ACADMAINTVER
 70
     6
  9
$DWGCODEPAGE
  3
DOS932
  9
$INSBASE
 10
0.0
 20
0.0
 30
0.0
  9
$EXTMIN
 10
0.0
 20
0.0
 30
0.0
  9
$EXTMAX
 10
420.0
 20
297.0
 30
0.0
  9
$LIMMIN
 10
0.0
 20
0.0
  9
$LIMMAX
 10
420.0
 20
297.0
  9
$ORTHOMODE
 70
     0
  9
$REGENMODE
 70
     1
  9
$FILLMODE
 70
     1
  9
$QTEXTMODE
 70
     0
  9
$MIRRTEXT
 70
     1
  9
$LTSCALE
 40
1.0
  9
$ATTMODE
 70
     1
  9
$TEXTSIZE
 40
3.5
  9
$TRACEWID
 40
1.0
  9
$TEXTSTYLE
  7
Standard
  9
$CLAYER
  8
0
  9
$CELTYPE
  6
ByLayer
  9
$CECOLOR
 62
   256
  9
$CELTSCALE
 40
1.0
  9
$DISPSILH
 70
     0
  9
$DIMSCALE
 40
1.0
  9
$DIMASZ
 40
3.0
  9
$DIMEXO
 40
1.0
  9
$DIMDLI
 40
3.75
  9
$DIMRND
 40
0.0
  9
$DIMDLE
 40
0.0
  9
$DIMEXE
 40
1.0
  9
$DIMTP
 40
0.0
  9
$DIMTM
 40
0.0
  9
$DIMTXT
 40
3.5
  9
$DIMCEN
 40
2.5
  9
$DIMTSZ
 40
0.0
  9
$DIMTOL
 70
     0
  9
$DIMLIM
 70
     0
  9
$DIMTIH
 70
     1
  9
$DIMTOH
 70
     1
  9
$DIMSE1
 70
     0
  9
$DIMSE2
 70
     0
  9
$DIMTAD
 70
     1
  9
$DIMZIN
 70
     0
  9
$DIMBLK
  1

  9
$DIMASO
 70
     1
  9
$DIMSHO
 70
     1
  9
$DIMPOST
  1

  9
$DIMAPOST
  1

  9
$DIMALT
 70
     0
  9
$DIMALTD
 70
     3
  9
$DIMALTF
 40
0.0393700787
  9
$DIMLFAC
 40
2.0
  9
$DIMTOFL
 70
     1
  9
$DIMTVP
 40
0.0
  9
$DIMTIX
 70
     0
  9
$DIMSOXD
 70
     0
  9
$DIMSAH
 70
     0
  9
$DIMBLK1
  1

  9
$DIMBLK2
  1

  9
$DIMSTYLE
  2
ISO-25
  9
$DIMCLRD
 70
     0
  9
$DIMCLRE
 70
     0
  9
$DIMCLRT
 70
     0
  9
$DIMTFAC
 40
1.0
  9
$DIMGAP
 40
1.524
  9
$DIMJUST
 70
     0
  9
$DIMSD1
 70
     0
  9
$DIMSD2
 70
     0
  9
$DIMTOLJ
 70
     0
  9
$DIMTZIN
 70
     0
  9
$DIMALTZ
 70
     0
  9
$DIMALTTZ
 70
     0
  9
$DIMUPT
 70
     0
  9
$DIMDEC
 70
     1
  9
$DIMTDEC
 70
     1
  9
$DIMALTU
 70
     2
  9
$DIMALTTD
 70
     3
  9
$DIMTXSTY
  7
Standard
  9
$DIMAUNIT
 70
     0
  9
$DIMADEC
 70
     2
  9
$DIMALTRND
 40
0.0
  9
$DIMAZIN
 70
     0
  9
$DIMDSEP
 70
    44
  9
$DIMATFIT
 70
     3
  9
$DIMFRAC
 70
     0
  9
$DIMLDRBLK
  1

  9
$DIMLUNIT
 70
     2
  9
$DIMLWD
 70
    -2
  9
$DIMLWE
 70
    -2
  9
$DIMTMOVE
 70
     0
  9
$LUNITS
 70
     2
  9
$LUPREC
 70
     1
  9
$SKETCHINC
 40
1.0
  9
$FILLETRAD
 40
10.0
  9
$AUNITS
 70
     0
  9
$AUPREC
 70
     2
  9
$MENU
  1
.
  9
$ELEVATION
 40
0.0
  9
$PELEVATION
 40
0.0
  9
$THICKNESS
 40
0.0
  9
$LIMCHECK
 70
     0
  9
$CHAMFERA
 40
10.0
  9
$CHAMFERB
 40
10.0
  9
$CHAMFERC
 40
20.0
  9
$CHAMFERD
 40
0.0
  9
$SKPOLY
 70
     0
  9
$TDCREATE
 40
2456140.546373877
  9
$TDUCREATE
 40
2456140.171373877
  9
$TDUPDATE
 40
2456140.546373889
  9
$TDUUPDATE
 40
2456140.171373889
  9
$TDINDWG
 40
0.0000000116
  9
$TDUSRTIMER
 40
0.0000000116
  9
$USRTIMER
 70
     1
  9
$ANGBASE
 50
0.0
  9
$ANGDIR
 70
     0
  9
$PDMODE
 70
     0
  9
$PDSIZE
 40
-1.0
  9
$PLINEWID
 40
0.0
  9
$SPLFRAME
 70
     0
  9
$SPLINETYPE
 70
     6
  9
$SPLINESEGS
 70
     8
  9
$HANDSEED
  5
47E
  9
$SURFTAB1
 70
     6
  9
$SURFTAB2
 70
     6
  9
$SURFTYPE
 70
     6
  9
$SURFU
 70
     6
  9
$SURFV
 70
     6
  9
$UCSBASE
  2

  9
$UCSNAME
  2

  9
$UCSORG
 10
0.0
 20
0.0
 30
0.0
  9
$UCSXDIR
 10
1.0
 20
0.0
 30
0.0
  9
$UCSYDIR
 10
0.0
 20
1.0
 30
0.0
  9
$UCSORTHOREF
  2

  9
$UCSORTHOVIEW
 70
     0
  9
$UCSORGTOP
 10
0.0
 20
0.0
 30
0.0
  9
$UCSORGBOTTOM
 10
0.0
 20
0.0
 30
0.0
  9
$UCSORGLEFT
 10
0.0
 20
0.0
 30
0.0
  9
$UCSORGRIGHT
 10
0.0
 20
0.0
 30
0.0
  9
$UCSORGFRONT
 10
0.0
 20
0.0
 30
0.0
  9
$UCSORGBACK
 10
0.0
 20
0.0
 30
0.0
  9
$PUCSBASE
  2

  9
$PUCSNAME
  2

  9
$PUCSORG
 10
0.0
 20
0.0
 30
0.0
  9
$PUCSXDIR
 10
1.0
 20
0.0
 30
0.0
  9
$PUCSYDIR
 10
0.0
 20
1.0
 30
0.0
  9
$PUCSORTHOREF
  2

  9
$PUCSORTHOVIEW
 70
     0
  9
$PUCSORGTOP
 10
0.0
 20
0.0
 30
0.0
  9
$PUCSORGBOTTOM
 10
0.0
 20
0.0
 30
0.0
  9
$PUCSORGLEFT
 10
0.0
 20
0.0
 30
0.0
  9
$PUCSORGRIGHT
 10
0.0
 20
0.0
 30
0.0
  9
$PUCSORGFRONT
 10
0.0
 20
0.0
 30
0.0
  9
$PUCSORGBACK
 10
0.0
 20
0.0
 30
0.0
  9
$USERI1
 70
     0
  9
$USERI2
 70
     0
  9
$USERI3
 70
     0
  9
$USERI4
 70
     0
  9
$USERI5
 70
     0
  9
$USERR1
 40
0.0
  9
$USERR2
 40
0.0
  9
$USERR3
 40
0.0
  9
$USERR4
 40
0.0
  9
$USERR5
 40
0.0
  9
$WORLDVIEW
 70
     1
  9
$SHADEDGE
 70
     3
  9
$SHADEDIF
 70
    70
  9
$TILEMODE
 70
     1
  9
$MAXACTVP
 70
    64
  9
$PINSBASE
 10
0.0
 20
0.0
 30
0.0
  9
$PLIMCHECK
 70
     0
  9
$PEXTMIN
 10
1.0000000000E+20
 20
1.0000000000E+20
 30
1.0000000000E+20
  9
$PEXTMAX
 10
-1.0000000000E+20
 20
-1.0000000000E+20
 30
-1.0000000000E+20
  9
$PLIMMIN
 10
0.0
 20
0.0
  9
$PLIMMAX
 10
420.0
 20
297.0
  9
$UNITMODE
 70
     0
  9
$VISRETAIN
 70
     1
  9
$PLINEGEN
 70
     0
  9
$PSLTSCALE
 70
     1
  9
$TREEDEPTH
 70
  3020
  9
$CMLSTYLE
  2
Standard
  9
$CMLJUST
 70
     0
  9
$CMLSCALE
 40
20.0
  9
$PROXYGRAPHICS
 70
     1
  9
$MEASUREMENT
 70
     1
  9
$CELWEIGHT
370
    -1
  9
$ENDCAPS
280
     0
  9
$JOINSTYLE
280
     0
  9
$LWDISPLAY
290
     1
  9
$INSUNITS
 70
     4
  9
$HYPERLINKBASE
  1

  9
$STYLESHEET
  1

  9
$XEDIT
290
     1
  9
$CEPSNTYPE
380
     0
  9
$PSTYLEMODE
290
     1
  9
$FINGERPRINTGUID
  2
{4873C973-AC56-40F0-9EB5-279E6040C33A}
  9
$VERSIONGUID
  2
{FAEB1C32-E019-11D5-929B-00C0DF256EC4}
  9
$EXTNAMES
290
     1
  9
$PSVPSCALE
 40
0.0
  9
$OLESTARTUP
290
     0
  0
ENDSEC
  0
SECTION
  2
CLASSES
  0
CLASS
  1
ACDBDICTIONARYWDFLT
  2
AcDbDictionaryWithDefault
  3
ObjectDBX Classes
 90
        0
280
     0
281
     0
  0
CLASS
  1
VISUALSTYLE
  2
AcDbVisualStyle
  3
ObjectDBX Classes
 90
     4095
280
     0
281
     0
  0
CLASS
  1
MATERIAL
  2
AcDbMaterial
  3
ObjectDBX Classes
 90
     1153
280
     0
281
     0
  0
CLASS
  1
ACDBPLACEHOLDER
  2
AcDbPlaceHolder
  3
ObjectDBX Classes
 90
        0
280
     0
281
     0
  0
CLASS
  1
LAYOUT
  2
AcDbLayout
  3
ObjectDBX Classes
 90
        0
280
     0
281
     0
  0
ENDSEC
  0
SECTION
  2
TABLES
  0
TABLE
  2
VPORT
  5
8
330
0
100
AcDbSymbolTable
 70
     1
  0
VPORT
  5
29
330
8
100
AcDbSymbolTableRecord
100
AcDbViewportTableRecord
  2
*Active
 70
     0
 10
0.0
 20
0.0
 11
1.0
 21
1.0
 12
210.0
 22
148.5
 13
0.0
 23
0.0
 14
10.0
 24
10.0
 15
10.0
 25
10.0
 16
0.0
 26
0.0
 36
1.0
 17
0.0
 27
0.0
 37
0.0
 40
297.0
 41
1.4141414141
 42
50.0
 43
0.0
 44
0.0
 50
0.0
 51
0.0
 71
     0
 72
  2000
 73
     1
 74
     3
 75
     0
 76
     0
 77
     0
 78
     0
281
     0
 65
     1
110
0.0
120
0.0
130
0.0
111
1.0
121
0.0
131
0.0
112
0.0
122
1.0
132
0.0
 79
     0
146
0.0
  0
ENDTAB
  0
TABLE
  2
LTYPE
  5
5
330
0
100
AcDbSymbolTable
 70
     6
  0
LTYPE
  5
14
330
5
100
AcDbSymbolTableRecord
100
AcDbLinetypeTableRecord
  2
ByBlock
 70
     0
  3

 72
    65
 73
     0
 40
0.0
  0
LTYPE
  5
15
330
5
100
AcDbSymbolTableRecord
100
AcDbLinetypeTableRecord
  2
ByLayer
 70
     0
  3

 72
    65
 73
     0
 40
0.0
  0
LTYPE
  5
16
330
5
100
AcDbSymbolTableRecord
100
AcDbLinetypeTableRecord
  2
Continuous
 70
     0
  3
Solid line
 72
    65
 73
     0
 40
0.0
  0
LTYPE
  5
3F
330
5
100
AcDbSymbolTableRecord
100
AcDbLinetypeTableRecord
  2
HIDDEN
 70
     0
  3
Hidden __ __ __ __ __ __ __ __ __ __ __ __ __ __
 72
    65
 73
     2
 40
1.905
 49
1.27
 74
     0
 49
-0.635
 74
     0
  0
LTYPE
  5
40
330
5
100
AcDbSymbolTableRecord
100
AcDbLinetypeTableRecord
  2
PHANTOM
 70
     0
  3
Phantom ______  __  __  ______  __  __  ______
 72
    65
 73
     6
 40
12.7
 49
6.35
 74
     0
 49
-1.27
 74
     0
 49
1.27
 74
     0
 49
-1.27
 74
     0
 49
1.27
 74
     0
 49
-1.27
 74
     0
  0
LTYPE
  5
41
330
5
100
AcDbSymbolTableRecord
100
AcDbLinetypeTableRecord
  2
CENTER
 70
     0
  3
Center ____ _ ____ _ ____ _ ____ _ ____ _ ____
 72
    65
 73
     4
 40
10.16
 49
6.35
 74
     0
 49
-1.27
 74
     0
 49
1.27
 74
     0
 49
-1.27
 74
     0
  0
LTYPE
  5
42
330
5
100
AcDbSymbolTableRecord
100
AcDbLinetypeTableRecord
  2
CENTERX2
 70
     0
  3
Center (2x) ________  __  ________  __  _____
 72
    65
 73
     4
 40
20.32
 49
12.7
 74
     0
 49
-2.54
 74
     0
 49
2.54
 74
     0
 49
-2.54
 74
     0
  0
LTYPE
  5
43
330
5
100
AcDbSymbolTableRecord
100
AcDbLinetypeTableRecord
  2
DOT2
 70
     0
  3
Dot (.5x) ........................................
 72
    65
 73
     2
 40
0.635
 49
0.0
 74
     0
 49
-0.635
 74
     0
  0
ENDTAB
  0
TABLE
  2
LAYER
  5
2
330
0
100
AcDbSymbolTable
 70
     1
  0
LAYER
  5
10
330
2
100
AcDbSymbolTableRecord
100
AcDbLayerTableRecord
  2
0
 70
     0
 62
     7
  6
Continuous
370
    -3
390
F
  0
ENDTAB
  0
TABLE
  2
STYLE
  5
3
330
0
100
AcDbSymbolTable
 70
     3
  0
STYLE
  5
11
330
3
100
AcDbSymbolTableRecord
100
AcDbTextStyleTableRecord
  2
Standard
 70
     0
 40
0.0
 41
1.0
 50
0.0
 71
     0
 42
2.5
  3
txt
  4
bigfont
  0
STYLE
  5
44
330
3
100
AcDbSymbolTableRecord
100
AcDbTextStyleTableRecord
  2
SLDTEXTSTYLE0
 70
     0
 40
0.0
 41
0.605
 50
0.0
 71
     0
 42
0.2
  3
TXT
  4
bigfont
  0
STYLE
  5
7F
330
3
100
AcDbSymbolTableRecord
100
AcDbTextStyleTableRecord
  2
SLDTEXTSTYLE1
 70
     0
 40
0.0
 41
0.7
 50
0.0
 71
     0
 42
0.2
  3
TXT
  4
bigfont
  0
ENDTAB
  0
TABLE
  2
VIEW
  5
6
330
0
100
AcDbSymbolTable
 70
     0
  0
ENDTAB
  0
TABLE
  2
UCS
  5
7
330
0
100
AcDbSymbolTable
 70
     0
  0
ENDTAB
  0
TABLE
  2
APPID
  5
9
330
0
100
AcDbSymbolTable
 70
     1
  0
APPID
  5
12
330
9
100
AcDbSymbolTableRecord
100
AcDbRegAppTableRecord
  2
ACAD
 70
     0
  0
ENDTAB
  0
TABLE
  2
DIMSTYLE
  5
A
330
0
100
AcDbSymbolTable
 70
     3
100
AcDbDimStyleTable
  0
DIMSTYLE
105
27
330
A
100
AcDbSymbolTableRecord
100
AcDbDimStyleTableRecord
  2
ISO-25
 70
     0
 41
2.5
 42
0.625
 43
3.75
 44
1.25
 73
     0
 74
     0
 77
     1
 78
     8
140
2.5
141
2.5
143
0.0393700787
147
0.625
171
     3
172
     1
178
     0
271
     2
272
     2
274
     3
278
    44
283
     0
284
     8
340
11
  0
DIMSTYLE
105
80
102
{ACAD_REACTORS
330
7E
330
90
330
9A
330
B1
330
303
330
30D
330
3F6
102
}
330
A
100
AcDbSymbolTableRecord
100
AcDbDimStyleTableRecord
  2
SLDDIMSTYLE0
 70
     0
 41
3.0
 44
0.0
 45
0.000000001
 73
     0
 74
     0
 77
     3
 78
    12
 79
     3
140
3.5
147
0.875
173
     1
178
     0
271
     1
272
     1
276
     2
284
    12
340
7F
341
81
343
81
344
81
  0
DIMSTYLE
105
A5
102
{ACAD_REACTORS
330
A4
102
}
330
A
100
AcDbSymbolTableRecord
100
AcDbDimStyleTableRecord
  2
SLDDIMSTYLE1
 70
     0
 41
3.0
 44
0.0
 45
0.000000001
 73
     0
 74
     0
 77
     3
 78
    12
 79
     3
140
3.5
147
0.875
172
     1
173
     1
178
     0
271
     1
272
     1
276
     2
284
    12
289
     0
340
7F
341
81
343
81
344
81
  0
ENDTAB
  0
TABLE
  2
BLOCK_RECORD
  5
1
330
0
100
AcDbSymbolTable
 70
    12
  0
BLOCK_RECORD
  5
1F
330
1
100
AcDbSymbolTableRecord
100
AcDbBlockTableRecord
  2
*Model_Space
340
22
  0
BLOCK_RECORD
  5
1B
330
1
100
AcDbSymbolTableRecord
100
AcDbBlockTableRecord
  2
*Paper_Space
340
1E
  0
BLOCK_RECORD
  5
23
330
1
100
AcDbSymbolTableRecord
100
AcDbBlockTableRecord
  2
*Paper_Space0
340
26
  0
BLOCK_RECORD
  5
81
330
1
100
AcDbSymbolTableRecord
100
AcDbBlockTableRecord
  2
_OPEN30
340
0
102
{BLKREFS
331
8A
331
8B
331
94
331
95
331
9E
331
9F
331
A9
331
AA
331
B5
331
B6
331
307
331
308
331
311
331
312
331
3F1
331
3FA
331
3FB
102
}
  0
BLOCK_RECORD
  5
87
330
1
100
AcDbSymbolTableRecord
100
AcDbBlockTableRecord
  2
*D2
340
0
  0
BLOCK_RECORD
  5
91
330
1
100
AcDbSymbolTableRecord
100
AcDbBlockTableRecord
  2
*D3
340
0
  0
BLOCK_RECORD
  5
9B
330
1
100
AcDbSymbolTableRecord
100
AcDbBlockTableRecord
  2
*D4
340
0
  0
BLOCK_RECORD
  5
A6
330
1
100
AcDbSymbolTableRecord
100
AcDbBlockTableRecord
  2
*D5
340
0
  0
BLOCK_RECORD
  5
B2
330
1
100
AcDbSymbolTableRecord
100
AcDbBlockTableRecord
  2
*D6
340
0
  0
BLOCK_RECORD
  5
304
330
1
100
AcDbSymbolTableRecord
100
AcDbBlockTableRecord
  2
*D7
340
0
  0
BLOCK_RECORD
  5
30E
330
1
100
AcDbSymbolTableRecord
100
AcDbBlockTableRecord
  2
*D8
340
0
  0
BLOCK_RECORD
  5
3EE
330
1
100
AcDbSymbolTableRecord
100
AcDbBlockTableRecord
  2
SW_RADIAL_DIMENSION_0
340
0
102
{BLKREFS
331
3F5
102
}
  0
BLOCK_RECORD
  5
3F7
330
1
100
AcDbSymbolTableRecord
100
AcDbBlockTableRecord
  2
*D10
340
0
  0
BLOCK_RECORD
  5
400
330
1
100
AcDbSymbolTableRecord
100
AcDbBlockTableRecord
  2
SW_CENTERMARKSYMBOL_0
340
0
102
{BLKREFS
331
40B
102
}
  0
ENDTAB
  0
ENDSEC
  0
SECTION
  2
BLOCKS
  0
BLOCK
  5
20
330
1F
100
AcDbEntity
  8
0
100
AcDbBlockBegin
  2
*Model_Space
 70
     0
 10
0.0
 20
0.0
 30
0.0
  3
*Model_Space
  1

  0
ENDBLK
  5
21
330
1F
100
AcDbEntity
  8
0
100
AcDbBlockEnd
  0
BLOCK
  5
1C
330
1B
100
AcDbEntity
 67
     1
  8
0
100
AcDbBlockBegin
  2
*Paper_Space
 70
     0
 10
0.0
 20
0.0
 30
0.0
  3
*Paper_Space
  1

  0
ENDBLK
  5
1D
330
1B
100
AcDbEntity
 67
     1
  8
0
100
AcDbBlockEnd
  0
BLOCK
  5
24
330
23
100
AcDbEntity
  8
0
100
AcDbBlockBegin
  2
*Paper_Space0
 70
     0
 10
0.0
 20
0.0
 30
0.0
  3
*Paper_Space0
  1

  0
ENDBLK
  5
25
330
23
100
AcDbEntity
  8
0
100
AcDbBlockEnd
  0
BLOCK
  5
82
330
81
100
AcDbEntity
  8
0
100
AcDbBlockBegin
  2
_OPEN30
 70
     0
 10
0.0
 20
0.0
 30
0.0
  3
_OPEN30
  1

  0
LINE
  5
84
330
81
100
AcDbEntity
  8
0
  6
ByBlock
 62
     0
370
    -2
100
AcDbLine
 10
-1.0
 20
0.267949
 30
0.0
 11
0.0
 21
0.0
 31
0.0
  0
LINE
  5
85
330
81
100
AcDbEntity
  8
0
  6
ByBlock
 62
     0
370
    -2
100
AcDbLine
 10
0.0
 20
0.0
 30
0.0
 11
-1.0
 21
-0.267949
 31
0.0
  0
LINE
  5
86
330
81
100
AcDbEntity
  8
0
  6
ByBlock
 62
     0
370
    -2
100
AcDbLine
 10
0.0
 20
0.0
 30
0.0
 11
-1.0
 21
0.0
 31
0.0
  0
ENDBLK
  5
83
330
81
100
AcDbEntity
  8
0
100
AcDbBlockEnd
  0
BLOCK
  5
88
330
87
100
AcDbEntity
  8
0
100
AcDbBlockBegin
  2
*D2
 70
     1
 10
0.0
 20
0.0
 30
0.0
  3
*D2
  1

  0
INSERT
  5
8A
330
87
100
AcDbEntity
  8
0
  6
Continuous
 62
     7
370
     0
100
AcDbBlockReference
  2
_OPEN30
 10
197.9591652324
 20
201.5501239243
 30
27.9115354978
 41
3.0
 42
3.0
 50
180.0
  0
INSERT
  5
8B
330
87
100
AcDbEntity
  8
0
  6
Continuous
 62
     7
370
     0
100
AcDbBlockReference
  2
_OPEN30
 10
206.9591652324
 20
201.5501239243
 30
27.9115354978
 41
3.0
 42
3.0
 50
0.0
  0
LINE
  5
8C
330
87
100
AcDbEntity
  8
0
  6
Continuous
 62
     7
370
     0
100
AcDbLine
 10
197.9591652324
 20
192.5501239243
 30
0.0
 11
197.9591652324
 21
202.5501239243
 31
0.0
  0
LINE
  5
8D
330
87
100
AcDbEntity
  8
0
  6
Continuous
 62
     7
370
     0
100
AcDbLine
 10
206.9591652324
 20
192.5501239243
 30
0.0
 11
206.9591652324
 21
202.5501239243
 31
0.0
  0
LINE
  5
8E
330
87
100
AcDbEntity
  8
0
  6
Continuous
 62
     7
370
     0
100
AcDbLine
 10
197.9591652324
 20
201.5501239243
 30
0.0
 11
206.9591652324
 21
201.5501239243
 31
0.0
  0
MTEXT
  5
8F
330
87
100
AcDbEntity
  8
0
  6
Continuous
 62
     7
370
     0
100
AcDbMText
 10
200.2501457734
 20
206.0618607806
 30
27.9115354978
 40
3.5
 41
0.0
 71
     1
 72
     1
  1
9
  7
SLDTEXTSTYLE1
 73
     1
 44
1.0
  0
ENDBLK
  5
89
330
87
100
AcDbEntity
  8
0
100
AcDbBlockEnd
  0
BLOCK
  5
92
330
91
100
AcDbEntity
  8
0
100
AcDbBlockBegin
  2
*D3
 70
     1
 10
0.0
 20
0.0
 30
0.0
  3
*D3
  1

  0
INSERT
  5
94
330
91
100
AcDbEntity
  8
0
  6
Continuous
 62
     7
370
     0
100
AcDbBlockReference
  2
_OPEN30
 10
206.9591652324
 20
210.0879049024
 30
27.9115354978
 41
3.0
 42
3.0
 50
0.0
  0
INSERT
  5
95
330
91
100
AcDbEntity
  8
0
  6
Continuous
 62
     7
370
     0
100
AcDbBlockReference
  2
_OPEN30
 10
189.9591652324
 20
210.0879049024
 30
27.9115354978
 41
3.0
 42
3.0
 50
180.0
  0
LINE
  5
96
330
91
100
AcDbEntity
  8
0
  6
Continuous
 62
     7
370
     0
100
AcDbLine
 10
206.9591652324
 20
192.5501239243
 30
0.0
 11
206.9591652324
 21
211.0879049024
 31
0.0
  0
LINE
  5
97
330
91
100
AcDbEntity
  8
0
  6
Continuous
 62
     7
370
     0
100
AcDbLine
 10
189.9591652324
 20
144.2504285108
 30
0.0
 11
189.9591652324
 21
211.0879049024
 31
0.0
  0
LINE
  5
98
330
91
100
AcDbEntity
  8
0
  6
Continuous
 62
     7
370
     0
100
AcDbLine
 10
206.9591652324
 20
210.0879049024
 30
0.0
 11
189.9591652324
 21
210.0879049024
 31
0.0
  0
MTEXT
  5
99
330
91
100
AcDbEntity
  8
0
  6
Continuous
 62
     7
370
     0
100
AcDbMText
 10
194.6278511845
 20
214.5996417588
 30
27.9115354978
 40
3.5
 41
0.0
 71
     1
 72
     1
  1
17
  7
SLDTEXTSTYLE1
 73
     1
 44
1.0
  0
ENDBLK
  5
93
330
91
100
AcDbEntity
  8
0
100
AcDbBlockEnd
  0
BLOCK
  5
9C
330
9B
100
AcDbEntity
  8
0
100
AcDbBlockBegin
  2
*D4
 70
     1
 10
0.0
 20
0.0
 30
0.0
  3
*D4
  1

  0
INSERT
  5
9E
330
9B
100
AcDbEntity
  8
0
  6
Continuous
 62
     7
370
     0
100
AcDbBlockReference
  2
_OPEN30
 10
179.9591652324
 20
143.7501239243
 30
27.9115354978
 41
3.0
 42
3.0
 50
90.0
  0
INSERT
  5
9F
330
9B
100
AcDbEntity
  8
0
  6
Continuous
 62
     7
370
     0
100
AcDbBlockReference
  2
_OPEN30
 10
179.9591652324
 20
73.7501239243
 30
27.9115354978
 41
3.0
 42
3.0
 50
270.0
  0
LINE
  5
A0
330
9B
100
AcDbEntity
  8
0
  6
Continuous
 62
     7
370
     0
100
AcDbLine
 10
188.9591652324
 20
143.7501239243
 30
0.0
 11
178.9591652324
 21
143.7501239243
 31
0.0
  0
LINE
  5
A1
330
9B
100
AcDbEntity
  8
0
  6
Continuous
 62
     7
370
     0
100
AcDbLine
 10
188.9591652324
 20
73.7501239243
 30
0.0
 11
178.9591652324
 21
73.7501239243
 31
0.0
  0
LINE
  5
A2
330
9B
100
AcDbEntity
  8
0
  6
Continuous
 62
     7
370
     0
100
AcDbLine
 10
179.9591652324
 20
143.7501239243
 30
0.0
 11
179.9591652324
 21
73.7501239243
 31
0.0
  0
MTEXT
  5
A3
330
9B
100
AcDbEntity
  8
0
  6
Continuous
 62
     7
370
     0
100
AcDbMText
 10
175.447428376
 20
106.8866645635
 30
27.9115354978
 40
3.5
 41
0.0
 71
     1
 72
     1
  1
70
  7
SLDTEXTSTYLE1
 11
-7.044195017643634E-15
 21
1.0
 31
0.0
 73
     1
 44
1.0
  0
ENDBLK
  5
9D
330
9B
100
AcDbEntity
  8
0
100
AcDbBlockEnd
  0
BLOCK
  5
A7
330
A6
100
AcDbEntity
  8
0
100
AcDbBlockBegin
  2
*D5
 70
     1
 10
0.0
 20
0.0
 30
0.0
  3
*D5
  1

  0
INSERT
  5
A9
330
A6
100
AcDbEntity
  8
0
  6
Continuous
 62
     7
370
     0
100
AcDbBlockReference
  2
_OPEN30
 10
179.9591652324
 20
73.7501239243
 30
27.9115354978
 41
3.0
 42
3.0
 50
270.0
  0
INSERT
  5
AA
330
A6
100
AcDbEntity
  8
0
  6
Continuous
 62
     7
370
     0
100
AcDbBlockReference
  2
_OPEN30
 10
179.9591652324
 20
68.7501239243
 30
27.9115354978
 41
3.0
 42
3.0
 50
90.0
  0
LINE
  5
AB
330
A6
100
AcDbEntity
  8
0
  6
Continuous
 62
     7
370
     0
100
AcDbLine
 10
188.9591652324
 20
73.7501239243
 30
0.0
 11
178.9591652324
 21
73.7501239243
 31
0.0
  0
LINE
  5
AC
330
A6
100
AcDbEntity
  8
0
  6
Continuous
 62
     7
370
     0
100
AcDbLine
 10
192.9591652324
 20
68.7501239243
 30
0.0
 11
178.9591652324
 21
68.7501239243
 31
0.0
  0
LINE
  5
AD
330
A6
100
AcDbEntity
  8
0
  6
Continuous
 62
     7
370
     0
100
AcDbLine
 10
179.9591652324
 20
73.7501239243
 30
0.0
 11
179.9591652324
 21
78.7501239243
 31
0.0
  0
LINE
  5
AE
330
A6
100
AcDbEntity
  8
0
  6
Continuous
 62
     7
370
     0
100
AcDbLine
 10
179.9591652324
 20
73.7501239243
 30
0.0
 11
179.9591652324
 21
68.7501239243
 31
0.0
  0
LINE
  5
AF
330
A6
100
AcDbEntity
  8
0
  6
Continuous
 62
     7
370
     0
100
AcDbLine
 10
179.9591652324
 20
68.7501239243
 30
0.0
 11
179.9591652324
 21
63.7501239243
 31
0.0
  0
MTEXT
  5
B0
330
A6
100
AcDbEntity
  8
0
  6
Continuous
 62
     7
370
     0
100
AcDbMText
 10
175.447428376
 20
69.1519130598
 30
27.9115354978
 40
3.5
 41
0.0
 71
     1
 72
     1
  1
5
  7
SLDTEXTSTYLE1
 11
-7.044195017643634E-15
 21
1.0
 31
0.0
 73
     1
 44
1.0
  0
ENDBLK
  5
A8
330
A6
100
AcDbEntity
  8
0
100
AcDbBlockEnd
  0
BLOCK
  5
B3
330
B2
100
AcDbEntity
  8
0
100
AcDbBlockBegin
  2
*D6
 70
     1
 10
0.0
 20
0.0
 30
0.0
  3
*D6
  1

  0
INSERT
  5
B5
330
B2
100
AcDbEntity
  8
0
  6
Continuous
 62
     7
370
     0
100
AcDbBlockReference
  2
_OPEN30
 10
173.9591652324
 20
191.5501239243
 30
27.9115354978
 41
3.0
 42
3.0
 50
90.0
  0
INSERT
  5
B6
330
B2
100
AcDbEntity
  8
0
  6
Continuous
 62
     7
370
     0
100
AcDbBlockReference
  2
_OPEN30
 10
173.9591652324
 20
41.5501239243
 30
27.9115354978
 41
3.0
 42
3.0
 50
270.0
  0
LINE
  5
B7
330
B2
100
AcDbEntity
  8
0
  6
Continuous
 62
     7
370
     0
100
AcDbLine
 10
196.9591652324
 20
191.5501239243
 30
0.0
 11
172.9591652324
 21
191.5501239243
 31
0.0
  0
LINE
  5
B8
330
B2
100
AcDbEntity
  8
0
  6
Continuous
 62
     7
370
     0
100
AcDbLine
 10
196.9591652324
 20
41.5501239243
 30
0.0
 11
172.9591652324
 21
41.5501239243
 31
0.0
  0
LINE
  5
B9
330
B2
100
AcDbEntity
  8
0
  6
Continuous
 62
     7
370
     0
100
AcDbLine
 10
173.9591652324
 20
191.5501239243
 30
0.0
 11
173.9591652324
 21
41.5501239243
 31
0.0
  0
MTEXT
  5
BA
330
B2
100
AcDbEntity
  8
0
  6
Continuous
 62
     7
370
     0
100
AcDbMText
 10
169.447428376
 20
109.6786551486
 30
27.9115354978
 40
3.5
 41
0.0
 71
     1
 72
     1
  1
150
  7
SLDTEXTSTYLE1
 11
-7.044195017643634E-15
 21
1.0
 31
0.0
 73
     1
 44
1.0
  0
ENDBLK
  5
B4
330
B2
100
AcDbEntity
  8
0
100
AcDbBlockEnd
  0
BLOCK
  5
305
330
304
100
AcDbEntity
  8
0
100
AcDbBlockBegin
  2
*D7
 70
     1
 10
0.0
 20
0.0
 30
0.0
  3
*D7
  1

  0
INSERT
  5
307
330
304
100
AcDbEntity
  8
0
  6
Continuous
 62
     7
370
     0
100
AcDbBlockReference
  2
_OPEN30
 10
102.4875886403
 20
201.5501239243
 30
-2.4836078794
 41
3.0
 42
3.0
 50
180.0
  0
INSERT
  5
308
330
304
100
AcDbEntity
  8
0
  6
Continuous
 62
     7
370
     0
100
AcDbBlockReference
  2
_OPEN30
 10
118.4875886403
 20
201.5501239243
 30
-2.4836078794
 41
3.0
 42
3.0
 50
0.0
  0
LINE
  5
309
330
304
100
AcDbEntity
  8
0
  6
Continuous
 62
     7
370
     0
100
AcDbLine
 10
102.4875886403
 20
192.5501239243
 30
0.0
 11
102.4875886403
 21
202.5501239243
 31
0.0
  0
LINE
  5
30A
330
304
100
AcDbEntity
  8
0
  6
Continuous
 62
     7
370
     0
100
AcDbLine
 10
118.4875886403
 20
192.5501239243
 30
0.0
 11
118.4875886403
 21
202.5501239243
 31
0.0
  0
LINE
  5
30B
330
304
100
AcDbEntity
  8
0
  6
Continuous
 62
     7
370
     0
100
AcDbLine
 10
102.4875886403
 20
201.5501239243
 30
0.0
 11
118.4875886403
 21
201.5501239243
 31
0.0
  0
MTEXT
  5
30C
330
304
100
AcDbEntity
  8
0
  6
Continuous
 62
     7
370
     0
100
AcDbMText
 10
106.9613483163
 20
206.0618607806
 30
-2.4836078794
 40
3.5
 41
0.0
 71
     1
 72
     1
  1
16
  7
SLDTEXTSTYLE1
 73
     1
 44
1.0
  0
ENDBLK
  5
306
330
304
100
AcDbEntity
  8
0
100
AcDbBlockEnd
  0
BLOCK
  5
30F
330
30E
100
AcDbEntity
  8
0
100
AcDbBlockBegin
  2
*D8
 70
     1
 10
0.0
 20
0.0
 30
0.0
  3
*D8
  1

  0
INSERT
  5
311
330
30E
100
AcDbEntity
  8
0
  6
Continuous
 62
     7
370
     0
100
AcDbBlockReference
  2
_OPEN30
 10
100.4875886403
 20
209.2972225783
 30
-2.4836078794
 41
3.0
 42
3.0
 50
180.0
  0
INSERT
  5
312
330
30E
100
AcDbEntity
  8
0
  6
Continuous
 62
     7
370
     0
100
AcDbBlockReference
  2
_OPEN30
 10
120.4875886403
 20
209.2972225783
 30
-2.4836078794
 41
3.0
 42
3.0
 50
0.0
  0
LINE
  5
313
330
30E
100
AcDbEntity
  8
0
  6
Continuous
 62
     7
370
     0
100
AcDbLine
 10
100.4875886403
 20
144.2504285108
 30
0.0
 11
100.4875886403
 21
210.2972225783
 31
0.0
  0
LINE
  5
314
330
30E
100
AcDbEntity
  8
0
  6
Continuous
 62
     7
370
     0
100
AcDbLine
 10
120.4875886403
 20
144.2504285108
 30
0.0
 11
120.4875886403
 21
210.2972225783
 31
0.0
  0
LINE
  5
315
330
30E
100
AcDbEntity
  8
0
  6
Continuous
 62
     7
370
     0
100
AcDbLine
 10
100.4875886403
 20
209.2972225783
 30
0.0
 11
120.4875886403
 21
209.2972225783
 31
0.0
  0
MTEXT
  5
316
330
30E
100
AcDbEntity
  8
0
  6
Continuous
 62
     7
370
     0
100
AcDbMText
 10
106.9613483163
 20
213.8089594346
 30
-2.4836078794
 40
3.5
 41
0.0
 71
     1
 72
     1
  1
20
  7
SLDTEXTSTYLE1
 73
     1
 44
1.0
  0
ENDBLK
  5
310
330
30E
100
AcDbEntity
  8
0
100
AcDbBlockEnd
  0
BLOCK
  5
3EF
330
3EE
100
AcDbEntity
  8
0
100
AcDbBlockBegin
  2
SW_RADIAL_DIMENSION_0
 70
     0
 10
0.0
 20
0.0
 30
0.0
  3
SW_RADIAL_DIMENSION_0
  1

  0
INSERT
  5
3F1
330
3EE
100
AcDbEntity
  8
0
  6
Continuous
 62
     0
370
     0
100
AcDbBlockReference
  2
_OPEN30
 10
-17.6296537021
 20
-27.7858250421
 30
2.6836078794
 41
3.0
 42
3.0
 50
240.0
  0
LINE
  5
3F2
330
3EE
100
AcDbEntity
  8
0
  6
Continuous
 62
     0
370
     0
100
AcDbLine
 10
-17.6296537021
 20
-27.7858250421
 30
0.0
 11
-1.5875
 21
0.0000002328
 31
0.0
  0
LINE
  5
3F3
330
3EE
100
AcDbEntity
  8
0
  6
Continuous
 62
     0
370
     0
100
AcDbLine
 10
-1.5875
 20
0.0000002328
 30
0.0
 11
8.9736105874
 21
0.0000002328
 31
0.0
  0
MTEXT
  5
3F4
330
3EE
100
AcDbEntity
  8
0
  6
Continuous
 62
     0
370
     0
100
AcDbMText
 10
0.0
 20
4.5117370892
 30
2.6836078794
 40
3.5
 41
0.0
 71
     1
 72
     1
  1
2xM5
  7
SLDTEXTSTYLE1
 73
     1
 44
1.0
  0
ENDBLK
  5
3F0
330
3EE
100
AcDbEntity
  8
0
100
AcDbBlockEnd
  0
BLOCK
  5
3F8
330
3F7
100
AcDbEntity
  8
0
100
AcDbBlockBegin
  2
*D10
 70
     1
 10
0.0
 20
0.0
 30
0.0
  3
*D10
  1

  0
INSERT
  5
3FA
330
3F7
100
AcDbEntity
  8
0
  6
Continuous
 62
     7
370
     0
100
AcDbBlockReference
  2
_OPEN30
 10
267.5595123389
 20
191.5501239243
 30
2.6836078794
 41
3.0
 42
3.0
 50
90.0
  0
INSERT
  5
3FB
330
3F7
100
AcDbEntity
  8
0
  6
Continuous
 62
     7
370
     0
100
AcDbBlockReference
  2
_OPEN30
 10
267.5595123389
 20
116.5501239243
 30
2.6836078794
 41
3.0
 42
3.0
 50
270.0
  0
LINE
  5
3FC
330
3F7
100
AcDbEntity
  8
0
  6
Continuous
 62
     7
370
     0
100
AcDbLine
 10
276.6800636833
 20
191.5501239243
 30
0.0
 11
266.5595123389
 21
191.5501239243
 31
0.0
  0
LINE
  5
3FD
330
3F7
100
AcDbEntity
  8
0
  6
Continuous
 62
     7
370
     0
100
AcDbLine
 10
279.5300636833
 20
116.5501239243
 30
0.0
 11
266.5595123389
 21
116.5501239243
 31
0.0
  0
LINE
  5
3FE
330
3F7
100
AcDbEntity
  8
0
  6
Continuous
 62
     7
370
     0
100
AcDbLine
 10
267.5595123389
 20
191.5501239243
 30
0.0
 11
267.5595123389
 21
116.5501239243
 31
0.0
  0
MTEXT
  5
3FF
330
3F7
100
AcDbEntity
  8
0
  6
Continuous
 62
     7
370
     0
100
AcDbMText
 10
263.0477754825
 20
148.6207612225
 30
2.6836078794
 40
3.5
 41
0.0
 71
     1
 72
     1
  1
75
  7
SLDTEXTSTYLE1
 11
-7.044195017643634E-15
 21
1.0
 31
0.0
 73
     1
 44
1.0
  0
ENDBLK
  5
3F9
330
3F7
100
AcDbEntity
  8
0
100
AcDbBlockEnd
  0
BLOCK
  5
401
330
400
100
AcDbEntity
  8
0
100
AcDbBlockBegin
  2
SW_CENTERMARKSYMBOL_0
 70
     0
 10
0.0
 20
0.0
 30
0.0
  3
SW_CENTERMARKSYMBOL_0
  1

  0
LINE
  5
403
330
400
100
AcDbEntity
  8
0
  6
Continuous
 62
     0
370
     0
100
AcDbLine
 10
0.0
 20
0.0
 30
0.0
 11
0.0
 21
2.5
 31
0.0
  0
LINE
  5
404
330
400
100
AcDbEntity
  8
0
  6
Continuous
 62
     0
370
     0
100
AcDbLine
 10
0.0
 20
0.0
 30
0.0
 11
-2.5
 21
0.0
 31
0.0
  0
LINE
  5
405
330
400
100
AcDbEntity
  8
0
  6
Continuous
 62
     0
370
     0
100
AcDbLine
 10
0.0
 20
0.0
 30
0.0
 11
0.0
 21
-2.5
 31
0.0
  0
LINE
  5
406
330
400
100
AcDbEntity
  8
0
  6
Continuous
 62
     0
370
     0
100
AcDbLine
 10
0.0
 20
0.0
 30
0.0
 11
2.5
 21
0.0
 31
0.0
  0
LINE
  5
407
330
400
100
AcDbEntity
  8
0
  6
Continuous
 62
     0
370
     0
100
AcDbLine
 10
0.0
 20
2.5
 30
0.0
 11
0.0
 21
4.15
 31
0.0
  0
LINE
  5
408
330
400
100
AcDbEntity
  8
0
  6
Continuous
 62
     0
370
     0
100
AcDbLine
 10
-2.5
 20
0.0
 30
0.0
 11
-4.15
 21
0.0
 31
0.0
  0
LINE
  5
409
330
400
100
AcDbEntity
  8
0
  6
Continuous
 62
     0
370
     0
100
AcDbLine
 10
0.0
 20
-2.5
 30
0.0
 11
0.0
 21
-4.15
 31
0.0
  0
LINE
  5
40A
330
400
100
AcDbEntity
  8
0
  6
Continuous
 62
     0
370
     0
100
AcDbLine
 10
2.5
 20
0.0
 30
0.0
 11
4.15
 21
0.0
 31
0.0
  0
ENDBLK
  5
402
330
400
100
AcDbEntity
  8
0
100
AcDbBlockEnd
  0
ENDSEC
  0
SECTION
  2
ENTITIES
  0
MTEXT
  5
45
330
1F
100
AcDbEntity
  8
0
  6
Continuous
 62
     7
370
     0
100
AcDbMText
 10
389.2874983837
 20
15.8507863314
 30
0.0
 40
9.2604166667
 41
0.0
 71
     3
 72
     1
  1
CY7-P175
  7
SLDTEXTSTYLE0
 73
     1
 44
1.0
  0
LINE
  5
46
330
1F
100
AcDbEntity
  8
0
  6
Continuous
 62
     7
370
    15
100
AcDbLine
 10
205.9591653785
 20
191.5501216741
 30
0.0
 11
205.9591653785
 21
41.5501231643
 31
0.0
  0
LINE
  5
47
330
1F
100
AcDbEntity
  8
0
  6
Continuous
 62
     7
370
    15
100
AcDbLine
 10
205.9591653785
 20
191.5501216741
 30
0.0
 11
206.9591650768
 21
191.5501216741
 31
0.0
  0
LINE
  5
48
330
1F
100
AcDbEntity
  8
0
  6
Continuous
 62
     7
370
    15
100
AcDbLine
 10
206.9591650768
 20
191.5501216741
 30
0.0
 11
206.9591650768
 21
41.5501231643
 31
0.0
  0
LINE
  5
49
330
1F
100
AcDbEntity
  8
0
  6
Continuous
 62
     7
370
    15
100
AcDbLine
 10
205.9591653785
 20
41.5501231643
 30
0.0
 11
206.9591650768
 21
41.5501231643
 31
0.0
  0
LINE
  5
4A
330
1F
100
AcDbEntity
  8
0
  6
Continuous
 62
     7
370
    15
100
AcDbLine
 10
198.2591651874
 20
191.5501216741
 30
0.0
 11
205.9591653785
 21
191.5501216741
 31
0.0
  0
LINE
  5
4B
330
1F
100
AcDbEntity
  8
0
  6
Continuous
 62
     7
370
    15
100
AcDbLine
 10
198.2591651874
 20
41.5501231643
 30
0.0
 11
205.9591653785
 21
41.5501231643
 31
0.0
  0
LINE
  5
4C
330
1F
100
AcDbEntity
  8
0
  6
Continuous
 62
     7
370
    15
100
AcDbLine
 10
197.9591652314
 20
191.5501216741
 30
0.0
 11
197.9591652314
 21
143.4707576724
 31
0.0
  0
LINE
  5
4D
330
1F
100
AcDbEntity
  8
0
  6
Continuous
 62
     7
370
    15
100
AcDbLine
 10
197.9591652314
 20
74.0294894518
 30
0.0
 11
197.9591652314
 21
41.5501231643
 31
0.0
  0
LINE
  5
4E
330
1F
100
AcDbEntity
  8
0
  6
Continuous
 62
     7
370
    15
100
AcDbLine
 10
197.9591652314
 20
191.5501216741
 30
0.0
 11
198.2591651874
 21
191.5501216741
 31
0.0
  0
LINE
  5
4F
330
1F
100
AcDbEntity
  8
0
  6
Continuous
 62
     7
370
    15
100
AcDbLine
 10
197.9591652314
 20
41.5501231643
 30
0.0
 11
198.2591651874
 21
41.5501231643
 31
0.0
  0
LINE
  5
50
330
1F
100
AcDbEntity
  8
0
  6
Continuous
 62
     7
370
    15
100
AcDbLine
 10
190.8162207371
 20
73.7800533267
 30
0.0
 11
191.9591649464
 21
73.7501243444
 31
0.0
  0
LINE
  5
51
330
1F
100
AcDbEntity
  8
0
  6
Continuous
 62
     7
370
    15
100
AcDbLine
 10
193.9591652742
 20
70.7501238527
 30
0.0
 11
193.9591652742
 21
73.8898078295
 31
0.0
  0
LINE
  5
52
330
1F
100
AcDbEntity
  8
0
  6
Continuous
 62
     7
370
    15
100
AcDbLine
 10
191.9591649464
 20
70.7501238527
 30
0.0
 11
193.9591652742
 21
70.7501238527
 31
0.0
  0
LINE
  5
53
330
1F
100
AcDbEntity
  8
0
  6
Continuous
 62
     7
370
    15
100
AcDbLine
 10
191.9591649464
 20
70.7501238527
 30
0.0
 11
191.9591649464
 21
73.7501243444
 31
0.0
  0
LINE
  5
54
330
1F
100
AcDbEntity
  8
0
  6
Continuous
 62
     7
370
    15
100
AcDbLine
 10
193.9591652742
 20
68.7501235249
 30
0.0
 11
191.9591649464
 21
68.8024955185
 31
0.0
  0
LINE
  5
55
330
1F
100
AcDbEntity
  8
0
  6
Continuous
 62
     7
370
    15
100
AcDbLine
 10
191.9591649464
 20
68.8024955185
 30
0.0
 11
191.9591649464
 21
70.7501238527
 31
0.0
  0
LINE
  5
56
330
1F
100
AcDbEntity
  8
0
  6
Continuous
 62
     7
370
    15
100
AcDbLine
 10
193.9591652742
 20
70.7501238527
 30
0.0
 11
193.9591652742
 21
68.7501235249
 31
0.0
  0
LINE
  5
57
330
1F
100
AcDbEntity
  8
0
  6
Continuous
 62
     7
370
    15
100
AcDbLine
 10
192.6603530562
 20
98.7274530659
 30
0.0
 11
192.5543499207
 21
100.7501241135
 31
0.0
  0
ARC
  5
58
330
1F
100
AcDbEntity
  8
0
  6
Continuous
 62
     7
370
    15
100
AcDbCircle
 10
190.9591652324
 20
98.5924745298
 30
0.0
 40
0.5000000000000046
100
AcDbArc
 50
145.0
 51
180.0
  0
LINE
  5
59
330
1F
100
AcDbEntity
  8
0
  6
Continuous
 62
     7
370
    15
100
AcDbLine
 10
191.7700049496
 20
100.6221967133
 30
0.0
 11
190.5495896032
 21
98.8792628365
 31
0.0
  0
ARC
  5
5A
330
1F
100
AcDbEntity
  8
0
  6
Continuous
 62
     7
370
    15
100
AcDbCircle
 10
192.0157504239
 20
100.4501239243
 30
0.0
 40
0.3000000000000235
100
AcDbArc
 50
90.0
 51
145.0
  0
LINE
  5
5B
330
1F
100
AcDbEntity
  8
0
  6
Continuous
 62
     7
370
    15
100
AcDbLine
 10
192.5543499207
 20
100.7501241135
 30
0.0
 11
192.0157502434
 21
100.7501241135
 31
0.0
  0
LINE
  5
5C
330
1F
100
AcDbEntity
  8
0
  6
Continuous
 62
     7
370
    15
100
AcDbLine
 10
190.4591656318
 20
98.1803036144
 30
0.0
 11
190.4591656318
 21
98.5924746225
 31
0.0
  0
LINE
  5
5D
330
1F
100
AcDbEntity
  8
0
  6
Continuous
 62
     7
370
    15
100
AcDbLine
 10
191.9591649464
 20
68.8024955185
 30
0.0
 11
190.4591656318
 21
68.8417749794
 31
0.0
  0
LINE
  5
5E
330
1F
100
AcDbEntity
  8
0
  6
Continuous
 62
     7
370
    15
100
AcDbLine
 10
190.4591656318
 20
68.8417749794
 30
0.0
 11
190.4591656318
 21
73.7675847801
 31
0.0
  0
ARC
  5
5F
330
1F
100
AcDbEntity
  8
0
  6
Continuous
 62
     7
370
    15
100
AcDbCircle
 10
191.1033555184
 20
98.4002298819
 30
0.0
 40
0.3000000000000123
100
AcDbArc
 50
91.0
 51
135.0
  0
LINE
  5
60
330
1F
100
AcDbEntity
  8
0
  6
Continuous
 62
     7
370
    15
100
AcDbLine
 10
191.0981199732
 20
98.7001841737
 30
0.0
 11
193.9591652742
 21
98.7501240185
 31
0.0
  0
LINE
  5
61
330
1F
100
AcDbEntity
  8
0
  6
Continuous
 62
     7
370
    15
100
AcDbLine
 10
193.9591652742
 20
98.7501240185
 30
0.0
 11
193.9591652742
 21
134.0501243564
 31
0.0
  0
LINE
  5
62
330
1F
100
AcDbEntity
  8
0
  6
Continuous
 62
     7
370
    15
100
AcDbLine
 10
193.9591652742
 20
134.0501243564
 30
0.0
 11
189.9591655499
 21
134.0501243564
 31
0.0
  0
LINE
  5
63
330
1F
100
AcDbEntity
  8
0
  6
Continuous
 62
     7
370
    15
100
AcDbLine
 10
189.9591655499
 20
134.0501243564
 30
0.0
 11
189.9591655499
 21
143.250429103
 31
0.0
  0
LINE
  5
64
330
1F
100
AcDbEntity
  8
0
  6
Continuous
 62
     7
370
    15
100
AcDbLine
 10
197.9591652314
 20
142.9710621329
 30
0.0
 11
189.9591655499
 21
143.250429103
 31
0.0
  0
LINE
  5
65
330
1F
100
AcDbEntity
  8
0
  6
Continuous
 62
     7
370
    15
100
AcDbLine
 10
197.9591652314
 20
74.5291849913
 30
0.0
 11
197.9591652314
 21
142.9710621329
 31
0.0
  0
LINE
  5
66
330
1F
100
AcDbEntity
  8
0
  6
Continuous
 62
     7
370
    15
100
AcDbLine
 10
189.9591655499
 20
74.2498198839
 30
0.0
 11
197.9591652314
 21
74.5291849913
 31
0.0
  0
LINE
  5
67
330
1F
100
AcDbEntity
  8
0
  6
Continuous
 62
     7
370
    15
100
AcDbLine
 10
189.9591655499
 20
74.2498198839
 30
0.0
 11
189.9591655499
 21
97.556039606
 31
0.0
  0
ARC
  5
68
330
1F
100
AcDbEntity
  8
0
  6
Continuous
 62
     7
370
    15
100
AcDbCircle
 10
190.2591652324
 20
97.5560395958
 30
0.0
 40
0.3000000000000245
100
AcDbArc
 50
135.0
 51
180.0
  0
LINE
  5
69
330
1F
100
AcDbEntity
  8
0
  6
Continuous
 62
     7
370
    15
100
AcDbLine
 10
190.8912238693
 20
98.6123618519
 30
0.0
 11
190.0470330408
 21
97.7681716055
 31
0.0
  0
LINE
  5
6A
330
1F
100
AcDbEntity
  8
0
  6
Continuous
 62
     7
370
    15
100
AcDbLine
 10
189.9591655499
 20
143.7501246425
 30
0.0
 11
197.9591652314
 21
143.4707576724
 31
0.0
  0
LINE
  5
6B
330
1F
100
AcDbEntity
  8
0
  6
Continuous
 62
     7
370
    15
100
AcDbLine
 10
197.9591652314
 20
143.4707576724
 30
0.0
 11
197.9591652314
 21
142.9710621329
 31
0.0
  0
LINE
  5
6C
330
1F
100
AcDbEntity
  8
0
  6
Continuous
 62
     7
370
    15
100
AcDbLine
 10
189.9591655499
 20
143.250429103
 30
0.0
 11
189.9591655499
 21
143.7501246425
 31
0.0
  0
LINE
  5
6D
330
1F
100
AcDbEntity
  8
0
  6
Continuous
 62
     7
370
    15
100
AcDbLine
 10
197.9591652314
 20
74.5291849913
 30
0.0
 11
197.9591652314
 21
74.0294894518
 31
0.0
  0
LINE
  5
6E
330
1F
100
AcDbEntity
  8
0
  6
Continuous
 62
     7
370
    15
100
AcDbLine
 10
197.9591652314
 20
74.0294894518
 30
0.0
 11
189.9591655499
 21
73.7501243444
 31
0.0
  0
LINE
  5
6F
330
1F
100
AcDbEntity
  8
0
  6
Continuous
 62
     7
370
    15
100
AcDbLine
 10
189.9591655499
 20
73.7501243444
 30
0.0
 11
189.9591655499
 21
74.2498198839
 31
0.0
  0
LINE
  5
70
330
1F
100
AcDbEntity
  8
0
  6
Continuous
 62
     7
370
    15
100
AcDbLine
 10
193.7591651483
 20
101.9001240226
 30
0.0
 11
193.7591651483
 21
102.6001237648
 31
0.0
  0
ARC
  5
71
330
1F
100
AcDbEntity
  8
0
  6
Continuous
 62
     7
370
    15
100
AcDbCircle
 10
194.2591652324
 20
102.6001239243
 30
0.0
 40
0.5000000000000284
100
AcDbArc
 50
126.8698976458
 51
180.0
  0
ARC
  5
72
330
1F
100
AcDbEntity
  8
0
  6
Continuous
 62
     7
370
    15
100
AcDbCircle
 10
194.2591652324
 20
101.9001239243
 30
0.0
 40
0.500000000000017
100
AcDbArc
 50
180.0
 51
233.1301023542
  0
ARC
  5
73
330
1F
100
AcDbEntity
  8
0
  6
Continuous
 62
     7
370
    15
100
AcDbCircle
 10
193.9591652324
 20
130.3001239243
 30
0.0
 40
0.5
100
AcDbArc
 50
180.0
 51
270.0
  0
LINE
  5
74
330
1F
100
AcDbEntity
  8
0
  6
Continuous
 62
     7
370
    15
100
AcDbLine
 10
193.4591651922
 20
130.3001242073
 30
0.0
 11
193.4591651922
 21
130.8001252206
 31
0.0
  0
ARC
  5
75
330
1F
100
AcDbEntity
  8
0
  6
Continuous
 62
     7
370
    15
100
AcDbCircle
 10
193.9591652324
 20
130.8001239243
 30
0.0
 40
0.5000000000000284
100
AcDbArc
 50
90.0
 51
180.0
  0
LINE
  5
76
330
1F
100
AcDbEntity
  8
0
  6
Continuous
 62
     7
370
    15
100
AcDbLine
 10
198.6591652064
 20
89.3501239212
 30
0.0
 11
198.6591652064
 21
143.4463123175
 31
0.0
  0
LINE
  5
77
330
1F
100
AcDbEntity
  8
0
  6
Continuous
 62
     7
370
    15
100
AcDbLine
 10
197.9591652314
 20
89.3501239212
 30
0.0
 11
198.6591652064
 21
89.3501239212
 31
0.0
  0
LINE
  5
78
330
1F
100
AcDbEntity
  8
0
  6
Continuous
 62
     7
370
    15
100
AcDbLine
 10
197.9591652314
 20
143.4707576724
 30
0.0
 11
198.6591652064
 21
143.4463123175
 31
0.0
  0
LINE
  5
79
330
1F
100
AcDbEntity
  8
0
  6
Continuous
 62
     7
370
    15
100
AcDbLine
 10
192.5841876334
 20
132.0501240285
 30
0.0
 11
192.75916545
 21
134.0501243564
 31
0.0
  0
LINE
  5
7A
330
1F
100
AcDbEntity
  8
0
  6
Continuous
 62
     7
370
    15
100
AcDbLine
 10
191.113865844
 20
132.0501240285
 30
0.0
 11
192.5841876334
 21
132.0501240285
 31
0.0
  0
LINE
  5
7B
330
1F
100
AcDbEntity
  8
0
  6
Continuous
 62
     7
370
    15
100
AcDbLine
 10
189.9591655499
 20
134.0501243564
 30
0.0
 11
191.113865844
 21
132.0501240285
 31
0.0
  0
LINE
  5
7C
330
1F
100
AcDbEntity
  8
0
  6
Continuous
 62
     8
370
    15
100
AcDbLine
 10
198.2591651874
 20
191.5501216741
 30
0.0
 11
198.2591651874
 21
143.4602821561
 31
0.0
  0
LINE
  5
7D
330
1F
100
AcDbEntity
  8
0
  6
Continuous
 62
     8
370
    15
100
AcDbLine
 10
198.2591651874
 20
89.3501239212
 30
0.0
 11
198.2591651874
 21
41.5501231643
 31
0.0
  0
DIMENSION
  5
7E
330
1F
100
AcDbEntity
  8
0
  6
Continuous
 62
     7
370
     0
100
AcDbDimension
  2
*D2
 10
206.9591652324
 20
201.5501239243
 30
0.0
 11
202.4935486531
 21
201.5501239243
 31
0.0
 70
   160
 71
     2
 42
-1.0
  3
SLDDIMSTYLE0
100
AcDbAlignedDimension
 13
197.9591652324
 23
191.5501239243
 33
0.0
 14
206.9591652324
 24
191.5501239243
 34
0.0
100
AcDbRotatedDimension
  0
DIMENSION
  5
90
330
1F
100
AcDbEntity
  8
0
  6
Continuous
 62
     7
370
     0
100
AcDbDimension
  2
*D3
 10
189.9591652324
 20
210.0879049024
 30
0.0
 11
197.8896566965
 21
210.0879049024
 31
0.0
 70
   160
 71
     2
 42
-1.0
  3
SLDDIMSTYLE0
100
AcDbAlignedDimension
 13
206.9591652324
 23
191.5501239243
 33
0.0
 14
189.9591652324
 24
143.2504285108
 34
0.0
100
AcDbRotatedDimension
  0
DIMENSION
  5
9A
330
1F
100
AcDbEntity
  8
0
  6
Continuous
 62
     7
370
     0
100
AcDbDimension
  2
*D4
 10
179.9591652324
 20
73.7501239243
 30
0.0
 11
179.9591652324
 21
110.1484700756
 31
0.0
 70
   160
 71
     2
 42
-1.0
  3
SLDDIMSTYLE0
100
AcDbAlignedDimension
 13
189.9591652324
 23
143.7501239243
 33
0.0
 14
189.9591652324
 24
73.7501239243
 34
0.0
 50
90.0
100
AcDbRotatedDimension
  0
DIMENSION
  5
A4
330
1F
100
AcDbEntity
  8
0
  6
Continuous
 62
     7
370
     0
100
AcDbDimension
  2
*D5
 10
179.9591652324
 20
68.7501239243
 30
0.0
 11
179.9591652324
 21
71.3953159394
 31
0.0
 70
   160
 71
     2
 42
-1.0
  3
SLDDIMSTYLE1
100
AcDbAlignedDimension
 13
189.9591652324
 23
73.7501239243
 33
0.0
 14
193.9591652324
 24
68.7501239243
 34
0.0
 50
90.0
100
AcDbRotatedDimension
  0
DIMENSION
  5
B1
330
1F
100
AcDbEntity
  8
0
  6
Continuous
 62
     7
370
     0
100
AcDbDimension
  2
*D6
 10
173.9591652324
 20
41.5501239243
 30
0.0
 11
173.9591652324
 21
113.9588637586
 31
0.0
 70
   160
 71
     2
 42
-1.0
  3
SLDDIMSTYLE0
100
AcDbAlignedDimension
 13
197.9591652324
 23
191.5501239243
 33
0.0
 14
197.9591652324
 24
41.5501239243
 34
0.0
 50
90.0
100
AcDbRotatedDimension
  0
LINE
  5
BB
330
1F
100
AcDbEntity
  8
0
  6
CENTERX2
 62
     7
370
     0
100
AcDbLine
 10
184.066443471
 20
116.5501239243
 30
0.0
 11
208.9591652324
 21
116.5501239243
 31
0.0
  0
CIRCLE
  5
BC
330
1F
100
AcDbEntity
  8
0
  6
Continuous
 62
     7
370
    15
100
AcDbCircle
 10
110.4875886403
 20
116.5501239243
 30
0.0
 40
4.70000000000001
  0
ARC
  5
BD
330
1F
100
AcDbEntity
  8
0
  6
Continuous
 62
     7
370
    15
100
AcDbCircle
 10
100.8964032049
 20
120.2755073045
 30
0.0
 40
12.95930802944094
100
AcDbArc
 50
336.5618043285
 51
340.9841100807
  0
LWPOLYLINE
  5
BE
330
1F
100
AcDbEntity
  8
0
  6
Continuous
 62
     7
370
    15
100
AcDbPolyline
 90
        9
 70
   128
 43
0.0
 10
113.148499103
 20
116.052971253
 10
112.9734123216
 20
116.12097829
 10
112.7960493878
 20
116.1898700835
 10
112.6165835277
 20
116.2595777156
 10
112.4351916925
 20
116.3300322684
 10
112.2520545588
 20
116.4011666866
 10
112.0673546658
 20
116.4729083272
 10
111.8812708274
 20
116.5451864096
 10
111.6939893082
 20
116.6179282906
  0
SPLINE
  5
BF
330
1F
100
AcDbEntity
  8
0
  6
Continuous
 62
     7
370
    15
100
AcDbSpline
210
0.0
220
0.0
230
1.0
 70
     8
 71
     3
 72
    12
 73
     8
 74
     0
 42
0.00000001
 43
0.00000001
 40
0.0
 40
0.0
 40
0.0
 40
0.0
 40
0.2121487961365421
 40
0.4246590091338595
 40
0.6338964794116891
 40
0.8416659254175277
 40
1.0
 40
1.0
 40
1.0
 40
1.0
 10
111.6939893082433
 20
116.6179282905674
 30
0.0
 10
111.6345533645582
 20
116.6478328314637
 30
0.0
 10
111.5155802220663
 20
116.7076928586564
 30
0.0
 10
111.3856493708288
 20
116.866178395288
 30
0.0
 10
111.3134476039457
 20
117.0531510067689
 30
0.0
 10
111.3038576980873
 20
117.2380629922363
 30
0.0
 10
111.3374211903226
 20
117.3472414720791
 30
0.0
 10
111.3519368783289
 20
117.3944594653464
 30
0.0
  0
LWPOLYLINE
  5
C0
330
1F
100
AcDbEntity
  8
0
  6
Continuous
 62
     7
370
    15
100
AcDbPolyline
 90
        9
 70
   128
 43
0.0
 10
111.3519368783
 20
117.3944594653
 10
111.424680622
 20
117.5817409845
 10
111.4969587044
 20
117.7678248229
 10
111.5686984823
 20
117.9525247159
 10
111.6398329005
 20
118.1356618496
 10
111.7102874533
 20
118.3170536848
 10
111.779996948
 20
118.4965195449
 10
111.8488868789
 20
118.6738824787
 10
111.9168939159
 20
118.8489692601
  0
ARC
  5
C1
330
1F
100
AcDbEntity
  8
0
  6
Continuous
 62
     7
370
    15
100
AcDbCircle
 10
106.76220455
 20
106.9589380514
 30
0.0
 40
12.95930802944094
100
AcDbArc
 50
66.5618043285
 51
70.9841100807
  0
LWPOLYLINE
  5
C2
330
1F
100
AcDbEntity
  8
0
  6
Continuous
 62
     7
370
    15
100
AcDbPolyline
 90
        9
 70
   128
 43
0.0
 10
110.9847406015
 20
119.2110339495
 10
110.9167354271
 20
119.0359490307
 10
110.8478436337
 20
118.8585842343
 10
110.7781360016
 20
118.6791183742
 10
110.7076795862
 20
118.497726539
 10
110.6365470306
 20
118.3145912679
 10
110.56480539
 20
118.1298895123
 10
110.4925273076
 20
117.9438056739
 10
110.419783564
 20
117.7565241547
  0
SPLINE
  5
C3
330
1F
100
AcDbEntity
  8
0
  6
Continuous
 62
     7
370
    15
100
AcDbSpline
210
0.0
220
0.0
230
1.0
 70
     8
 71
     3
 72
    12
 73
     8
 74
     0
 42
0.00000001
 43
0.00000001
 40
0.0
 40
0.0
 40
0.0
 40
0.0
 40
0.2121477258432644
 40
0.4246565969450322
 40
0.6338947082339039
 40
0.841664084671148
 40
0.9999999999999999
 40
0.9999999999999999
 40
0.9999999999999999
 40
0.9999999999999999
 10
110.4197835639768
 20
117.7565241547442
 30
0.0
 10
110.3898798762741
 20
117.6970879708679
 30
0.0
 10
110.3300215949493
 20
117.5781144231668
 30
0.0
 10
110.1715341264162
 20
117.4481868412932
 30
0.0
 10
109.9845632467296
 20
117.3759817188736
 30
0.0
 10
109.7996501246811
 20
117.3663928567557
 30
0.0
 10
109.6904709873326
 20
117.3999560622893
 30
0.0
 10
109.6432523891979
 20
117.4144717248297
 30
0.0
  0
LWPOLYLINE
  5
C4
330
1F
100
AcDbEntity
  8
0
  6
Continuous
 62
     7
370
    15
100
AcDbPolyline
 90
        9
 70
   128
 43
0.0
 10
109.6432523892
 20
117.4144717248
 10
109.45597087
 20
117.4872154685
 10
109.2698888943
 20
117.5594935509
 10
109.0851871387
 20
117.6312351914
 10
108.902050005
 20
117.702367747
 10
108.7206600324
 20
117.7728241624
 10
108.5411941723
 20
117.8425317945
 10
108.3638293759
 20
117.911423588
 10
108.1887425945
 20
117.9794287624
  0
ARC
  5
C5
330
1F
100
AcDbEntity
  8
0
  6
Continuous
 62
     7
370
    15
100
AcDbCircle
 10
120.0789538859
 20
112.8246610115
 30
0.0
 40
12.95950443193045
100
AcDbArc
 50
156.5618030562
 51
160.9840340726
  0
LWPOLYLINE
  5
C6
330
1F
100
AcDbEntity
  8
0
  6
Continuous
 62
     7
370
    15
100
AcDbPolyline
 90
        9
 70
   128
 43
0.0
 10
107.8266779051
 20
117.0472773107
 10
108.0017646865
 20
116.9792702736
 10
108.1791276202
 20
116.9103784802
 10
108.358595343
 20
116.8406708481
 10
108.5399853156
 20
116.7702144327
 10
108.7231224493
 20
116.6990818771
 10
108.9078223423
 20
116.6273402365
 10
109.0939061806
 20
116.5550621541
 10
109.2811876998
 20
116.4823184105
  0
SPLINE
  5
C7
330
1F
100
AcDbEntity
  8
0
  6
Continuous
 62
     7
370
    15
100
AcDbSpline
210
0.0
220
0.0
230
1.0
 70
     8
 71
     3
 72
    12
 73
     8
 74
     0
 42
0.00000001
 43
0.00000001
 40
0.0
 40
0.0
 40
0.0
 40
0.0
 40
0.2121480088686206
 40
0.4246584342188199
 40
0.6338961135792118
 40
0.8416657672006752
 40
1.0
 40
1.0
 40
1.0
 40
1.0
 10
109.2811876998001
 20
116.4823184104777
 30
0.0
 10
109.3406236968092
 20
116.452414587622
 30
0.0
 10
109.4595972264725
 20
116.3925558566409
 30
0.0
 10
109.5895275750686
 20
116.2340700625452
 30
0.0
 10
109.6617294205811
 20
116.0470975849986
 30
0.0
 10
109.6713193069662
 20
115.8621855663609
 30
0.0
 10
109.6377558168181
 20
115.7530070900735
 30
0.0
 10
109.6232401297146
 20
115.7057890983439
 30
0.0
  0
LWPOLYLINE
  5
C8
330
1F
100
AcDbEntity
  8
0
  6
Continuous
 62
     7
370
    15
100
AcDbPolyline
 90
        9
 70
   128
 43
0.0
 10
109.6232401297
 20
115.7057890983
 10
109.5504982487
 20
115.5185075792
 10
109.4782201663
 20
115.3324237408
 10
109.4064785258
 20
115.1477219852
 10
109.3353441075
 20
114.9645848515
 10
109.2648895547
 20
114.7831948789
 10
109.1951819227
 20
114.6037290188
 10
109.1262901292
 20
114.4263642224
 10
109.0582830921
 20
114.251277441
  0
ARC
  5
C9
330
1F
100
AcDbEntity
  8
0
  6
Continuous
 62
     7
370
    15
100
AcDbCircle
 10
114.2136265553
 20
126.1429926552
 30
0.0
 40
12.96111326080005
100
AcDbArc
 50
246.5621124521
 51
250.9838019571
  0
LWPOLYLINE
  5
CA
330
1F
100
AcDbEntity
  8
0
  6
Continuous
 62
     7
370
    15
100
AcDbPolyline
 90
        9
 70
   128
 43
0.0
 10
109.9904364065
 20
113.8892127516
 10
110.0584434435
 20
114.064299533
 10
110.1273333744
 20
114.2416643294
 10
110.1970410065
 20
114.4211301895
 10
110.2674974219
 20
114.6025201621
 10
110.3386318401
 20
114.7856572958
 10
110.410371618
 20
114.9703590514
 10
110.4826497004
 20
115.1564410271
 10
110.5553934441
 20
115.3437225463
  0
SPLINE
  5
CB
330
1F
100
AcDbEntity
  8
0
  6
Continuous
 62
     7
370
    15
100
AcDbSpline
210
0.0
220
0.0
230
1.0
 70
     8
 71
     3
 72
    12
 73
     8
 74
     0
 42
0.00000001
 43
0.00000001
 40
0.0
 40
0.0
 40
0.0
 40
0.0
 40
0.2121475905191467
 40
0.4246575968051978
 40
0.6338948635551978
 40
0.8416641856699589
 40
1.0
 40
1.0
 40
1.0
 40
1.0
 10
110.5553934440666
 20
115.3437225463009
 30
0.0
 10
110.5852972680204
 20
115.4031585288933
 30
0.0
 10
110.6451560011996
 20
115.5221320296983
 30
0.0
 10
110.8036417788727
 20
115.6520625939011
 30
0.0
 10
110.9906143410066
 20
115.7242636428254
 30
0.0
 10
111.1755267870337
 20
115.7338562957292
 30
0.0
 10
111.2847059986696
 20
115.7002926770013
 30
0.0
 10
111.3319246188455
 20
115.6857768388605
 30
0.0
  0
LWPOLYLINE
  5
CC
330
1F
100
AcDbEntity
  8
0
  6
Continuous
 62
     7
370
    15
100
AcDbPolyline
 90
        9
 70
   128
 43
0.0
 10
111.3319246188
 20
115.6857768389
 10
111.519206138
 20
115.6130330952
 10
111.7052899764
 20
115.5407550128
 10
111.8899898694
 20
115.4690133723
 10
112.0731270031
 20
115.397878954
 10
112.2545169756
 20
115.3274244012
 10
112.4339846984
 20
115.2577167692
 10
112.6113476322
 20
115.1888249757
 10
112.7864344136
 20
115.1208179386
  0
LINE
  5
CD
330
1F
100
AcDbEntity
  8
0
  6
Continuous
 62
     7
370
    15
100
AcDbLine
 10
112.0266577319
 20
115.4159298482
 30
0.0
 11
112.3887224213
 21
116.3480831625
 31
0.0
  0
LINE
  5
CE
330
1F
100
AcDbEntity
  8
0
  6
Continuous
 62
     7
370
    15
100
AcDbLine
 10
109.353393139
 20
115.0110559853
 30
0.0
 11
110.2855464534
 21
114.6489894333
 31
0.0
  0
LINE
  5
CF
330
1F
100
AcDbEntity
  8
0
  6
Continuous
 62
     7
370
    15
100
AcDbLine
 10
111.621783869
 20
118.0891925784
 30
0.0
 11
110.6896305547
 21
118.4512572678
 31
0.0
  0
LINE
  5
D0
330
1F
100
AcDbEntity
  8
0
  6
Continuous
 62
     7
370
    15
100
AcDbLine
 10
108.9485192761
 20
117.6843187155
 30
0.0
 11
108.5864545867
 21
116.7521654012
 31
0.0
  0
LINE
  5
D1
330
1F
100
AcDbEntity
  8
0
  6
Continuous
 62
     7
370
    15
100
AcDbLine
 10
102.7875894771
 20
191.5501216741
 30
0.0
 11
102.9633263216
 21
191.5501216741
 31
0.0
  0
LINE
  5
D2
330
1F
100
AcDbEntity
  8
0
  6
Continuous
 62
     7
370
    15
100
AcDbLine
 10
102.7875894771
 20
41.5501231643
 30
0.0
 11
102.9633263216
 21
41.5501231643
 31
0.0
  0
LINE
  5
D3
330
1F
100
AcDbEntity
  8
0
  6
Continuous
 62
     7
370
    15
100
AcDbLine
 10
102.9633263216
 20
191.5501216741
 30
0.0
 11
103.1754555271
 21
191.5501216741
 31
0.0
  0
LINE
  5
D4
330
1F
100
AcDbEntity
  8
0
  6
Continuous
 62
     7
370
    15
100
AcDbLine
 10
102.9633263216
 20
41.5501231643
 30
0.0
 11
103.1754555271
 21
41.5501231643
 31
0.0
  0
LINE
  5
D5
330
1F
100
AcDbEntity
  8
0
  6
Continuous
 62
     7
370
    15
100
AcDbLine
 10
102.487588124
 20
191.5501216741
 30
0.0
 11
102.487588124
 21
143.7501246425
 31
0.0
  0
LINE
  5
D6
330
1F
100
AcDbEntity
  8
0
  6
Continuous
 62
     7
370
    15
100
AcDbLine
 10
102.487588124
 20
73.7501243444
 30
0.0
 11
102.487588124
 21
41.5501231643
 31
0.0
  0
LINE
  5
D7
330
1F
100
AcDbEntity
  8
0
  6
Continuous
 62
     7
370
    15
100
AcDbLine
 10
102.487588124
 20
191.5501216741
 30
0.0
 11
102.7875894771
 21
191.5501216741
 31
0.0
  0
LINE
  5
D8
330
1F
100
AcDbEntity
  8
0
  6
Continuous
 62
     7
370
    15
100
AcDbLine
 10
102.487588124
 20
41.5501231643
 30
0.0
 11
102.7875894771
 21
41.5501231643
 31
0.0
  0
LINE
  5
D9
330
1F
100
AcDbEntity
  8
0
  6
Continuous
 62
     7
370
    15
100
AcDbLine
 10
118.0118525491
 20
191.5501216741
 30
0.0
 11
118.1875893936
 21
191.5501216741
 31
0.0
  0
LINE
  5
DA
330
1F
100
AcDbEntity
  8
0
  6
Continuous
 62
     7
370
    15
100
AcDbLine
 10
118.0118525491
 20
41.5501231643
 30
0.0
 11
118.1875893936
 21
41.5501231643
 31
0.0
  0
LINE
  5
DB
330
1F
100
AcDbEntity
  8
0
  6
Continuous
 62
     7
370
    15
100
AcDbLine
 10
118.1875893936
 20
191.5501216741
 30
0.0
 11
118.487588884
 21
191.5501216741
 31
0.0
  0
LINE
  5
DC
330
1F
100
AcDbEntity
  8
0
  6
Continuous
 62
     7
370
    15
100
AcDbLine
 10
118.487588884
 20
191.5501216741
 30
0.0
 11
118.487588884
 21
143.7501246425
 31
0.0
  0
LINE
  5
DD
330
1F
100
AcDbEntity
  8
0
  6
Continuous
 62
     7
370
    15
100
AcDbLine
 10
118.487588884
 20
73.7501243444
 30
0.0
 11
118.487588884
 21
41.5501231643
 31
0.0
  0
LINE
  5
DE
330
1F
100
AcDbEntity
  8
0
  6
Continuous
 62
     7
370
    15
100
AcDbLine
 10
118.1875893936
 20
41.5501231643
 30
0.0
 11
118.487588884
 21
41.5501231643
 31
0.0
  0
LINE
  5
DF
330
1F
100
AcDbEntity
  8
0
  6
Continuous
 62
     7
370
    15
100
AcDbLine
 10
117.799721481
 20
191.5501216741
 30
0.0
 11
118.0118525491
 21
191.5501216741
 31
0.0
  0
LINE
  5
E0
330
1F
100
AcDbEntity
  8
0
  6
Continuous
 62
     7
370
    15
100
AcDbLine
 10
117.799721481
 20
41.5501231643
 30
0.0
 11
118.0118525491
 21
41.5501231643
 31
0.0
  0
LINE
  5
E1
330
1F
100
AcDbEntity
  8
0
  6
Continuous
 62
     7
370
    15
100
AcDbLine
 10
103.1754555271
 20
191.5501216741
 30
0.0
 11
103.8997190163
 21
191.5501216741
 31
0.0
  0
LINE
  5
E2
330
1F
100
AcDbEntity
  8
0
  6
Continuous
 62
     7
370
    15
100
AcDbLine
 10
103.1754555271
 20
41.5501231643
 30
0.0
 11
103.8997190163
 21
41.5501231643
 31
0.0
  0
LINE
  5
E3
330
1F
100
AcDbEntity
  8
0
  6
Continuous
 62
     7
370
    15
100
AcDbLine
 10
117.0754561291
 20
191.5501216741
 30
0.0
 11
117.799721481
 21
191.5501216741
 31
0.0
  0
LINE
  5
E4
330
1F
100
AcDbEntity
  8
0
  6
Continuous
 62
     7
370
    15
100
AcDbLine
 10
117.0754561291
 20
41.5501231643
 30
0.0
 11
117.799721481
 21
41.5501231643
 31
0.0
  0
LINE
  5
E5
330
1F
100
AcDbEntity
  8
0
  6
Continuous
 62
     7
370
    15
100
AcDbLine
 10
103.9875874386
 20
191.5501216741
 30
0.0
 11
103.9875874386
 21
143.7501246425
 31
0.0
  0
LINE
  5
E6
330
1F
100
AcDbEntity
  8
0
  6
Continuous
 62
     7
370
    15
100
AcDbLine
 10
103.9875874386
 20
132.0501240285
 30
0.0
 11
103.9875874386
 21
131.9872336777
 31
0.0
  0
LINE
  5
E7
330
1F
100
AcDbEntity
  8
0
  6
Continuous
 62
     7
370
    15
100
AcDbLine
 10
103.9875874386
 20
98.8693517016
 30
0.0
 11
103.9875874386
 21
98.7501240185
 31
0.0
  0
LINE
  5
E8
330
1F
100
AcDbEntity
  8
0
  6
Continuous
 62
     7
370
    15
100
AcDbLine
 10
103.9875874386
 20
68.8766250702
 30
0.0
 11
103.9875874386
 21
41.5501231643
 31
0.0
  0
LINE
  5
E9
330
1F
100
AcDbEntity
  8
0
  6
Continuous
 62
     7
370
    15
100
AcDbLine
 10
103.8997190163
 20
191.5501216741
 30
0.0
 11
103.9875874386
 21
191.5501216741
 31
0.0
  0
LINE
  5
EA
330
1F
100
AcDbEntity
  8
0
  6
Continuous
 62
     7
370
    15
100
AcDbLine
 10
103.8997190163
 20
41.5501231643
 30
0.0
 11
103.9875874386
 21
41.5501231643
 31
0.0
  0
LINE
  5
EB
330
1F
100
AcDbEntity
  8
0
  6
Continuous
 62
     7
370
    15
100
AcDbLine
 10
116.9875895695
 20
191.5501216741
 30
0.0
 11
116.9875895695
 21
143.7501246425
 31
0.0
  0
LINE
  5
EC
330
1F
100
AcDbEntity
  8
0
  6
Continuous
 62
     7
370
    15
100
AcDbLine
 10
116.9875895695
 20
132.0501240285
 30
0.0
 11
116.9875895695
 21
131.9872336777
 31
0.0
  0
LINE
  5
ED
330
1F
100
AcDbEntity
  8
0
  6
Continuous
 62
     7
370
    15
100
AcDbLine
 10
116.9875895695
 20
98.8693517016
 30
0.0
 11
116.9875895695
 21
98.7501240185
 31
0.0
  0
LINE
  5
EE
330
1F
100
AcDbEntity
  8
0
  6
Continuous
 62
     7
370
    15
100
AcDbLine
 10
116.9875895695
 20
68.8766250702
 30
0.0
 11
116.9875895695
 21
41.5501231643
 31
0.0
  0
LINE
  5
EF
330
1F
100
AcDbEntity
  8
0
  6
Continuous
 62
     7
370
    15
100
AcDbLine
 10
116.9875895695
 20
191.5501216741
 30
0.0
 11
117.0754561291
 21
191.5501216741
 31
0.0
  0
LINE
  5
F0
330
1F
100
AcDbEntity
  8
0
  6
Continuous
 62
     7
370
    15
100
AcDbLine
 10
116.9875895695
 20
41.5501231643
 30
0.0
 11
117.0754561291
 21
41.5501231643
 31
0.0
  0
LINE
  5
F1
330
1F
100
AcDbEntity
  8
0
  6
Continuous
 62
     7
370
    15
100
AcDbLine
 10
107.134375544
 20
191.5501216741
 30
0.0
 11
113.8408014641
 21
191.5501216741
 31
0.0
  0
LINE
  5
F2
330
1F
100
AcDbEntity
  8
0
  6
Continuous
 62
     7
370
    15
100
AcDbLine
 10
107.134375544
 20
41.5501231643
 30
0.0
 11
113.8408014641
 21
41.5501231643
 31
0.0
  0
LINE
  5
F3
330
1F
100
AcDbEntity
  8
0
  6
Continuous
 62
     7
370
    15
100
AcDbLine
 10
106.7808212802
 20
191.5501216741
 30
0.0
 11
107.134375544
 21
191.5501216741
 31
0.0
  0
LINE
  5
F4
330
1F
100
AcDbEntity
  8
0
  6
Continuous
 62
     7
370
    15
100
AcDbLine
 10
106.7808212802
 20
41.5501231643
 30
0.0
 11
107.134375544
 21
41.5501231643
 31
0.0
  0
LINE
  5
F5
330
1F
100
AcDbEntity
  8
0
  6
Continuous
 62
     7
370
    15
100
AcDbLine
 10
113.8408014641
 20
191.5501216741
 30
0.0
 11
114.1943557278
 21
191.5501216741
 31
0.0
  0
LINE
  5
F6
330
1F
100
AcDbEntity
  8
0
  6
Continuous
 62
     7
370
    15
100
AcDbLine
 10
113.8408014641
 20
41.5501231643
 30
0.0
 11
114.1943557278
 21
41.5501231643
 31
0.0
  0
LINE
  5
F7
330
1F
100
AcDbEntity
  8
0
  6
Continuous
 62
     7
370
    15
100
AcDbLine
 10
104.4997217224
 20
191.5501216741
 30
0.0
 11
106.7808212802
 21
191.5501216741
 31
0.0
  0
LINE
  5
F8
330
1F
100
AcDbEntity
  8
0
  6
Continuous
 62
     7
370
    15
100
AcDbLine
 10
104.4997217224
 20
41.5501231643
 30
0.0
 11
106.7808212802
 21
41.5501231643
 31
0.0
  0
LINE
  5
F9
330
1F
100
AcDbEntity
  8
0
  6
Continuous
 62
     7
370
    15
100
AcDbLine
 10
114.1943557278
 20
191.5501216741
 30
0.0
 11
116.4754571483
 21
191.5501216741
 31
0.0
  0
LINE
  5
FA
330
1F
100
AcDbEntity
  8
0
  6
Continuous
 62
     7
370
    15
100
AcDbLine
 10
114.1943557278
 20
41.5501231643
 30
0.0
 11
116.4754571483
 21
41.5501231643
 31
0.0
  0
LINE
  5
FB
330
1F
100
AcDbEntity
  8
0
  6
Continuous
 62
     7
370
    15
100
AcDbLine
 10
103.9875874386
 20
191.5501216741
 30
0.0
 11
104.4997217224
 21
191.5501216741
 31
0.0
  0
LINE
  5
FC
330
1F
100
AcDbEntity
  8
0
  6
Continuous
 62
     7
370
    15
100
AcDbLine
 10
103.9875874386
 20
41.5501231643
 30
0.0
 11
104.4997217224
 21
41.5501231643
 31
0.0
  0
LINE
  5
FD
330
1F
100
AcDbEntity
  8
0
  6
Continuous
 62
     7
370
    15
100
AcDbLine
 10
116.4754571483
 20
191.5501216741
 30
0.0
 11
116.9875895695
 21
191.5501216741
 31
0.0
  0
LINE
  5
FE
330
1F
100
AcDbEntity
  8
0
  6
Continuous
 62
     7
370
    15
100
AcDbLine
 10
116.4754571483
 20
41.5501231643
 30
0.0
 11
116.9875895695
 21
41.5501231643
 31
0.0
  0
LINE
  5
FF
330
1F
100
AcDbEntity
  8
0
  6
Continuous
 62
     7
370
    15
100
AcDbLine
 10
106.1958352194
 20
73.3417747857
 30
0.0
 11
106.2874848113
 21
73.2501233312
 31
0.0
  0
ELLIPSE
  5
100
330
1F
100
AcDbEntity
  8
0
  6
Continuous
 62
     7
370
    15
100
AcDbEllipse
 10
106.287691478
 20
72.9500210865
 30
0.0
 11
-0.2122774439829982
 21
0.2122774439830266
 31
0.0
210
0.0
220
0.0
230
1.0
 40
0.999315002
 41
5.498129760120343
 42
7.068240854238977
  0
LINE
  5
101
330
1F
100
AcDbEntity
  8
0
  6
Continuous
 62
     7
370
    15
100
AcDbLine
 10
105.9875877664
 20
72.9502262863
 30
0.0
 11
105.8959381745
 21
73.0418777408
 31
0.0
  0
ELLIPSE
  5
102
330
1F
100
AcDbEntity
  8
0
  6
Continuous
 62
     7
370
    15
100
AcDbEllipse
 10
106.1960407525
 20
73.041671812
 30
0.0
 11
-0.2122774439830123
 21
0.2122774439829982
 31
0.0
210
0.0
220
0.0
230
0.9999999999999998
 40
0.999315002
 41
5.498129760120307
 42
7.06824085423886
  0
ARC
  5
103
330
1F
100
AcDbEntity
  8
0
  6
Continuous
 62
     7
370
    15
100
AcDbCircle
 10
70.8016046117
 20
90.9618170547
 30
0.0
 40
42.87447700810252
100
AcDbArc
 50
341.2538315025
 51
341.3843993773
  0
ARC
  5
104
330
1F
100
AcDbEntity
  8
0
  6
Continuous
 62
     7
370
    15
100
AcDbCircle
 10
106.9875886403
 20
71.7501239243
 30
0.0
 40
7.091650725492166
100
AcDbArc
 50
18.6785426725
 51
51.1822610317
  0
LWPOLYLINE
  5
105
330
1F
100
AcDbEntity
  8
0
  6
Continuous
 62
     7
370
    15
100
AcDbPolyline
 90
        3
 70
   128
 43
0.0
 10
113.6370802388
 20
73.9374170395
 10
113.6763559744
 20
73.985296333
 10
113.7057243005
 20
74.0212826373
  0
ARC
  5
106
330
1F
100
AcDbEntity
  8
0
  6
Continuous
 62
     7
370
    15
100
AcDbCircle
 10
106.9875886403
 20
71.7501239243
 30
0.0
 40
7.000000000000009
100
AcDbArc
 50
18.2081805567
 51
50.9069441399
  0
LINE
  5
107
330
1F
100
AcDbEntity
  8
0
  6
Continuous
 62
     7
370
    15
100
AcDbLine
 10
116.248309435
 20
68.8417749794
 30
0.0
 11
104.726867573
 21
68.8417749794
 31
0.0
  0
LINE
  5
108
330
1F
100
AcDbEntity
  8
0
  6
Continuous
 62
     7
370
    15
100
AcDbLine
 10
116.2875888959
 20
68.8024955185
 30
0.0
 11
116.248309435
 21
68.8417749794
 31
0.0
  0
LINE
  5
109
330
1F
100
AcDbEntity
  8
0
  6
Continuous
 62
     7
370
    15
100
AcDbLine
 10
116.2875888959
 20
68.7501235249
 30
0.0
 11
116.2875888959
 21
68.8024955185
 31
0.0
  0
LINE
  5
10A
330
1F
100
AcDbEntity
  8
0
  6
Continuous
 62
     7
370
    15
100
AcDbLine
 10
104.6875881121
 20
68.7501235249
 30
0.0
 11
116.2875888959
 21
68.7501235249
 31
0.0
  0
LINE
  5
10B
330
1F
100
AcDbEntity
  8
0
  6
Continuous
 62
     7
370
    15
100
AcDbLine
 10
104.6875881121
 20
68.8024955185
 30
0.0
 11
104.6875881121
 21
68.7501235249
 31
0.0
  0
LINE
  5
10C
330
1F
100
AcDbEntity
  8
0
  6
Continuous
 62
     7
370
    15
100
AcDbLine
 10
104.726867573
 20
68.8417749794
 30
0.0
 11
104.6875881121
 21
68.8024955185
 31
0.0
  0
LINE
  5
10D
330
1F
100
AcDbEntity
  8
0
  6
Continuous
 62
     7
370
    15
100
AcDbLine
 10
114.7793417887
 20
71.658472562
 30
0.0
 11
114.6876921967
 21
71.7501240166
 31
0.0
  0
ELLIPSE
  5
10E
330
1F
100
AcDbEntity
  8
0
  6
Continuous
 62
     7
370
    15
100
AcDbEllipse
 10
114.6874858025
 20
72.050226762
 30
0.0
 11
0.2122774439829982
 21
-0.2122774439830123
 31
0.0
210
0.0
220
0.0
230
0.9999999999999998
 40
0.999315002
 41
5.498129760120343
 42
7.068240854238863
  0
LINE
  5
10F
330
1F
100
AcDbEntity
  8
0
  6
Continuous
 62
     7
370
    15
100
AcDbLine
 10
114.9875892416
 20
72.0500210615
 30
0.0
 11
115.0792388336
 21
71.9583696069
 31
0.0
  0
ELLIPSE
  5
110
330
1F
100
AcDbEntity
  8
0
  6
Continuous
 62
     7
370
    15
100
AcDbEllipse
 10
114.779136528
 20
71.9585760365
 30
0.0
 11
0.2122774439829982
 21
-0.2122774439829982
 31
0.0
210
0.0
220
0.0
230
0.9999999999999998
 40
0.999315002
 41
5.498129760120296
 42
7.068240854238891
  0
LINE
  5
111
330
1F
100
AcDbEntity
  8
0
  6
Continuous
 62
     7
370
    15
100
AcDbLine
 10
115.3875885621
 20
82.1628654691
 30
0.0
 11
115.426868023
 21
82.1628654691
 31
0.0
  0
LINE
  5
112
330
1F
100
AcDbEntity
  8
0
  6
Continuous
 62
     7
370
    15
100
AcDbLine
 10
115.3875885621
 20
89.9123261066
 30
0.0
 11
115.3875885621
 21
82.1628654691
 31
0.0
  0
LINE
  5
113
330
1F
100
AcDbEntity
  8
0
  6
Continuous
 62
     7
370
    15
100
AcDbLine
 10
115.4792400167
 20
89.8949541466
 30
0.0
 11
115.3875885621
 21
89.9123261066
 31
0.0
  0
LINE
  5
114
330
1F
100
AcDbEntity
  8
0
  6
Continuous
 62
     7
370
    15
100
AcDbLine
 10
115.4792400167
 20
81.7501237931
 30
0.0
 11
115.4792400167
 21
89.8949541466
 31
0.0
  0
LINE
  5
115
330
1F
100
AcDbEntity
  8
0
  6
Continuous
 62
     7
370
    15
100
AcDbLine
 10
115.426868023
 20
81.7501237931
 30
0.0
 11
115.4792400167
 21
81.7501237931
 31
0.0
  0
LINE
  5
116
330
1F
100
AcDbEntity
  8
0
  6
Continuous
 62
     7
370
    15
100
AcDbLine
 10
115.426868023
 20
82.1628654691
 30
0.0
 11
115.426868023
 21
81.7501237931
 31
0.0
  0
LINE
  5
117
330
1F
100
AcDbEntity
  8
0
  6
Continuous
 62
     7
370
    15
100
AcDbLine
 10
106.1958352194
 20
73.3417747857
 30
0.0
 11
106.3224466608
 21
73.3417747857
 31
0.0
  0
LWPOLYLINE
  5
118
330
1F
100
AcDbEntity
  8
0
  6
Continuous
 62
     7
370
    15
100
AcDbPolyline
 90
        3
 70
   128
 43
0.0
 10
106.3884960578
 20
73.2501233312
 10
106.355698602
 20
73.2955364825
 10
106.3224466608
 20
73.3417747857
  0
LINE
  5
119
330
1F
100
AcDbEntity
  8
0
  6
Continuous
 62
     7
370
    15
100
AcDbLine
 10
106.2874848113
 20
73.2501233312
 30
0.0
 11
106.3884960578
 21
73.2501233312
 31
0.0
  0
LINE
  5
11A
330
1F
100
AcDbEntity
  8
0
  6
Continuous
 62
     7
370
    15
100
AcDbLine
 10
102.7272993789
 20
98.710413588
 30
0.0
 11
102.6875877843
 21
98.7501240185
 31
0.0
  0
LINE
  5
11B
330
1F
100
AcDbEntity
  8
0
  6
Continuous
 62
     7
370
    15
100
AcDbLine
 10
102.7399616406
 20
82.250123875
 30
0.0
 11
102.7399616406
 21
89.7501237074
 31
0.0
  0
LINE
  5
11C
330
1F
100
AcDbEntity
  8
0
  6
Continuous
 62
     7
370
    15
100
AcDbLine
 10
102.7792411015
 20
75.7108452113
 30
0.0
 11
102.7399616406
 21
75.7501246723
 31
0.0
  0
LINE
  5
11D
330
1F
100
AcDbEntity
  8
0
  6
Continuous
 62
     7
370
    15
100
AcDbLine
 10
102.7792411015
 20
75.7108452113
 30
0.0
 11
102.7792411015
 21
73.7894019427
 31
0.0
  0
LINE
  5
11E
330
1F
100
AcDbEntity
  8
0
  6
Continuous
 62
     7
370
    15
100
AcDbLine
 10
102.7792411015
 20
73.7894019427
 30
0.0
 11
102.7399616406
 21
73.7501243444
 31
0.0
  0
LINE
  5
11F
330
1F
100
AcDbEntity
  8
0
  6
Continuous
 62
     7
370
    15
100
AcDbLine
 10
102.7399616406
 20
70.7501238527
 30
0.0
 11
102.7399616406
 21
73.7501243444
 31
0.0
  0
LINE
  5
120
330
1F
100
AcDbEntity
  8
0
  6
Continuous
 62
     7
370
    15
100
AcDbLine
 10
102.6875877843
 20
70.7501238527
 30
0.0
 11
102.7399616406
 21
70.7501238527
 31
0.0
  0
LINE
  5
121
330
1F
100
AcDbEntity
  8
0
  6
Continuous
 62
     7
370
    15
100
AcDbLine
 10
102.6875877843
 20
70.7501238527
 30
0.0
 11
102.6875877843
 21
75.7501246723
 31
0.0
  0
LINE
  5
122
330
1F
100
AcDbEntity
  8
0
  6
Continuous
 62
     7
370
    15
100
AcDbLine
 10
102.6875877843
 20
82.250123875
 30
0.0
 11
102.6875877843
 21
89.7501237074
 31
0.0
  0
LINE
  5
123
330
1F
100
AcDbEntity
  8
0
  6
Continuous
 62
     7
370
    15
100
AcDbLine
 10
102.6875877843
 20
98.710413588
 30
0.0
 11
102.6875877843
 21
98.7501240185
 31
0.0
  0
LWPOLYLINE
  5
124
330
1F
100
AcDbEntity
  8
0
  6
Continuous
 62
     7
370
    15
100
AcDbPolyline
 90
        3
 70
   128
 43
0.0
 10
109.7302118406
 20
77.3417754414
 10
109.7463796005
 20
77.2959748598
 10
109.7626255915
 20
77.2501239868
  0
SPLINE
  5
125
330
1F
100
AcDbEntity
  8
0
  6
Continuous
 62
     7
370
    15
100
AcDbSpline
210
0.0
220
0.0
230
1.0
 70
     8
 71
     3
 72
     9
 73
     5
 74
     0
 42
0.00000001
 43
0.00000001
 40
0.0
 40
0.0
 40
0.0
 40
0.0
 40
0.5000003637640724
 40
1.0
 40
1.0
 40
1.0
 40
1.0
 10
109.7626255915218
 20
77.25012398680212
 30
0.0
 10
109.7282161816408
 20
77.24707732824002
 30
0.0
 10
109.6593974119463
 20
77.24098401554888
 30
0.0
 10
109.6021436684014
 20
77.20231671564108
 30
0.0
 10
109.5735168174558
 20
77.18298307975294
 30
0.0
  0
ARC
  5
126
330
1F
100
AcDbEntity
  8
0
  6
Continuous
 62
     7
370
    15
100
AcDbCircle
 10
152.0665796759
 20
91.6018608313
 30
0.0
 40
44.87275818028909
100
AcDbArc
 50
198.6185078591
 51
198.7432612611
  0
SPLINE
  5
127
330
1F
100
AcDbEntity
  8
0
  6
Continuous
 62
     7
370
    15
100
AcDbSpline
210
0.0
220
0.0
230
1.0
 70
     8
 71
     3
 72
     9
 73
     5
 74
     0
 42
0.00000001
 43
0.00000001
 40
0.0
 40
0.0
 40
0.0
 40
0.0
 40
0.4999971858566786
 40
1.0
 40
1.0
 40
1.0
 40
1.0
 10
109.5422225163036
 20
77.27553977986338
 30
0.0
 10
109.5707220172066
 20
77.29461637150848
 30
0.0
 10
109.6277213398212
 20
77.33276976953692
 30
0.0
 10
109.6960482121759
 20
77.33877353949536
 30
0.0
 10
109.7302118406349
 20
77.34177544137003
 30
0.0
  0
LINE
  5
128
330
1F
100
AcDbEntity
  8
0
  6
Continuous
 62
     7
370
    15
100
AcDbLine
 10
118.1959377692
 20
73.7894019427
 30
0.0
 11
118.2352172301
 21
73.7501243444
 31
0.0
  0
LINE
  5
129
330
1F
100
AcDbEntity
  8
0
  6
Continuous
 62
     7
370
    15
100
AcDbLine
 10
118.1959377692
 20
73.7894019427
 30
0.0
 11
118.1959377692
 21
75.7108452113
 31
0.0
  0
LINE
  5
12A
330
1F
100
AcDbEntity
  8
0
  6
Continuous
 62
     7
370
    15
100
AcDbLine
 10
118.1959377692
 20
75.7108452113
 30
0.0
 11
118.2352172301
 21
75.7501246723
 31
0.0
  0
LINE
  5
12B
330
1F
100
AcDbEntity
  8
0
  6
Continuous
 62
     7
370
    15
100
AcDbLine
 10
118.2352172301
 20
82.250123875
 30
0.0
 11
118.2352172301
 21
89.7501237074
 31
0.0
  0
LINE
  5
12C
330
1F
100
AcDbEntity
  8
0
  6
Continuous
 62
     7
370
    15
100
AcDbLine
 10
118.2875892237
 20
98.7501240185
 30
0.0
 11
118.2478776292
 21
98.710413588
 31
0.0
  0
LINE
  5
12D
330
1F
100
AcDbEntity
  8
0
  6
Continuous
 62
     7
370
    15
100
AcDbLine
 10
118.2875892237
 20
70.7501238527
 30
0.0
 11
118.2875892237
 21
75.7501246723
 31
0.0
  0
LINE
  5
12E
330
1F
100
AcDbEntity
  8
0
  6
Continuous
 62
     7
370
    15
100
AcDbLine
 10
118.2875892237
 20
82.250123875
 30
0.0
 11
118.2875892237
 21
89.7501237074
 31
0.0
  0
LINE
  5
12F
330
1F
100
AcDbEntity
  8
0
  6
Continuous
 62
     7
370
    15
100
AcDbLine
 10
118.2875892237
 20
98.710413588
 30
0.0
 11
118.2875892237
 21
98.7501240185
 31
0.0
  0
LINE
  5
130
330
1F
100
AcDbEntity
  8
0
  6
Continuous
 62
     7
370
    15
100
AcDbLine
 10
118.2352172301
 20
70.7501238527
 30
0.0
 11
118.2875892237
 21
70.7501238527
 31
0.0
  0
LINE
  5
131
330
1F
100
AcDbEntity
  8
0
  6
Continuous
 62
     7
370
    15
100
AcDbLine
 10
118.2352172301
 20
70.7501238527
 30
0.0
 11
118.2352172301
 21
73.7501243444
 31
0.0
  0
SPLINE
  5
132
330
1F
100
AcDbEntity
  8
0
  6
Continuous
 62
     7
370
    15
100
AcDbSpline
210
0.0
220
0.0
230
1.0
 70
     8
 71
     3
 72
     9
 73
     5
 74
     0
 42
0.00000001
 43
0.00000001
 40
0.0
 40
0.0
 40
0.0
 40
0.0
 40
0.5019403578796888
 40
1.0
 40
1.0
 40
1.0
 40
1.0
 10
112.0447663680368
 20
71.42065375467303
 30
0.0
 10
112.0318721798985
 20
71.43403803079396
 30
0.0
 10
112.0061834941098
 20
71.46070310346803
 30
0.0
 10
111.9797743048149
 20
71.48706590542021
 30
0.0
 10
111.966620953446
 20
71.50019615312578
 30
0.0
  0
SPLINE
  5
133
330
1F
100
AcDbEntity
  8
0
  6
Continuous
 62
     7
370
    15
100
AcDbSpline
210
0.0
220
0.0
230
1.0
 70
     8
 71
     3
 72
    12
 73
     8
 74
     0
 42
0.00000001
 43
0.00000001
 40
0.0
 40
0.0
 40
0.0
 40
0.0
 40
0.2403706403983467
 40
0.4807457213678653
 40
0.7210562714422295
 40
0.9613558484573159
 40
1.0
 40
1.0
 40
1.0
 40
1.0
 10
111.966620953446
 20
71.50019615312578
 30
0.0
 10
111.9755074976592
 20
71.53289589598697
 30
0.0
 10
111.9932807502543
 20
71.59829598579948
 30
0.0
 10
112.0592324622039
 20
71.67823230807977
 30
0.0
 10
112.1455826493003
 20
71.73267390550654
 30
0.0
 10
112.2179864107097
 20
71.74936099052574
 30
0.0
 10
112.2569300340263
 20
71.75003117145116
 30
0.0
 10
112.2623251841121
 20
71.75012401660445
 30
0.0
  0
SPLINE
  5
134
330
1F
100
AcDbEntity
  8
0
  6
Continuous
 62
     7
370
    15
100
AcDbSpline
210
0.0
220
0.0
230
1.0
 70
     8
 71
     3
 72
     9
 73
     5
 74
     0
 42
0.00000001
 43
0.00000001
 40
0.0
 40
0.0
 40
0.0
 40
0.0
 40
0.4980607801571102
 40
1.0
 40
1.0
 40
1.0
 40
1.0
 10
112.2623251841121
 20
71.75012401660445
 30
0.0
 10
112.2751145141295
 20
71.73490809323557
 30
0.0
 10
112.3007927657142
 20
71.7043577588686
 30
0.0
 10
112.3256776632457
 20
71.67380712391224
 30
0.0
 10
112.3381683692985
 20
71.65847256203654
 30
0.0
  0
SPLINE
  5
135
330
1F
100
AcDbEntity
  8
0
  6
Continuous
 62
     7
370
    15
100
AcDbSpline
210
0.0
220
0.0
230
1.0
 70
     8
 71
     3
 72
    11
 73
     7
 74
     0
 42
0.00000001
 43
0.00000001
 40
0.0
 40
0.0
 40
0.0
 40
0.0
 40
0.247689730019818
 40
0.4953799651818159
 40
0.7430113147044418
 40
0.9999999999999999
 40
0.9999999999999999
 40
0.9999999999999999
 40
0.9999999999999999
 10
112.3381683692985
 20
71.65847256203654
 30
0.0
 10
112.304408389948
 20
71.65516494969339
 30
0.0
 10
112.2368883623962
 20
71.64854971826146
 30
0.0
 10
112.1476322744767
 20
71.59674686740149
 30
0.0
 10
112.0765835256588
 20
71.52007276440558
 30
0.0
 10
112.0555023920491
 20
71.45420058775123
 30
0.0
 10
112.0447663680368
 20
71.42065375467303
 30
0.0
  0
SPLINE
  5
136
330
1F
100
AcDbEntity
  8
0
  6
Continuous
 62
     7
370
    15
100
AcDbSpline
210
0.0
220
0.0
230
1.0
 70
     8
 71
     3
 72
     9
 73
     5
 74
     0
 42
0.00000001
 43
0.00000001
 40
0.0
 40
0.0
 40
0.0
 40
0.0
 40
0.5019392198428897
 40
1.0
 40
1.0
 40
1.0
 40
1.0
 10
108.6370086387449
 20
71.65847256203654
 30
0.0
 10
108.6494993447977
 20
71.67380712391224
 30
0.0
 10
108.6743842423293
 20
71.7043577588686
 30
0.0
 10
108.7000624939139
 20
71.73490809323557
 30
0.0
 10
108.7128518239313
 20
71.75012401660445
 30
0.0
  0
SPLINE
  5
137
330
1F
100
AcDbEntity
  8
0
  6
Continuous
 62
     7
370
    15
100
AcDbSpline
210
0.0
220
0.0
230
1.0
 70
     8
 71
     3
 72
    12
 73
     8
 74
     0
 42
0.00000001
 43
0.00000001
 40
0.0
 40
0.0
 40
0.0
 40
0.0
 40
0.2403739492846417
 40
0.4807461610347945
 40
0.7210590724105145
 40
0.9613579659525763
 40
1.0
 40
1.0
 40
1.0
 40
1.0
 10
108.7128518239313
 20
71.75012401660445
 30
0.0
 10
108.7465757284134
 20
71.74681043809714
 30
0.0
 10
108.8140232936055
 20
71.74018330503462
 30
0.0
 10
108.9038308674905
 20
71.68847060736934
 30
0.0
 10
108.9718980488286
 20
71.61239850049141
 30
0.0
 10
109.0004182015699
 20
71.54378777694886
 30
0.0
 10
109.0075658780711
 20
71.50550018141266
 30
0.0
 10
109.0085560545974
 20
71.50019615312578
 30
0.0
  0
SPLINE
  5
138
330
1F
100
AcDbEntity
  8
0
  6
Continuous
 62
     7
370
    15
100
AcDbSpline
210
0.0
220
0.0
230
1.0
 70
     8
 71
     3
 72
     9
 73
     5
 74
     0
 42
0.00000001
 43
0.00000001
 40
0.0
 40
0.0
 40
0.0
 40
0.0
 40
0.4980596421203113
 40
1.0
 40
1.0
 40
1.0
 40
1.0
 10
109.0085560545974
 20
71.50019615312578
 30
0.0
 10
108.9954027032285
 20
71.4870659054202
 30
0.0
 10
108.9689935139337
 20
71.46070310346802
 30
0.0
 10
108.9433048281449
 20
71.43403803079394
 30
0.0
 10
108.9304106400066
 20
71.42065375467303
 30
0.0
  0
SPLINE
  5
139
330
1F
100
AcDbEntity
  8
0
  6
Continuous
 62
     7
370
    15
100
AcDbSpline
210
0.0
220
0.0
230
1.0
 70
     8
 71
     3
 72
    11
 73
     7
 74
     0
 42
0.00000001
 43
0.00000001
 40
0.0
 40
0.0
 40
0.0
 40
0.0
 40
0.247688717722008
 40
0.4953809368566597
 40
0.743009999755363
 40
1.0
 40
1.0
 40
1.0
 40
1.0
 10
108.9304106400066
 20
71.42065375467303
 30
0.0
 10
108.9201866576126
 20
71.45299788848591
 30
0.0
 10
108.8997385482949
 20
71.51768661333944
 30
0.0
 10
108.8305804734066
 20
71.59428499921722
 30
0.0
 10
108.7408609419992
 20
71.64792524030904
 30
0.0
 10
108.6720515560652
 20
71.65491357574865
 30
0.0
 10
108.6370086387449
 20
71.65847256203654
 30
0.0
  0
LINE
  5
13A
330
1F
100
AcDbEntity
  8
0
  6
Continuous
 62
     7
370
    15
100
AcDbLine
 10
105.8959381745
 20
71.9583696069
 30
0.0
 11
105.9875877664
 21
72.0500210615
 31
0.0
  0
LINE
  5
13B
330
1F
100
AcDbEntity
  8
0
  6
Continuous
 62
     7
370
    15
100
AcDbLine
 10
105.8959381745
 20
71.9583696069
 30
0.0
 11
105.8959381745
 21
73.0418777408
 31
0.0
  0
LINE
  5
13C
330
1F
100
AcDbEntity
  8
0
  6
Continuous
 62
     7
370
    15
100
AcDbLine
 10
105.9875877664
 20
72.0500210615
 30
0.0
 11
105.9875877664
 21
72.9502262863
 31
0.0
  0
LINE
  5
13D
330
1F
100
AcDbEntity
  8
0
  6
Continuous
 62
     7
370
    15
100
AcDbLine
 10
106.2874848113
 20
71.7501240166
 30
0.0
 11
106.1958352194
 21
71.658472562
 31
0.0
  0
LINE
  5
13E
330
1F
100
AcDbEntity
  8
0
  6
Continuous
 62
     7
370
    15
100
AcDbLine
 10
108.7128518239
 20
71.7501240166
 30
0.0
 11
106.2874848113
 21
71.7501240166
 31
0.0
  0
LINE
  5
13F
330
1F
100
AcDbEntity
  8
0
  6
Continuous
 62
     7
370
    15
100
AcDbLine
 10
108.6370086387
 20
71.658472562
 30
0.0
 11
106.1958352194
 21
71.658472562
 31
0.0
  0
LINE
  5
140
330
1F
100
AcDbEntity
  8
0
  6
Continuous
 62
     7
370
    15
100
AcDbLine
 10
109.7302118406
 20
77.3417754414
 30
0.0
 11
111.2449651674
 21
77.3417754414
 31
0.0
  0
LWPOLYLINE
  5
141
330
1F
100
AcDbEntity
  8
0
  6
Continuous
 62
     7
370
    15
100
AcDbPolyline
 90
        3
 70
   128
 43
0.0
 10
111.2125514165
 20
77.2501239868
 10
111.2287974075
 20
77.2959748598
 10
111.2449651674
 20
77.3417754414
  0
LINE
  5
142
330
1F
100
AcDbEntity
  8
0
  6
Continuous
 62
     7
370
    15
100
AcDbLine
 10
109.7626255915
 20
77.2501239868
 30
0.0
 11
111.2125514165
 21
77.2501239868
 31
0.0
  0
LINE
  5
143
330
1F
100
AcDbEntity
  8
0
  6
Continuous
 62
     7
370
    15
100
AcDbLine
 10
116.248309435
 20
98.5924746225
 30
0.0
 11
104.726867573
 21
98.5924746225
 31
0.0
  0
ELLIPSE
  5
144
330
1F
100
AcDbEntity
  8
0
  6
Continuous
 62
     7
370
    15
100
AcDbEllipse
 10
104.7137745618
 20
98.5924745298
 30
0.0
 11
0.0
 21
0.5
 31
0.0
210
0.0
220
0.0
230
1.0
 40
0.0261859216
 41
4.71238898038469
 42
5.323254218582514
  0
LINE
  5
145
330
1F
100
AcDbEntity
  8
0
  6
Continuous
 62
     7
370
    15
100
AcDbLine
 10
104.7244982884
 20
98.8792628365
 30
0.0
 11
116.250676857
 21
98.8792628365
 31
0.0
  0
ELLIPSE
  5
146
330
1F
100
AcDbEntity
  8
0
  6
Continuous
 62
     7
370
    15
100
AcDbEllipse
 10
116.2614027187
 20
98.5924745298
 30
0.0
 11
0.0
 21
0.5
 31
0.0
210
0.0
220
0.0
230
1.0
 40
0.0261859216
 41
0.9599310885972525
 42
1.570796326794897
  0
SPLINE
  5
147
330
1F
100
AcDbEntity
  8
0
  6
Continuous
 62
     7
370
    15
100
AcDbSpline
210
0.0
220
0.0
230
1.0
 70
     8
 71
     3
 72
     9
 73
     5
 74
     0
 42
0.00000001
 43
0.00000001
 40
0.0
 40
0.0
 40
0.0
 40
0.0
 40
0.4999996362359276
 40
1.0
 40
1.0
 40
1.0
 40
1.0
 10
111.4016601905876
 20
77.18298307975294
 30
0.0
 10
111.373033339642
 20
77.20231671564108
 30
0.0
 10
111.3157795960971
 20
77.24098401554889
 30
0.0
 10
111.2469608264027
 20
77.24707732824002
 30
0.0
 10
111.2125514165216
 20
77.25012398680212
 30
0.0
  0
SPLINE
  5
148
330
1F
100
AcDbEntity
  8
0
  6
Continuous
 62
     7
370
    15
100
AcDbSpline
210
0.0
220
0.0
230
1.0
 70
     8
 71
     3
 72
     9
 73
     5
 74
     0
 42
0.00000001
 43
0.00000001
 40
0.0
 40
0.0
 40
0.0
 40
0.0
 40
0.5000028141433214
 40
1.0
 40
1.0
 40
1.0
 40
1.0
 10
111.2449651674085
 20
77.34177544137003
 30
0.0
 10
111.2791287958675
 20
77.33877353949536
 30
0.0
 10
111.3474556682222
 20
77.33276976953694
 30
0.0
 10
111.4044549908368
 20
77.29461637150848
 30
0.0
 10
111.4329544917398
 20
77.27553977986338
 30
0.0
  0
LINE
  5
149
330
1F
100
AcDbEntity
  8
0
  6
Continuous
 62
     7
370
    15
100
AcDbLine
 10
114.6876921967
 20
73.2501233312
 30
0.0
 11
114.7793417887
 21
73.3417747857
 31
0.0
  0
LINE
  5
14A
330
1F
100
AcDbEntity
  8
0
  6
Continuous
 62
     7
370
    15
100
AcDbLine
 10
114.5866828129
 20
73.2501233312
 30
0.0
 11
114.6876921967
 21
73.2501233312
 31
0.0
  0
LWPOLYLINE
  5
14B
330
1F
100
AcDbEntity
  8
0
  6
Continuous
 62
     7
370
    15
100
AcDbPolyline
 90
        3
 70
   128
 43
0.0
 10
114.6527303473
 20
73.3417747857
 10
114.6194802687
 20
73.2955364825
 10
114.5866828129
 20
73.2501233312
  0
LINE
  5
14C
330
1F
100
AcDbEntity
  8
0
  6
Continuous
 62
     7
370
    15
100
AcDbLine
 10
114.6527303473
 20
73.3417747857
 30
0.0
 11
114.7793417887
 21
73.3417747857
 31
0.0
  0
LWPOLYLINE
  5
14D
330
1F
100
AcDbEntity
  8
0
  6
Continuous
 62
     7
370
    15
100
AcDbPolyline
 90
        3
 70
   128
 43
0.0
 10
107.2694527075
 20
74.0212826373
 10
107.3085906074
 20
73.9733605029
 10
107.3380967692
 20
73.9374170395
  0
SPLINE
  5
14E
330
1F
100
AcDbEntity
  8
0
  6
Continuous
 62
     7
370
    15
100
AcDbSpline
210
0.0
220
0.0
230
1.0
 70
     8
 71
     3
 72
    11
 73
     7
 74
     0
 42
0.00000001
 43
0.00000001
 40
0.0
 40
0.0
 40
0.0
 40
0.0
 40
0.2691375339449394
 40
0.5382790382104133
 40
0.8073656699028602
 40
1.0
 40
1.0
 40
1.0
 40
1.0
 10
107.338096769219
 20
73.93741703947546
 30
0.0
 10
107.2924686302363
 20
73.83398891365893
 30
0.0
 10
107.201211679164
 20
73.62713113625271
 30
0.0
 10
106.9441030514813
 20
73.398172467827
 30
0.0
 10
106.6612888337689
 20
73.2694740396481
 30
0.0
 10
106.4688029710083
 20
73.25581994706361
 30
0.0
 10
106.3884960577541
 20
73.25012333115103
 30
0.0
  0
SPLINE
  5
14F
330
1F
100
AcDbEntity
  8
0
  6
Continuous
 62
     7
370
    15
100
AcDbSpline
210
0.0
220
0.0
230
1.0
 70
     8
 71
     3
 72
    11
 73
     7
 74
     0
 42
0.00000001
 43
0.00000001
 40
0.0
 40
0.0
 40
0.0
 40
0.0
 40
0.2709084153113565
 40
0.5418173939525479
 40
0.8126744910308761
 40
0.9999999999999999
 40
0.9999999999999999
 40
0.9999999999999999
 40
0.9999999999999999
 10
106.3224466607624
 20
73.34177478571894
 30
0.0
 10
106.4349522022045
 20
73.35279926368837
 30
0.0
 10
106.6599635190341
 20
73.37484824255161
 30
0.0
 10
106.9578222734608
 20
73.54754052741764
 30
0.0
 10
107.1664724572485
 20
73.77394300682093
 30
0.0
 10
107.2395679898216
 20
73.94950503903145
 30
0.0
 10
107.2694527075344
 20
74.02128263731959
 30
0.0
  0
LINE
  5
150
330
1F
100
AcDbEntity
  8
0
  6
Continuous
 62
     7
370
    15
100
AcDbLine
 10
106.5875904725
 20
80.7501236292
 30
0.0
 11
106.5875904725
 21
80.6584740373
 31
0.0
  0
LINE
  5
151
330
1F
100
AcDbEntity
  8
0
  6
Continuous
 62
     7
370
    15
100
AcDbLine
 10
113.0304819063
 20
80.7501236292
 30
0.0
 11
106.5875904725
 21
80.7501236292
 31
0.0
  0
LINE
  5
152
330
1F
100
AcDbEntity
  8
0
  6
Continuous
 62
     7
370
    15
100
AcDbLine
 10
113.0304819063
 20
80.7108441683
 30
0.0
 11
113.0304819063
 21
80.7501236292
 31
0.0
  0
LINE
  5
153
330
1F
100
AcDbEntity
  8
0
  6
Continuous
 62
     7
370
    15
100
AcDbLine
 10
113.0304819063
 20
80.7108441683
 30
0.0
 11
114.3875883982
 21
80.7108441683
 31
0.0
  0
LINE
  5
154
330
1F
100
AcDbEntity
  8
0
  6
Continuous
 62
     7
370
    15
100
AcDbLine
 10
114.3875883982
 20
80.6584740373
 30
0.0
 11
114.3875883982
 21
80.7108441683
 31
0.0
  0
LINE
  5
155
330
1F
100
AcDbEntity
  8
0
  6
Continuous
 62
     7
370
    15
100
AcDbLine
 10
106.5875904725
 20
80.6584740373
 30
0.0
 11
114.3875883982
 21
80.6584740373
 31
0.0
  0
LINE
  5
156
330
1F
100
AcDbEntity
  8
0
  6
Continuous
 62
     7
370
    15
100
AcDbLine
 10
104.726867573
 20
75.7108452113
 30
0.0
 11
104.6875881121
 21
75.7501246723
 31
0.0
  0
LINE
  5
157
330
1F
100
AcDbEntity
  8
0
  6
Continuous
 62
     7
370
    15
100
AcDbLine
 10
104.726867573
 20
75.7108452113
 30
0.0
 11
102.7792411015
 21
75.7108452113
 31
0.0
  0
LINE
  5
158
330
1F
100
AcDbEntity
  8
0
  6
Continuous
 62
     7
370
    15
100
AcDbLine
 10
104.6875881121
 20
75.7501246723
 30
0.0
 11
104.4875884519
 21
75.7501246723
 31
0.0
  0
LINE
  5
159
330
1F
100
AcDbEntity
  8
0
  6
Continuous
 62
     7
370
    15
100
AcDbLine
 10
116.2875888959
 20
68.8024955185
 30
0.0
 11
116.2875888959
 21
73.7501243444
 31
0.0
  0
LINE
  5
15A
330
1F
100
AcDbEntity
  8
0
  6
Continuous
 62
     7
370
    15
100
AcDbLine
 10
116.248309435
 20
68.8417749794
 30
0.0
 11
116.248309435
 21
73.7894019427
 31
0.0
  0
LINE
  5
15B
330
1F
100
AcDbEntity
  8
0
  6
Continuous
 62
     7
370
    15
100
AcDbLine
 10
116.248309435
 20
73.7894019427
 30
0.0
 11
116.2875888959
 21
73.7501243444
 31
0.0
  0
ELLIPSE
  5
15C
330
1F
100
AcDbEntity
  8
0
  6
Continuous
 62
     7
370
    15
100
AcDbEllipse
 10
106.287691478
 20
72.050226762
 30
0.0
 11
-0.2122774439829982
 21
-0.2122774439830123
 31
0.0
210
0.0
220
0.0
230
0.9999999999999998
 40
0.999315002
 41
5.498129760120356
 42
7.06824085423881
  0
ELLIPSE
  5
15D
330
1F
100
AcDbEntity
  8
0
  6
Continuous
 62
     7
370
    15
100
AcDbEllipse
 10
106.1960407525
 20
71.9585760365
 30
0.0
 11
-0.2122774439830123
 21
-0.2122774439829982
 31
0.0
210
0.0
220
0.0
230
0.9999999999999998
 40
0.999315002
 41
5.498129760120329
 42
7.068240854238829
  0
LINE
  5
15E
330
1F
100
AcDbEntity
  8
0
  6
Continuous
 62
     7
370
    15
100
AcDbLine
 10
104.726867573
 20
68.8417749794
 30
0.0
 11
104.726867573
 21
73.7894019427
 31
0.0
  0
LINE
  5
15F
330
1F
100
AcDbEntity
  8
0
  6
Continuous
 62
     7
370
    15
100
AcDbLine
 10
104.6875881121
 20
68.8024955185
 30
0.0
 11
104.6875881121
 21
73.7501243444
 31
0.0
  0
LINE
  5
160
330
1F
100
AcDbEntity
  8
0
  6
Continuous
 62
     7
370
    15
100
AcDbLine
 10
104.726867573
 20
73.7894019427
 30
0.0
 11
104.6875881121
 21
73.7501243444
 31
0.0
  0
LINE
  5
161
330
1F
100
AcDbEntity
  8
0
  6
Continuous
 62
     7
370
    15
100
AcDbLine
 10
115.0792388336
 20
73.0418777408
 30
0.0
 11
114.9875892416
 21
72.9502262863
 31
0.0
  0
ELLIPSE
  5
162
330
1F
100
AcDbEntity
  8
0
  6
Continuous
 62
     7
370
    15
100
AcDbEllipse
 10
114.6874858025
 20
72.9500210865
 30
0.0
 11
0.2122774439829982
 21
0.2122774439830266
 31
0.0
210
0.0
220
0.0
230
1.0
 40
0.999315002
 41
5.498129760120243
 42
7.06824085423881
  0
ELLIPSE
  5
163
330
1F
100
AcDbEntity
  8
0
  6
Continuous
 62
     7
370
    15
100
AcDbEllipse
 10
114.779136528
 20
73.041671812
 30
0.0
 11
0.2122774439829982
 21
0.2122774439829982
 31
0.0
210
0.0
220
0.0
230
0.9999999999999998
 40
0.999315002
 41
5.498129760120326
 42
7.068240854238907
  0
LINE
  5
164
330
1F
100
AcDbEntity
  8
0
  6
Continuous
 62
     7
370
    15
100
AcDbLine
 10
114.3875883982
 20
95.7501239342
 30
0.0
 11
114.3875883982
 21
95.8417746321
 31
0.0
  0
ARC
  5
165
330
1F
100
AcDbEntity
  8
0
  6
Continuous
 62
     7
370
    15
100
AcDbCircle
 10
114.3875886403
 20
94.7501239243
 30
0.0
 40
1.091650725492158
100
AcDbArc
 50
0.0
 51
90.0
  0
LINE
  5
166
330
1F
100
AcDbEntity
  8
0
  6
Continuous
 62
     7
370
    15
100
AcDbLine
 10
115.4792400167
 20
94.7501239449
 30
0.0
 11
115.3875885621
 21
94.7501239449
 31
0.0
  0
ARC
  5
167
330
1F
100
AcDbEntity
  8
0
  6
Continuous
 62
     7
370
    15
100
AcDbCircle
 10
114.3875886403
 20
94.7501239243
 30
0.0
 40
1.0
100
AcDbArc
 50
0.0
 51
90.0
  0
LINE
  5
168
330
1F
100
AcDbEntity
  8
0
  6
Continuous
 62
     7
370
    15
100
AcDbLine
 10
115.0792388336
 20
73.0418777408
 30
0.0
 11
115.0792388336
 21
71.9583696069
 31
0.0
  0
LINE
  5
169
330
1F
100
AcDbEntity
  8
0
  6
Continuous
 62
     7
370
    15
100
AcDbLine
 10
114.9875892416
 20
72.9502262863
 30
0.0
 11
114.9875892416
 21
72.0500210615
 31
0.0
  0
SPLINE
  5
16A
330
1F
100
AcDbEntity
  8
0
  6
Continuous
 62
     7
370
    15
100
AcDbSpline
210
0.0
220
0.0
230
1.0
 70
     8
 71
     3
 72
    11
 73
     7
 74
     0
 42
0.00000001
 43
0.00000001
 40
0.0
 40
0.0
 40
0.0
 40
0.0
 40
0.2691386145689975
 40
0.5382788443612575
 40
0.8073652323432103
 40
1.0
 40
1.0
 40
1.0
 40
1.0
 10
114.5866828129345
 20
73.25012333115103
 30
0.0
 10
114.4741755586909
 20
73.26114856917333
 30
0.0
 10
114.2491603749966
 20
73.2831991113854
 30
0.0
 10
113.9513274581722
 20
73.45589140491526
 30
0.0
 10
113.7407027367788
 20
73.68433007885886
 30
0.0
 10
113.6675854961421
 20
73.86291118399271
 30
0.0
 10
113.6370802388244
 20
73.93741703947546
 30
0.0
  0
SPLINE
  5
16B
330
1F
100
AcDbEntity
  8
0
  6
Continuous
 62
     7
370
    15
100
AcDbSpline
210
0.0
220
0.0
230
1.0
 70
     8
 71
     3
 72
    11
 73
     7
 74
     0
 42
0.00000001
 43
0.00000001
 40
0.0
 40
0.0
 40
0.0
 40
0.0
 40
0.2709073822165568
 40
0.541816659734323
 40
0.8126729577540487
 40
1.0
 40
1.0
 40
1.0
 40
1.0
 10
113.705724300509
 20
74.02128263731959
 30
0.0
 10
113.752199434792
 20
73.91823419277293
 30
0.0
 10
113.8451500285037
 20
73.71213658274003
 30
0.0
 10
114.1041370394763
 20
73.48527238747444
 30
0.0
 10
114.3854366437201
 20
73.36011686445171
 30
0.0
 10
114.5751617438076
 20
73.34709765495658
 30
0.0
 10
114.6527303472811
 20
73.34177478571894
 30
0.0
  0
ARC
  5
16C
330
1F
100
AcDbEntity
  8
0
  6
Continuous
 62
     7
370
    15
100
AcDbCircle
 10
110.7375886403
 20
91.7501239243
 30
0.0
 40
5.000000000000002
100
AcDbArc
 50
338.4348149848
 51
21.5651850152
  0
LINE
  5
16D
330
1F
100
AcDbEntity
  8
0
  6
Continuous
 62
     7
370
    15
100
AcDbLine
 10
115.3875885621
 20
93.5879214982
 30
0.0
 11
115.4792400167
 21
93.6052939238
 31
0.0
  0
ARC
  5
16E
330
1F
100
AcDbEntity
  8
0
  6
Continuous
 62
     7
370
    15
100
AcDbCircle
 10
110.7375886403
 20
91.7501239243
 30
0.0
 40
5.091650725492157
100
AcDbArc
 50
338.6320876898
 51
21.3679123102
  0
LINE
  5
16F
330
1F
100
AcDbEntity
  8
0
  6
Continuous
 62
     7
370
    15
100
AcDbLine
 10
112.5216296033
 20
95.7501239342
 30
0.0
 11
114.3875883982
 21
95.7501239342
 31
0.0
  0
LINE
  5
170
330
1F
100
AcDbEntity
  8
0
  6
Continuous
 62
     7
370
    15
100
AcDbLine
 10
112.4875879005
 20
95.7841656369
 30
0.0
 11
112.5216296033
 21
95.7501239342
 31
0.0
  0
LINE
  5
171
330
1F
100
AcDbEntity
  8
0
  6
Continuous
 62
     7
370
    15
100
AcDbLine
 10
108.4875891075
 20
95.7841656369
 30
0.0
 11
112.4875879005
 21
95.7841656369
 31
0.0
  0
LINE
  5
172
330
1F
100
AcDbEntity
  8
0
  6
Continuous
 62
     7
370
    15
100
AcDbLine
 10
108.4535474048
 20
95.7501239342
 30
0.0
 11
108.4875891075
 21
95.7841656369
 31
0.0
  0
LINE
  5
173
330
1F
100
AcDbEntity
  8
0
  6
Continuous
 62
     7
370
    15
100
AcDbLine
 10
107.9446951017
 20
95.7501239342
 30
0.0
 11
108.4535474048
 21
95.7501239342
 31
0.0
  0
LINE
  5
174
330
1F
100
AcDbEntity
  8
0
  6
Continuous
 62
     7
370
    15
100
AcDbLine
 10
107.9446951017
 20
95.789402813
 30
0.0
 11
107.9446951017
 21
95.7501239342
 31
0.0
  0
LINE
  5
175
330
1F
100
AcDbEntity
  8
0
  6
Continuous
 62
     7
370
    15
100
AcDbLine
 10
107.9446951017
 20
95.789402813
 30
0.0
 11
106.5875904725
 21
95.789402813
 31
0.0
  0
LINE
  5
176
330
1F
100
AcDbEntity
  8
0
  6
Continuous
 62
     7
370
    15
100
AcDbLine
 10
106.5875904725
 20
95.8417746321
 30
0.0
 11
106.5875904725
 21
95.789402813
 31
0.0
  0
LINE
  5
177
330
1F
100
AcDbEntity
  8
0
  6
Continuous
 62
     7
370
    15
100
AcDbLine
 10
114.3875883982
 20
95.8417746321
 30
0.0
 11
106.5875904725
 21
95.8417746321
 31
0.0
  0
ARC
  5
178
330
1F
100
AcDbEntity
  8
0
  6
Continuous
 62
     7
370
    15
100
AcDbCircle
 10
113.9875886403
 20
71.7501239243
 30
0.0
 40
7.000000000000009
100
AcDbArc
 50
129.0930558601
 51
161.7918194433
  0
ARC
  5
179
330
1F
100
AcDbEntity
  8
0
  6
Continuous
 62
     7
370
    15
100
AcDbCircle
 10
113.9875886403
 20
71.7501239243
 30
0.0
 40
7.091650725492166
100
AcDbArc
 50
128.8177389683
 51
161.3214573275
  0
LINE
  5
17A
330
1F
100
AcDbEntity
  8
0
  6
Continuous
 62
     7
370
    15
100
AcDbLine
 10
105.5875884459
 20
82.9123258906
 30
0.0
 11
105.495938854
 21
82.8949539306
 31
0.0
  0
LINE
  5
17B
330
1F
100
AcDbEntity
  8
0
  6
Continuous
 62
     7
370
    15
100
AcDbLine
 10
105.5875884459
 20
81.7501237931
 30
0.0
 11
105.5875884459
 21
82.9123258906
 31
0.0
  0
LINE
  5
17C
330
1F
100
AcDbEntity
  8
0
  6
Continuous
 62
     7
370
    15
100
AcDbLine
 10
105.495938854
 20
81.7501237931
 30
0.0
 11
105.5875884459
 21
81.7501237931
 31
0.0
  0
LINE
  5
17D
330
1F
100
AcDbEntity
  8
0
  6
Continuous
 62
     7
370
    15
100
AcDbLine
 10
105.495938854
 20
82.8949539306
 30
0.0
 11
105.495938854
 21
81.7501237931
 31
0.0
  0
LINE
  5
17E
330
1F
100
AcDbEntity
  8
0
  6
Continuous
 62
     7
370
    15
100
AcDbLine
 10
118.1959377692
 20
75.7108452113
 30
0.0
 11
116.248309435
 21
75.7108452113
 31
0.0
  0
LINE
  5
17F
330
1F
100
AcDbEntity
  8
0
  6
Continuous
 62
     7
370
    15
100
AcDbLine
 10
116.248309435
 20
73.7894019427
 30
0.0
 11
118.1959377692
 21
73.7894019427
 31
0.0
  0
LINE
  5
180
330
1F
100
AcDbEntity
  8
0
  6
Continuous
 62
     7
370
    15
100
AcDbLine
 10
102.7792411015
 20
73.7894019427
 30
0.0
 11
104.726867573
 21
73.7894019427
 31
0.0
  0
LINE
  5
181
330
1F
100
AcDbEntity
  8
0
  6
Continuous
 62
     7
370
    15
100
AcDbLine
 10
104.726867573
 20
75.7108452113
 30
0.0
 11
104.726867573
 21
98.5924746225
 31
0.0
  0
LINE
  5
182
330
1F
100
AcDbEntity
  8
0
  6
Continuous
 62
     7
370
    15
100
AcDbLine
 10
116.248309435
 20
75.7108452113
 30
0.0
 11
116.248309435
 21
98.5924746225
 31
0.0
  0
ARC
  5
183
330
1F
100
AcDbEntity
  8
0
  6
Continuous
 62
     7
370
    15
100
AcDbCircle
 10
106.5875886403
 20
81.7501239243
 30
0.0
 40
1.091650725492158
100
AcDbArc
 50
180.0
 51
270.0
  0
ARC
  5
184
330
1F
100
AcDbEntity
  8
0
  6
Continuous
 62
     7
370
    15
100
AcDbCircle
 10
114.3875886403
 20
81.7501239243
 30
0.0
 40
1.091650725492158
100
AcDbArc
 50
270.0
 51
0.0
  0
LINE
  5
185
330
1F
100
AcDbEntity
  8
0
  6
Continuous
 62
     7
370
    15
100
AcDbLine
 10
115.4792400167
 20
93.6052939238
 30
0.0
 11
115.4792400167
 21
94.7501239449
 31
0.0
  0
ARC
  5
186
330
1F
100
AcDbEntity
  8
0
  6
Continuous
 62
     7
370
    15
100
AcDbCircle
 10
106.5875886403
 20
94.7501239243
 30
0.0
 40
1.091650725492144
100
AcDbArc
 50
90.0
 51
180.0
  0
LINE
  5
187
330
1F
100
AcDbEntity
  8
0
  6
Continuous
 62
     7
370
    15
100
AcDbLine
 10
105.495938854
 20
94.7501239449
 30
0.0
 11
105.495938854
 21
86.6052937077
 31
0.0
  0
ARC
  5
188
330
1F
100
AcDbEntity
  8
0
  6
Continuous
 62
     7
370
    15
100
AcDbCircle
 10
110.2375886403
 20
84.7501239243
 30
0.0
 40
5.091650725492155
100
AcDbArc
 50
158.6320876898
 51
201.3679123102
  0
ARC
  5
189
330
1F
100
AcDbEntity
  8
0
  6
Continuous
 62
     7
370
    15
100
AcDbCircle
 10
110.4875886403
 20
71.7501239243
 30
0.0
 40
1.591650725492158
100
AcDbArc
 50
191.9465249491
 51
348.0534750509
  0
LINE
  5
18A
330
1F
100
AcDbEntity
  8
0
  6
Continuous
 62
     7
370
    15
100
AcDbLine
 10
114.7793417887
 20
71.658472562
 30
0.0
 11
112.3381683693
 21
71.658472562
 31
0.0
  0
ARC
  5
18B
330
1F
100
AcDbEntity
  8
0
  6
Continuous
 62
     7
370
    15
100
AcDbCircle
 10
114.3875886403
 20
81.7501239243
 30
0.0
 40
1.039278882353798
100
AcDbArc
 50
270.0
 51
0.0
  0
ARC
  5
18C
330
1F
100
AcDbEntity
  8
0
  6
Continuous
 62
     7
370
    15
100
AcDbCircle
 10
110.4875886403
 20
71.7501239243
 30
0.0
 40
1.500000000000006
100
AcDbArc
 50
189.5913024773
 51
350.4086975227
  0
LINE
  5
18D
330
1F
100
AcDbEntity
  8
0
  6
Continuous
 62
     7
370
    15
100
AcDbLine
 10
114.6876921967
 20
71.7501240166
 30
0.0
 11
112.2623251841
 21
71.7501240166
 31
0.0
  0
LINE
  5
18E
330
1F
100
AcDbEntity
  8
0
  6
Continuous
 62
     7
370
    15
100
AcDbLine
 10
105.5875884459
 20
94.3373821525
 30
0.0
 11
105.548308985
 21
94.3373821525
 31
0.0
  0
LINE
  5
18F
330
1F
100
AcDbEntity
  8
0
  6
Continuous
 62
     7
370
    15
100
AcDbLine
 10
105.5875884459
 20
86.5879217478
 30
0.0
 11
105.5875884459
 21
94.3373821525
 31
0.0
  0
LINE
  5
190
330
1F
100
AcDbEntity
  8
0
  6
Continuous
 62
     7
370
    15
100
AcDbLine
 10
105.495938854
 20
86.6052937077
 30
0.0
 11
105.5875884459
 21
86.5879217478
 31
0.0
  0
LINE
  5
191
330
1F
100
AcDbEntity
  8
0
  6
Continuous
 62
     7
370
    15
100
AcDbLine
 10
105.548308985
 20
94.7501239449
 30
0.0
 11
105.495938854
 21
94.7501239449
 31
0.0
  0
LINE
  5
192
330
1F
100
AcDbEntity
  8
0
  6
Continuous
 62
     7
370
    15
100
AcDbLine
 10
105.548308985
 20
94.7501239449
 30
0.0
 11
105.548308985
 21
94.3373821525
 31
0.0
  0
LINE
  5
193
330
1F
100
AcDbEntity
  8
0
  6
Continuous
 62
     7
370
    15
100
AcDbLine
 10
115.3875885621
 20
94.7501239449
 30
0.0
 11
115.3875885621
 21
93.5879214982
 31
0.0
  0
LINE
  5
194
330
1F
100
AcDbEntity
  8
0
  6
Continuous
 62
     7
370
    15
100
AcDbLine
 10
116.305965753
 20
98.7161288818
 30
0.0
 11
116.3031736479
 21
100.7501241135
 31
0.0
  0
LINE
  5
195
330
1F
100
AcDbEntity
  8
0
  6
Continuous
 62
     7
370
    15
100
AcDbLine
 10
116.2875888959
 20
98.6977520248
 30
0.0
 11
116.305965753
 21
98.7161288818
 31
0.0
  0
LINE
  5
196
330
1F
100
AcDbEntity
  8
0
  6
Continuous
 62
     7
370
    15
100
AcDbLine
 10
116.2875888959
 20
75.7501246723
 30
0.0
 11
116.2875888959
 21
98.6977520248
 31
0.0
  0
LINE
  5
197
330
1F
100
AcDbEntity
  8
0
  6
Continuous
 62
     7
370
    15
100
AcDbLine
 10
116.248309435
 20
75.7108452113
 30
0.0
 11
116.2875888959
 21
75.7501246723
 31
0.0
  0
LINE
  5
198
330
1F
100
AcDbEntity
  8
0
  6
Continuous
 62
     7
370
    15
100
AcDbLine
 10
116.2826361225
 20
100.6221967133
 30
0.0
 11
116.250676857
 21
98.8792628365
 31
0.0
  0
ELLIPSE
  5
199
330
1F
100
AcDbEntity
  8
0
  6
Continuous
 62
     7
370
    15
100
AcDbEllipse
 10
116.2890703757
 20
100.4501239243
 30
0.0
 11
0.0
 21
0.3000000000000114
 31
0.0
210
0.0
220
0.0
230
1.0
 40
0.0261859216
 41
0.0
 42
0.9599310885975362
  0
LINE
  5
19A
330
1F
100
AcDbEntity
  8
0
  6
Continuous
 62
     7
370
    15
100
AcDbLine
 10
116.3031736479
 20
100.7501241135
 30
0.0
 11
116.2890696988
 21
100.7501241135
 31
0.0
  0
ARC
  5
19B
330
1F
100
AcDbEntity
  8
0
  6
Continuous
 62
     7
370
    15
100
AcDbCircle
 10
106.5875886403
 20
81.7501239243
 30
0.0
 40
1.0
100
AcDbArc
 50
180.0
 51
270.0
  0
LINE
  5
19C
330
1F
100
AcDbEntity
  8
0
  6
Continuous
 62
     7
370
    15
100
AcDbLine
 10
102.7399616406
 20
73.7501243444
 30
0.0
 11
104.6875881121
 21
73.7501243444
 31
0.0
  0
LINE
  5
19D
330
1F
100
AcDbEntity
  8
0
  6
Continuous
 62
     7
370
    15
100
AcDbLine
 10
116.4875885562
 20
75.7501246723
 30
0.0
 11
116.2875888959
 21
75.7501246723
 31
0.0
  0
LINE
  5
19E
330
1F
100
AcDbEntity
  8
0
  6
Continuous
 62
     7
370
    15
100
AcDbLine
 10
116.2875888959
 20
73.7501243444
 30
0.0
 11
118.2352172301
 21
73.7501243444
 31
0.0
  0
ARC
  5
19F
330
1F
100
AcDbEntity
  8
0
  6
Continuous
 62
     7
370
    15
100
AcDbCircle
 10
110.2375886403
 20
84.7501239243
 30
0.0
 40
4.999999999999995
100
AcDbArc
 50
158.4348149848
 51
201.5651850152
  0
LINE
  5
1A0
330
1F
100
AcDbEntity
  8
0
  6
Continuous
 62
     7
370
    15
100
AcDbLine
 10
104.6875881121
 20
75.7501246723
 30
0.0
 11
104.6875881121
 21
98.6977520248
 31
0.0
  0
LINE
  5
1A1
330
1F
100
AcDbEntity
  8
0
  6
Continuous
 62
     7
370
    15
100
AcDbLine
 10
104.6692112551
 20
98.7161288818
 30
0.0
 11
104.6875881121
 21
98.6977520248
 31
0.0
  0
LINE
  5
1A2
330
1F
100
AcDbEntity
  8
0
  6
Continuous
 62
     7
370
    15
100
AcDbLine
 10
104.6720014975
 20
100.7501241135
 30
0.0
 11
104.6692112551
 21
98.7161288818
 31
0.0
  0
LINE
  5
1A3
330
1F
100
AcDbEntity
  8
0
  6
Continuous
 62
     7
370
    15
100
AcDbLine
 10
104.6861054466
 20
100.7501241135
 30
0.0
 11
104.6720014975
 21
100.7501241135
 31
0.0
  0
ELLIPSE
  5
1A4
330
1F
100
AcDbEntity
  8
0
  6
Continuous
 62
     7
370
    15
100
AcDbEllipse
 10
104.6861069049
 20
100.4501239243
 30
0.0
 11
0.0
 21
0.3000000000000114
 31
0.0
210
0.0
220
0.0
230
1.0
 40
0.0261859216
 41
5.323254218582414
 42
6.283185307179586
  0
LINE
  5
1A5
330
1F
100
AcDbEntity
  8
0
  6
Continuous
 62
     7
370
    15
100
AcDbLine
 10
104.7244982884
 20
98.8792628365
 30
0.0
 11
104.6925427482
 21
100.6221967133
 31
0.0
  0
ARC
  5
1A6
330
1F
100
AcDbEntity
  8
0
  6
Continuous
 62
     7
370
    15
100
AcDbCircle
 10
106.5875886403
 20
94.7501239243
 30
0.0
 40
1.039278882353784
100
AcDbArc
 50
90.0
 51
180.0
  0
LINE
  5
1A7
330
1F
100
AcDbEntity
  8
0
  6
Continuous
 62
     7
370
    15
100
AcDbLine
 10
116.2826361225
 20
100.6221967133
 30
0.0
 11
104.6925427482
 21
100.6221967133
 31
0.0
  0
LINE
  5
1A8
330
1F
100
AcDbEntity
  8
0
  6
Continuous
 62
     7
370
    15
100
AcDbLine
 10
104.6861054466
 20
100.7501241135
 30
0.0
 11
116.2890696988
 21
100.7501241135
 31
0.0
  0
ARC
  5
1A9
330
1F
100
AcDbEntity
  8
0
  6
Continuous
 62
     7
370
    15
100
AcDbCircle
 10
116.2875886403
 20
70.7501239243
 30
0.0
 40
1.94762815686164
100
AcDbArc
 50
270.0
 51
0.0
  0
ARC
  5
1AA
330
1F
100
AcDbEntity
  8
0
  6
Continuous
 62
     7
370
    15
100
AcDbCircle
 10
116.2875886403
 20
70.7501239243
 30
0.0
 40
2.0
100
AcDbArc
 50
270.0
 51
0.0
  0
ARC
  5
1AB
330
1F
100
AcDbEntity
  8
0
  6
Continuous
 62
     7
370
    15
100
AcDbCircle
 10
104.6875886403
 20
70.7501239243
 30
0.0
 40
2.0
100
AcDbArc
 50
180.0
 51
270.0
  0
ARC
  5
1AC
330
1F
100
AcDbEntity
  8
0
  6
Continuous
 62
     7
370
    15
100
AcDbCircle
 10
104.6875886403
 20
70.7501239243
 30
0.0
 40
1.94762815686164
100
AcDbArc
 50
180.0
 51
270.0
  0
LINE
  5
1AD
330
1F
100
AcDbEntity
  8
0
  6
Continuous
 62
     7
370
    15
100
AcDbLine
 10
116.3059191868
 20
98.7501240185
 30
0.0
 11
118.2875892237
 21
98.7501240185
 31
0.0
  0
LINE
  5
1AE
330
1F
100
AcDbEntity
  8
0
  6
Continuous
 62
     7
370
    15
100
AcDbLine
 10
116.4875885562
 20
98.6977520248
 30
0.0
 11
116.2875888959
 21
98.6977520248
 31
0.0
  0
LINE
  5
1AF
330
1F
100
AcDbEntity
  8
0
  6
Continuous
 62
     7
370
    15
100
AcDbLine
 10
104.6875881121
 20
98.6977520248
 30
0.0
 11
104.4875884519
 21
98.6977520248
 31
0.0
  0
LINE
  5
1B0
330
1F
100
AcDbEntity
  8
0
  6
Continuous
 62
     7
370
    15
100
AcDbLine
 10
102.6875877843
 20
98.7501240185
 30
0.0
 11
104.6692596839
 21
98.7501240185
 31
0.0
  0
LINE
  5
1B1
330
1F
100
AcDbEntity
  8
0
  6
Continuous
 62
     7
370
    15
100
AcDbLine
 10
110.2375889287
 20
83.9794334339
 30
0.0
 11
110.1983094678
 21
83.9794334339
 31
0.0
  0
LINE
  5
1B2
330
1F
100
AcDbEntity
  8
0
  6
Continuous
 62
     7
370
    15
100
AcDbLine
 10
110.2375889287
 20
83.7819632458
 30
0.0
 11
110.2375889287
 21
83.9794334339
 31
0.0
  0
LINE
  5
1B3
330
1F
100
AcDbEntity
  8
0
  6
Continuous
 62
     7
370
    15
100
AcDbLine
 10
110.2375889287
 20
83.7819632458
 30
0.0
 11
110.1983094678
 21
83.7819632458
 31
0.0
  0
LINE
  5
1B4
330
1F
100
AcDbEntity
  8
0
  6
Continuous
 62
     7
370
    15
100
AcDbLine
 10
110.1983094678
 20
83.7819632458
 30
0.0
 11
110.1983094678
 21
83.9794334339
 31
0.0
  0
ARC
  5
1B5
330
1F
100
AcDbEntity
  8
0
  6
Continuous
 62
     7
370
    15
100
AcDbCircle
 10
107.9446954215
 20
95.2501239243
 30
0.0
 40
0.539278882353792
100
AcDbArc
 50
90.0
 51
225.0
  0
LINE
  5
1B6
330
1F
100
AcDbEntity
  8
0
  6
Continuous
 62
     7
370
    15
100
AcDbLine
 10
109.4719467775
 20
92.9602175335
 30
0.0
 11
107.5633669362
 21
94.8687962106
 31
0.0
  0
ARC
  5
1B7
330
1F
100
AcDbEntity
  8
0
  6
Continuous
 62
     7
370
    15
100
AcDbCircle
 10
109.2875886403
 20
92.7758598556
 30
0.0
 40
0.2607211176462414
100
AcDbArc
 50
0.0
 51
45.0
  0
LINE
  5
1B8
330
1F
100
AcDbEntity
  8
0
  6
Continuous
 62
     7
370
    15
100
AcDbLine
 10
109.5483096407
 20
92.2248689773
 30
0.0
 11
109.5483096407
 21
92.7758599015
 31
0.0
  0
ARC
  5
1B9
330
1F
100
AcDbEntity
  8
0
  6
Continuous
 62
     7
370
    15
100
AcDbCircle
 10
109.2875886403
 20
92.2248687957
 30
0.0
 40
0.2607211176462414
100
AcDbArc
 50
307.7997224354
 51
0.0
  0
ARC
  5
1BA
330
1F
100
AcDbEntity
  8
0
  6
Continuous
 62
     7
370
    15
100
AcDbCircle
 10
110.2375886403
 20
91.0001239243
 30
0.0
 40
1.289278882353784
100
AcDbArc
 50
127.7997224354
 51
228.8879095608
  0
ARC
  5
1BB
330
1F
100
AcDbEntity
  8
0
  6
Continuous
 62
     7
370
    15
100
AcDbCircle
 10
107.8375886403
 20
88.2501239243
 30
0.0
 40
2.360721117646223
100
AcDbArc
 50
311.1120904392
 51
48.8879095608
  0
ARC
  5
1BC
330
1F
100
AcDbEntity
  8
0
  6
Continuous
 62
     7
370
    15
100
AcDbCircle
 10
110.2375886403
 20
85.5001239243
 30
0.0
 40
1.289278882353802
100
AcDbArc
 50
131.1120904392
 51
258.8400631278
  0
ARC
  5
1BD
330
1F
100
AcDbEntity
  8
0
  6
Continuous
 62
     7
370
    15
100
AcDbCircle
 10
109.9375886403
 20
83.9794332917
 30
0.0
 40
0.2607211176462176
100
AcDbArc
 50
0.0
 51
78.8400631278
  0
ARC
  5
1BE
330
1F
100
AcDbEntity
  8
0
  6
Continuous
 62
     7
370
    15
100
AcDbCircle
 10
109.9375886403
 20
83.7819633327
 30
0.0
 40
0.2607211176462224
100
AcDbArc
 50
290.0
 51
0.0
  0
LINE
  5
1BF
330
1F
100
AcDbEntity
  8
0
  6
Continuous
 62
     7
370
    15
100
AcDbLine
 10
109.3636488632
 20
83.2956126275
 30
0.0
 11
110.0267598496
 21
83.536965804
 31
0.0
  0
ARC
  5
1C0
330
1F
100
AcDbEntity
  8
0
  6
Continuous
 62
     7
370
    15
100
AcDbCircle
 10
109.2060736983
 20
83.7285492224
 30
0.0
 40
0.4607211176462262
100
AcDbArc
 50
239.7895201773
 51
290.0
  0
ARC
  5
1C1
330
1F
100
AcDbEntity
  8
0
  6
Continuous
 62
     7
370
    15
100
AcDbCircle
 10
110.2375886403
 20
85.5001239243
 30
0.0
 40
2.510721117646219
100
AcDbArc
 50
131.1120904392
 51
239.7895201773
  0
ARC
  5
1C2
330
1F
100
AcDbEntity
  8
0
  6
Continuous
 62
     7
370
    15
100
AcDbCircle
 10
107.8375886403
 20
88.2501239243
 30
0.0
 40
1.139278882353788
100
AcDbArc
 50
311.1120904392
 51
48.8879095608
  0
ARC
  5
1C3
330
1F
100
AcDbEntity
  8
0
  6
Continuous
 62
     7
370
    15
100
AcDbCircle
 10
110.2375886403
 20
91.0001239243
 30
0.0
 40
2.510721117646229
100
AcDbArc
 50
152.4795916534
 51
228.8879095608
  0
ARC
  5
1C4
330
1F
100
AcDbEntity
  8
0
  6
Continuous
 62
     7
370
    15
100
AcDbCircle
 10
107.5327074089
 20
92.4094207434
 30
0.0
 40
0.539278882353792
100
AcDbArc
 50
332.4795916534
 51
45.0
  0
LINE
  5
1C5
330
1F
100
AcDbEntity
  8
0
  6
Continuous
 62
     7
370
    15
100
AcDbLine
 10
106.1274947689
 20
94.5772885194
 30
0.0
 11
107.9140359626
 21
92.7907484898
 31
0.0
  0
ARC
  5
1C6
330
1F
100
AcDbEntity
  8
0
  6
Continuous
 62
     7
370
    15
100
AcDbCircle
 10
105.8875886403
 20
94.3373822245
 30
0.0
 40
0.3392788823537956
100
AcDbArc
 50
45.0
 51
180.0
  0
LINE
  5
1C7
330
1F
100
AcDbEntity
  8
0
  6
Continuous
 62
     7
370
    15
100
AcDbLine
 10
109.4156706796
 20
90.0583430508
 30
0.0
 11
109.3898432419
 21
90.0287493447
 31
0.0
  0
ARC
  5
1C8
330
1F
100
AcDbEntity
  8
0
  6
Continuous
 62
     7
370
    15
100
AcDbCircle
 10
107.8375886403
 20
88.2501239243
 30
0.0
 40
2.400000000000004
100
AcDbArc
 50
311.1120904392
 51
48.8879095608
  0
LINE
  5
1C9
330
1F
100
AcDbEntity
  8
0
  6
Continuous
 62
     7
370
    15
100
AcDbLine
 10
109.4156706796
 20
86.4419043379
 30
0.0
 11
109.3898432419
 21
86.471498044
 31
0.0
  0
LINE
  5
1CA
330
1F
100
AcDbEntity
  8
0
  6
Continuous
 62
     7
370
    15
100
AcDbLine
 10
112.4143002645
 20
87.4213567319
 30
0.0
 11
112.3884746895
 21
87.3917630257
 31
0.0
  0
ARC
  5
1CB
330
1F
100
AcDbEntity
  8
0
  6
Continuous
 62
     7
370
    15
100
AcDbCircle
 10
110.7375886403
 20
85.5001239243
 30
0.0
 40
2.550000000000007
100
AcDbArc
 50
332.4795916534
 51
48.8879095608
  0
LINE
  5
1CC
330
1F
100
AcDbEntity
  8
0
  6
Continuous
 62
     7
370
    15
100
AcDbLine
 10
112.9990460441
 20
84.3218593242
 30
0.0
 11
112.9642127172
 21
84.3400089385
 31
0.0
  0
ARC
  5
1CD
330
1F
100
AcDbEntity
  8
0
  6
Continuous
 62
     7
370
    15
100
AcDbCircle
 10
110.7375886403
 20
85.5001239243
 30
0.0
 40
2.510721117646216
100
AcDbArc
 50
332.4795916534
 51
48.8879095608
  0
LINE
  5
1CE
330
1F
100
AcDbEntity
  8
0
  6
Continuous
 62
     7
370
    15
100
AcDbLine
 10
109.9956536756
 20
84.2737602385
 30
0.0
 11
109.9880503581
 21
84.235223973
 31
0.0
  0
ARC
  5
1CF
330
1F
100
AcDbEntity
  8
0
  6
Continuous
 62
     7
370
    15
100
AcDbCircle
 10
109.9375886403
 20
83.9794332917
 30
0.0
 40
0.2999999999999972
100
AcDbArc
 50
0.0
 51
78.8400631278
  0
LINE
  5
1D0
330
1F
100
AcDbEntity
  8
0
  6
Continuous
 62
     7
370
    15
100
AcDbLine
 10
111.8823083208
 20
83.1054048928
 30
0.0
 11
111.9100822226
 21
83.1331787946
 31
0.0
  0
LINE
  5
1D1
330
1F
100
AcDbEntity
  8
0
  6
Continuous
 62
     7
370
    15
100
AcDbLine
 10
111.9100822226
 20
83.1331787946
 30
0.0
 11
113.4118100718
 21
81.6314518767
 31
0.0
  0
LINE
  5
1D2
330
1F
100
AcDbEntity
  8
0
  6
Continuous
 62
     7
370
    15
100
AcDbLine
 10
113.38403617
 20
81.6036770435
 30
0.0
 11
113.4118100718
 21
81.6314518767
 31
0.0
  0
LINE
  5
1D3
330
1F
100
AcDbEntity
  8
0
  6
Continuous
 62
     7
370
    15
100
AcDbLine
 10
111.8823083208
 20
83.1054048928
 30
0.0
 11
113.38403617
 21
81.6036770435
 31
0.0
  0
LINE
  5
1D4
330
1F
100
AcDbEntity
  8
0
  6
Continuous
 62
     7
370
    15
100
AcDbLine
 10
109.4714587644
 20
91.987821305
 30
0.0
 11
109.4473859385
 21
92.0188580955
 31
0.0
  0
ARC
  5
1D5
330
1F
100
AcDbEntity
  8
0
  6
Continuous
 62
     7
370
    15
100
AcDbCircle
 10
110.2375886403
 20
91.0001239243
 30
0.0
 40
1.25
100
AcDbArc
 50
127.7997224354
 51
228.8879095608
  0
LINE
  5
1D6
330
1F
100
AcDbEntity
  8
0
  6
Continuous
 62
     7
370
    15
100
AcDbLine
 10
112.4143002645
 20
89.0788911225
 30
0.0
 11
112.3884746895
 21
89.1084848287
 31
0.0
  0
ARC
  5
1D7
330
1F
100
AcDbEntity
  8
0
  6
Continuous
 62
     7
370
    15
100
AcDbCircle
 10
113.1375886403
 20
88.2501239243
 30
0.0
 40
1.099999999999987
100
AcDbArc
 50
131.1120904392
 51
228.8879095608
  0
ARC
  5
1D8
330
1F
100
AcDbEntity
  8
0
  6
Continuous
 62
     7
370
    15
100
AcDbCircle
 10
113.1375886403
 20
88.2501239243
 30
0.0
 40
1.139278882353779
100
AcDbArc
 50
131.1120904392
 51
228.8879095608
  0
ARC
  5
1D9
330
1F
100
AcDbEntity
  8
0
  6
Continuous
 62
     7
370
    15
100
AcDbCircle
 10
113.4424698716
 20
84.0908271052
 30
0.0
 40
0.499999999999999
100
AcDbArc
 50
152.4795916534
 51
225.0
  0
LINE
  5
1DA
330
1F
100
AcDbEntity
  8
0
  6
Continuous
 62
     7
370
    15
100
AcDbLine
 10
113.0889168099
 20
83.737273732
 30
0.0
 11
113.0611429081
 21
83.7094988989
 31
0.0
  0
ARC
  5
1DB
330
1F
100
AcDbEntity
  8
0
  6
Continuous
 62
     7
370
    15
100
AcDbCircle
 10
113.4424698716
 20
84.0908271052
 30
0.0
 40
0.5392788823537737
100
AcDbArc
 50
152.4795916534
 51
225.0
  0
ARC
  5
1DC
330
1F
100
AcDbEntity
  8
0
  6
Continuous
 62
     7
370
    15
100
AcDbCircle
 10
115.0875886403
 20
82.1628656241
 30
0.0
 40
0.3392788823537923
100
AcDbArc
 50
225.0
 51
0.0
  0
LINE
  5
1DD
330
1F
100
AcDbEntity
  8
0
  6
Continuous
 62
     7
370
    15
100
AcDbLine
 10
114.8476822392
 20
81.9229595678
 30
0.0
 11
114.875456141
 21
81.9507334696
 31
0.0
  0
ARC
  5
1DE
330
1F
100
AcDbEntity
  8
0
  6
Continuous
 62
     7
370
    15
100
AcDbCircle
 10
115.0875886403
 20
82.1628656241
 30
0.0
 40
0.3000000000000145
100
AcDbArc
 50
225.0
 51
0.0
  0
ARC
  5
1DF
330
1F
100
AcDbEntity
  8
0
  6
Continuous
 62
     7
370
    15
100
AcDbCircle
 10
111.5287543769
 20
82.7518514065
 30
0.0
 40
0.5000000000000141
100
AcDbArc
 50
45.0
 51
70.0
  0
LINE
  5
1E0
330
1F
100
AcDbEntity
  8
0
  6
Continuous
 62
     7
370
    15
100
AcDbLine
 10
111.6997653709
 20
83.22169728
 30
0.0
 11
111.7131987677
 21
83.2586074563
 31
0.0
  0
ARC
  5
1E1
330
1F
100
AcDbEntity
  8
0
  6
Continuous
 62
     7
370
    15
100
AcDbCircle
 10
111.5287543769
 20
82.7518514065
 30
0.0
 40
0.5392788823537827
100
AcDbArc
 50
45.0
 51
70.0
  0
ARC
  5
1E2
330
1F
100
AcDbEntity
  8
0
  6
Continuous
 62
     7
370
    15
100
AcDbCircle
 10
109.9375886403
 20
83.7819633327
 30
0.0
 40
0.3000000000000016
100
AcDbArc
 50
290.0
 51
0.0
  0
LINE
  5
1E3
330
1F
100
AcDbEntity
  8
0
  6
Continuous
 62
     7
370
    15
100
AcDbLine
 10
110.040195109
 20
83.5000556277
 30
0.0
 11
110.0267598496
 21
83.536965804
 31
0.0
  0
LINE
  5
1E4
330
1F
100
AcDbEntity
  8
0
  6
Continuous
 62
     7
370
    15
100
AcDbLine
 10
107.5911427007
 20
94.896570578
 30
0.0
 11
107.5633669362
 21
94.8687962106
 31
0.0
  0
ARC
  5
1E5
330
1F
100
AcDbEntity
  8
0
  6
Continuous
 62
     7
370
    15
100
AcDbCircle
 10
107.9446954215
 20
95.2501239243
 30
0.0
 40
0.500000000000004
100
AcDbArc
 50
90.0
 51
225.0
  0
LINE
  5
1E6
330
1F
100
AcDbEntity
  8
0
  6
Continuous
 62
     7
370
    15
100
AcDbLine
 10
107.8862601981
 20
92.7629741224
 30
0.0
 11
107.9140359626
 21
92.7907484898
 31
0.0
  0
LINE
  5
1E7
330
1F
100
AcDbEntity
  8
0
  6
Continuous
 62
     7
370
    15
100
AcDbLine
 10
106.0997190044
 20
94.5495141519
 30
0.0
 11
107.8862601981
 21
92.7629741224
 31
0.0
  0
LINE
  5
1E8
330
1F
100
AcDbEntity
  8
0
  6
Continuous
 62
     7
370
    15
100
AcDbLine
 10
106.1274947689
 20
94.5772885194
 30
0.0
 11
106.0997190044
 21
94.5495141519
 31
0.0
  0
LINE
  5
1E9
330
1F
100
AcDbEntity
  8
0
  6
Continuous
 62
     7
370
    15
100
AcDbLine
 10
114.875456141
 20
81.9507334696
 30
0.0
 11
113.0889168099
 21
83.737273732
 31
0.0
  0
LINE
  5
1EA
330
1F
100
AcDbEntity
  8
0
  6
Continuous
 62
     7
370
    15
100
AcDbLine
 10
114.8476822392
 20
81.9229595678
 30
0.0
 11
113.0611429081
 21
83.7094988989
 31
0.0
  0
LINE
  5
1EB
330
1F
100
AcDbEntity
  8
0
  6
Continuous
 62
     7
370
    15
100
AcDbLine
 10
111.1447660343
 20
93.257302217
 30
0.0
 11
111.1725417987
 21
93.2295278495
 31
0.0
  0
ARC
  5
1EC
330
1F
100
AcDbEntity
  8
0
  6
Continuous
 62
     7
370
    15
100
AcDbCircle
 10
111.4983202369
 20
92.9037487397
 30
0.0
 40
0.5000000000000133
100
AcDbArc
 50
68.2172312696
 51
135.0
  0
LINE
  5
1ED
330
1F
100
AcDbEntity
  8
0
  6
Continuous
 62
     7
370
    15
100
AcDbLine
 10
111.6838639692
 20
93.3680474142
 30
0.0
 11
111.6692887709
 21
93.3315730969
 31
0.0
  0
ARC
  5
1EE
330
1F
100
AcDbEntity
  8
0
  6
Continuous
 62
     7
370
    15
100
AcDbCircle
 10
111.4983202369
 20
92.9037487397
 30
0.0
 40
0.4607211176462161
100
AcDbArc
 50
68.2172312696
 51
135.0
  0
ARC
  5
1EF
330
1F
100
AcDbEntity
  8
0
  6
Continuous
 62
     7
370
    15
100
AcDbCircle
 10
110.7375886403
 20
91.0001239243
 30
0.0
 40
2.550000000000016
100
AcDbArc
 50
311.1120904392
 51
68.2172312696
  0
ARC
  5
1F0
330
1F
100
AcDbEntity
  8
0
  6
Continuous
 62
     7
370
    15
100
AcDbCircle
 10
110.7375886403
 20
91.0001239243
 30
0.0
 40
2.510721117646216
100
AcDbArc
 50
311.1120904392
 51
68.2172312696
  0
LINE
  5
1F1
330
1F
100
AcDbEntity
  8
0
  6
Continuous
 62
     7
370
    15
100
AcDbLine
 10
108.5608767436
 20
89.0788911225
 30
0.0
 11
108.5867041812
 21
89.1084848287
 31
0.0
  0
ARC
  5
1F2
330
1F
100
AcDbEntity
  8
0
  6
Continuous
 62
     7
370
    15
100
AcDbCircle
 10
110.2375886403
 20
91.0001239243
 30
0.0
 40
2.550000000000007
100
AcDbArc
 50
152.4795916534
 51
228.8879095608
  0
LINE
  5
1F3
330
1F
100
AcDbEntity
  8
0
  6
Continuous
 62
     7
370
    15
100
AcDbLine
 10
107.9761309639
 20
92.1783885302
 30
0.0
 11
108.0109642909
 21
92.1602389159
 31
0.0
  0
ARC
  5
1F4
330
1F
100
AcDbEntity
  8
0
  6
Continuous
 62
     7
370
    15
100
AcDbCircle
 10
107.5327074089
 20
92.4094207434
 30
0.0
 40
0.5000000000000241
100
AcDbArc
 50
332.4795916534
 51
45.0
  0
LINE
  5
1F5
330
1F
100
AcDbEntity
  8
0
  6
Continuous
 62
     7
370
    15
100
AcDbLine
 10
109.5875891016
 20
92.2248689773
 30
0.0
 11
109.5483096407
 21
92.2248689773
 31
0.0
  0
ARC
  5
1F6
330
1F
100
AcDbEntity
  8
0
  6
Continuous
 62
     7
370
    15
100
AcDbCircle
 10
109.2875886403
 20
92.2248687957
 30
0.0
 40
0.3000000000000244
100
AcDbArc
 50
307.7997224354
 51
0.0
  0
ARC
  5
1F7
330
1F
100
AcDbEntity
  8
0
  6
Continuous
 62
     7
370
    15
100
AcDbCircle
 10
105.8875886403
 20
94.3373822245
 30
0.0
 40
0.3000000000000114
100
AcDbArc
 50
45.0
 51
180.0
  0
LINE
  5
1F8
330
1F
100
AcDbEntity
  8
0
  6
Continuous
 62
     7
370
    15
100
AcDbLine
 10
109.4997206793
 20
92.9879919009
 30
0.0
 11
109.4719467775
 21
92.9602175335
 31
0.0
  0
LINE
  5
1F9
330
1F
100
AcDbEntity
  8
0
  6
Continuous
 62
     7
370
    15
100
AcDbLine
 10
109.4997206793
 20
92.9879919009
 30
0.0
 11
107.5911427007
 21
94.896570578
 31
0.0
  0
LINE
  5
1FA
330
1F
100
AcDbEntity
  8
0
  6
Continuous
 62
     7
370
    15
100
AcDbLine
 10
108.5608767436
 20
87.4213567319
 30
0.0
 11
108.5867041812
 21
87.3917630257
 31
0.0
  0
ARC
  5
1FB
330
1F
100
AcDbEntity
  8
0
  6
Continuous
 62
     7
370
    15
100
AcDbCircle
 10
107.8375886403
 20
88.2501239243
 30
0.0
 40
1.099999999999996
100
AcDbArc
 50
311.1120904392
 51
48.8879095608
  0
LINE
  5
1FC
330
1F
100
AcDbEntity
  8
0
  6
Continuous
 62
     7
370
    15
100
AcDbLine
 10
109.5875891016
 20
92.7758599015
 30
0.0
 11
109.5483096407
 21
92.7758599015
 31
0.0
  0
LINE
  5
1FD
330
1F
100
AcDbEntity
  8
0
  6
Continuous
 62
     7
370
    15
100
AcDbLine
 10
109.5875891016
 20
92.2248689773
 30
0.0
 11
109.5875891016
 21
92.7758599015
 31
0.0
  0
LINE
  5
1FE
330
1F
100
AcDbEntity
  8
0
  6
Continuous
 62
     7
370
    15
100
AcDbLine
 10
110.7375880793
 20
92.7258597536
 30
0.0
 11
110.7768675402
 21
92.7258597536
 31
0.0
  0
ARC
  5
1FF
330
1F
100
AcDbEntity
  8
0
  6
Continuous
 62
     7
370
    15
100
AcDbCircle
 10
111.0375886403
 20
92.7258598556
 30
0.0
 40
0.2999999999999972
100
AcDbArc
 50
135.0
 51
180.0
  0
LINE
  5
200
330
1F
100
AcDbEntity
  8
0
  6
Continuous
 62
     7
370
    15
100
AcDbLine
 10
110.8254565016
 20
92.9379919859
 30
0.0
 11
110.8532304034
 21
92.9102176184
 31
0.0
  0
ARC
  5
201
330
1F
100
AcDbEntity
  8
0
  6
Continuous
 62
     7
370
    15
100
AcDbCircle
 10
111.0375886403
 20
92.7258598556
 30
0.0
 40
0.2607211176462272
100
AcDbArc
 50
135.0
 51
180.0
  0
LINE
  5
202
330
1F
100
AcDbEntity
  8
0
  6
Continuous
 62
     7
370
    15
100
AcDbLine
 10
111.1447660343
 20
93.257302217
 30
0.0
 11
110.8254565016
 21
92.9379919859
 31
0.0
  0
LINE
  5
203
330
1F
100
AcDbEntity
  8
0
  6
Continuous
 62
     7
370
    15
100
AcDbLine
 10
111.1725417987
 20
93.2295278495
 30
0.0
 11
110.8532304034
 21
92.9102176184
 31
0.0
  0
ARC
  5
204
330
1F
100
AcDbEntity
  8
0
  6
Continuous
 62
     7
370
    15
100
AcDbCircle
 10
113.0304818591
 20
81.2501239243
 30
0.0
 40
0.5392788823537984
100
AcDbArc
 50
270.0
 51
45.0
  0
ARC
  5
205
330
1F
100
AcDbEntity
  8
0
  6
Continuous
 62
     7
370
    15
100
AcDbCircle
 10
113.0304818591
 20
81.2501239243
 30
0.0
 40
0.5
100
AcDbArc
 50
270.0
 51
45.0
  0
LINE
  5
206
330
1F
100
AcDbEntity
  8
0
  6
Continuous
 62
     7
370
    15
100
AcDbLine
 10
110.934981899
 20
83.5000556277
 30
0.0
 11
110.9484171585
 21
83.536965804
 31
0.0
  0
ARC
  5
207
330
1F
100
AcDbEntity
  8
0
  6
Continuous
 62
     7
370
    15
100
AcDbCircle
 10
111.0375886403
 20
83.7819633327
 30
0.0
 40
0.3000000000000065
100
AcDbArc
 50
180.0
 51
250.0
  0
LINE
  5
208
330
1F
100
AcDbEntity
  8
0
  6
Continuous
 62
     7
370
    15
100
AcDbLine
 10
110.7375880793
 20
83.7819632458
 30
0.0
 11
110.7768675402
 21
83.7819632458
 31
0.0
  0
ARC
  5
209
330
1F
100
AcDbEntity
  8
0
  6
Continuous
 62
     7
370
    15
100
AcDbCircle
 10
111.0375886403
 20
83.7819633327
 30
0.0
 40
0.2607211176462272
100
AcDbArc
 50
180.0
 51
250.0
  0
LINE
  5
20A
330
1F
100
AcDbEntity
  8
0
  6
Continuous
 62
     7
370
    15
100
AcDbLine
 10
110.7375880793
 20
83.9794334339
 30
0.0
 11
110.7375880793
 21
83.7819632458
 31
0.0
  0
LINE
  5
20B
330
1F
100
AcDbEntity
  8
0
  6
Continuous
 62
     7
370
    15
100
AcDbLine
 10
110.7375880793
 20
83.9794334339
 30
0.0
 11
110.7768675402
 21
83.9794334339
 31
0.0
  0
LINE
  5
20C
330
1F
100
AcDbEntity
  8
0
  6
Continuous
 62
     7
370
    15
100
AcDbLine
 10
110.7768675402
 20
83.9794334339
 30
0.0
 11
110.7768675402
 21
83.7819632458
 31
0.0
  0
LINE
  5
20D
330
1F
100
AcDbEntity
  8
0
  6
Continuous
 62
     7
370
    15
100
AcDbLine
 10
109.3770841227
 20
83.2587024512
 30
0.0
 11
109.3636488632
 21
83.2956126275
 31
0.0
  0
ARC
  5
20E
330
1F
100
AcDbEntity
  8
0
  6
Continuous
 62
     7
370
    15
100
AcDbCircle
 10
109.2060736983
 20
83.7285492224
 30
0.0
 40
0.5000000000000082
100
AcDbArc
 50
239.7895201773
 51
290.0
  0
LINE
  5
20F
330
1F
100
AcDbEntity
  8
0
  6
Continuous
 62
     7
370
    15
100
AcDbLine
 10
108.9544853286
 20
83.2964582684
 30
0.0
 11
108.9742498562
 21
83.3304021822
 31
0.0
  0
LINE
  5
210
330
1F
100
AcDbEntity
  8
0
  6
Continuous
 62
     7
370
    15
100
AcDbLine
 10
110.9795233325
 20
92.2264871502
 30
0.0
 11
110.98712665
 21
92.2650234157
 31
0.0
  0
ARC
  5
211
330
1F
100
AcDbEntity
  8
0
  6
Continuous
 62
     7
370
    15
100
AcDbCircle
 10
111.0375886403
 20
92.5208145568
 30
0.0
 40
0.3000000000000083
100
AcDbArc
 50
180.0
 51
258.8400631278
  0
LINE
  5
212
330
1F
100
AcDbEntity
  8
0
  6
Continuous
 62
     7
370
    15
100
AcDbLine
 10
110.7375880793
 20
92.5208144205
 30
0.0
 11
110.7768675402
 21
92.5208144205
 31
0.0
  0
ARC
  5
213
330
1F
100
AcDbEntity
  8
0
  6
Continuous
 62
     7
370
    15
100
AcDbCircle
 10
111.0375886403
 20
92.5208145568
 30
0.0
 40
0.2607211176462272
100
AcDbArc
 50
180.0
 51
258.8400631278
  0
LINE
  5
214
330
1F
100
AcDbEntity
  8
0
  6
Continuous
 62
     7
370
    15
100
AcDbLine
 10
110.934981899
 20
83.5000556277
 30
0.0
 11
111.6997653709
 21
83.22169728
 31
0.0
  0
LINE
  5
215
330
1F
100
AcDbEntity
  8
0
  6
Continuous
 62
     7
370
    15
100
AcDbLine
 10
110.9484171585
 20
83.536965804
 30
0.0
 11
111.7131987677
 21
83.2586074563
 31
0.0
  0
ARC
  5
216
330
1F
100
AcDbEntity
  8
0
  6
Continuous
 62
     7
370
    15
100
AcDbCircle
 10
109.2875886403
 20
92.7758598556
 30
0.0
 40
0.3000000000000114
100
AcDbArc
 50
0.0
 51
45.0
  0
LINE
  5
217
330
1F
100
AcDbEntity
  8
0
  6
Continuous
 62
     7
370
    15
100
AcDbLine
 10
110.7375880793
 20
92.7258597536
 30
0.0
 11
110.7375880793
 21
92.5208144205
 31
0.0
  0
LINE
  5
218
330
1F
100
AcDbEntity
  8
0
  6
Continuous
 62
     7
370
    15
100
AcDbLine
 10
110.7768675402
 20
92.7258597536
 30
0.0
 11
110.7768675402
 21
92.5208144205
 31
0.0
  0
ARC
  5
219
330
1F
100
AcDbEntity
  8
0
  6
Continuous
 62
     7
370
    15
100
AcDbCircle
 10
111.0375886403
 20
83.9794332917
 30
0.0
 40
0.2999999999999972
100
AcDbArc
 50
101.1599368722
 51
180.0
  0
LINE
  5
21A
330
1F
100
AcDbEntity
  8
0
  6
Continuous
 62
     7
370
    15
100
AcDbLine
 10
110.9795233325
 20
84.2737602385
 30
0.0
 11
110.98712665
 21
84.235223973
 31
0.0
  0
ARC
  5
21B
330
1F
100
AcDbEntity
  8
0
  6
Continuous
 62
     7
370
    15
100
AcDbCircle
 10
111.0375886403
 20
83.9794332917
 30
0.0
 40
0.2607211176462272
100
AcDbArc
 50
101.1599368722
 51
180.0
  0
LINE
  5
21C
330
1F
100
AcDbEntity
  8
0
  6
Continuous
 62
     7
370
    15
100
AcDbLine
 10
111.5595063285
 20
86.4419043379
 30
0.0
 11
111.5853337661
 21
86.471498044
 31
0.0
  0
ARC
  5
21D
330
1F
100
AcDbEntity
  8
0
  6
Continuous
 62
     7
370
    15
100
AcDbCircle
 10
113.1375886403
 20
88.2501239243
 30
0.0
 40
2.400000000000004
100
AcDbArc
 50
131.1120904392
 51
228.8879095608
  0
LINE
  5
21E
330
1F
100
AcDbEntity
  8
0
  6
Continuous
 62
     7
370
    15
100
AcDbLine
 10
111.5595063285
 20
90.0583430508
 30
0.0
 11
111.5853337661
 21
90.0287493447
 31
0.0
  0
ARC
  5
21F
330
1F
100
AcDbEntity
  8
0
  6
Continuous
 62
     7
370
    15
100
AcDbCircle
 10
113.1375886403
 20
88.2501239243
 30
0.0
 40
2.360721117646223
100
AcDbArc
 50
131.1120904392
 51
228.8879095608
  0
ARC
  5
220
330
1F
100
AcDbEntity
  8
0
  6
Continuous
 62
     7
370
    15
100
AcDbCircle
 10
110.2375886403
 20
85.5001239243
 30
0.0
 40
2.550000000000007
100
AcDbArc
 50
131.1120904392
 51
239.7895201773
  0
ARC
  5
221
330
1F
100
AcDbEntity
  8
0
  6
Continuous
 62
     7
370
    15
100
AcDbCircle
 10
110.7375886403
 20
85.5001239243
 30
0.0
 40
1.289278882353792
100
AcDbArc
 50
281.1599368722
 51
48.8879095608
  0
ARC
  5
222
330
1F
100
AcDbEntity
  8
0
  6
Continuous
 62
     7
370
    15
100
AcDbCircle
 10
110.7375886403
 20
91.0001239243
 30
0.0
 40
1.289278882353783
100
AcDbArc
 50
311.1120904392
 51
78.8400631278
  0
LINE
  5
223
330
1F
100
AcDbEntity
  8
0
  6
Continuous
 62
     7
370
    15
100
AcDbLine
 10
109.3770841227
 20
83.2587024512
 30
0.0
 11
110.040195109
 21
83.5000556277
 31
0.0
  0
ARC
  5
224
330
1F
100
AcDbEntity
  8
0
  6
Continuous
 62
     7
370
    15
100
AcDbCircle
 10
110.7375886403
 20
91.0001239243
 30
0.0
 40
1.249999999999993
100
AcDbArc
 50
311.1120904392
 51
78.8400631278
  0
LINE
  5
225
330
1F
100
AcDbEntity
  8
0
  6
Continuous
 62
     7
370
    15
100
AcDbLine
 10
104.4875884519
 20
97.556039606
 30
0.0
 11
100.4875877962
 21
97.556039606
 31
0.0
  0
ELLIPSE
  5
226
330
1F
100
AcDbEntity
  8
0
  6
Continuous
 62
     7
370
    15
100
AcDbEllipse
 10
100.4980648711
 20
97.5560395958
 30
0.0
 11
0.0
 21
0.3000000000000114
 31
0.0
210
0.0
220
0.0
230
1.0
 40
0.0349207695
 41
0.7853981633978336
 42
1.570796326794944
  0
LINE
  5
227
330
1F
100
AcDbEntity
  8
0
  6
Continuous
 62
     7
370
    15
100
AcDbLine
 10
100.4906574354
 20
97.7681716055
 30
0.0
 11
104.4875884519
 21
97.7681716055
 31
0.0
  0
LINE
  5
228
330
1F
100
AcDbEntity
  8
0
  6
Continuous
 62
     7
370
    15
100
AcDbLine
 10
104.4875884519
 20
97.7681716055
 30
0.0
 11
104.4875884519
 21
97.556039606
 31
0.0
  0
LINE
  5
229
330
1F
100
AcDbEntity
  8
0
  6
Continuous
 62
     7
370
    15
100
AcDbLine
 10
120.4875892118
 20
97.556039606
 30
0.0
 11
116.4875885562
 21
97.556039606
 31
0.0
  0
LINE
  5
22A
330
1F
100
AcDbEntity
  8
0
  6
Continuous
 62
     7
370
    15
100
AcDbLine
 10
116.4875885562
 20
97.7681716055
 30
0.0
 11
120.4845195726
 21
97.7681716055
 31
0.0
  0
ELLIPSE
  5
22B
330
1F
100
AcDbEntity
  8
0
  6
Continuous
 62
     7
370
    15
100
AcDbEllipse
 10
120.4771124094
 20
97.5560395958
 30
0.0
 11
0.0
 21
0.3000000000000114
 31
0.0
210
0.0
220
0.0
230
1.0
 40
0.0349207695
 41
4.712388980384643
 42
5.497787143782229
  0
LINE
  5
22C
330
1F
100
AcDbEntity
  8
0
  6
Continuous
 62
     7
370
    15
100
AcDbLine
 10
116.4875885562
 20
97.556039606
 30
0.0
 11
116.4875885562
 21
97.7681716055
 31
0.0
  0
ELLIPSE
  5
22D
330
1F
100
AcDbEntity
  8
0
  6
Continuous
 62
     7
370
    15
100
AcDbEllipse
 10
119.9872838681
 20
74.2504286964
 30
0.0
 11
-0.3539842722995985
 21
0.3539842722995985
 31
0.0
210
0.0
220
0.0
230
0.9999999999999998
 40
0.998782766
 41
2.356803477777929
 42
3.926381829401615
  0
LINE
  5
22E
330
1F
100
AcDbEntity
  8
0
  6
Continuous
 62
     7
370
    15
100
AcDbLine
 10
118.487588884
 20
73.7501243444
 30
0.0
 11
119.9878936724
 21
73.7501243444
 31
0.0
  0
LINE
  5
22F
330
1F
100
AcDbEntity
  8
0
  6
Continuous
 62
     7
370
    15
100
AcDbLine
 10
118.487588884
 20
73.7501243444
 30
0.0
 11
118.487588884
 21
75.7501246723
 31
0.0
  0
LINE
  5
230
330
1F
100
AcDbEntity
  8
0
  6
Continuous
 62
     7
370
    15
100
AcDbLine
 10
118.487588884
 20
75.7501246723
 30
0.0
 11
116.4875885562
 21
75.7501246723
 31
0.0
  0
LINE
  5
231
330
1F
100
AcDbEntity
  8
0
  6
Continuous
 62
     7
370
    15
100
AcDbLine
 10
116.4875885562
 20
82.250123875
 30
0.0
 11
118.487588884
 21
82.250123875
 31
0.0
  0
LINE
  5
232
330
1F
100
AcDbEntity
  8
0
  6
Continuous
 62
     7
370
    15
100
AcDbLine
 10
118.487588884
 20
82.250123875
 30
0.0
 11
118.487588884
 21
89.7501237074
 31
0.0
  0
LINE
  5
233
330
1F
100
AcDbEntity
  8
0
  6
Continuous
 62
     7
370
    15
100
AcDbLine
 10
118.487588884
 20
89.7501237074
 30
0.0
 11
116.4875885562
 21
89.7501237074
 31
0.0
  0
LINE
  5
234
330
1F
100
AcDbEntity
  8
0
  6
Continuous
 62
     7
370
    15
100
AcDbLine
 10
116.4875885562
 20
75.7501246723
 30
0.0
 11
116.4875885562
 21
82.250123875
 31
0.0
  0
LINE
  5
235
330
1F
100
AcDbEntity
  8
0
  6
Continuous
 62
     7
370
    15
100
AcDbLine
 10
120.4875892118
 20
74.2498198839
 30
0.0
 11
120.4875892118
 21
97.556039606
 31
0.0
  0
LINE
  5
236
330
1F
100
AcDbEntity
  8
0
  6
Continuous
 62
     7
370
    15
100
AcDbLine
 10
116.4875885562
 20
89.7501237074
 30
0.0
 11
116.4875885562
 21
97.556039606
 31
0.0
  0
LINE
  5
237
330
1F
100
AcDbEntity
  8
0
  6
Continuous
 62
     7
370
    15
100
AcDbLine
 10
102.487588124
 20
89.7501237074
 30
0.0
 11
102.487588124
 21
82.250123875
 31
0.0
  0
LINE
  5
238
330
1F
100
AcDbEntity
  8
0
  6
Continuous
 62
     7
370
    15
100
AcDbLine
 10
104.4875884519
 20
75.7501246723
 30
0.0
 11
104.4875884519
 21
82.250123875
 31
0.0
  0
LINE
  5
239
330
1F
100
AcDbEntity
  8
0
  6
Continuous
 62
     7
370
    15
100
AcDbLine
 10
102.487588124
 20
75.7501246723
 30
0.0
 11
102.487588124
 21
73.7501243444
 31
0.0
  0
LINE
  5
23A
330
1F
100
AcDbEntity
  8
0
  6
Continuous
 62
     7
370
    15
100
AcDbLine
 10
100.9872833357
 20
73.7501243444
 30
0.0
 11
102.487588124
 21
73.7501243444
 31
0.0
  0
ELLIPSE
  5
23B
330
1F
100
AcDbEntity
  8
0
  6
Continuous
 62
     7
370
    15
100
AcDbEllipse
 10
100.9878934124
 20
74.2504286964
 30
0.0
 11
0.3539842722995985
 21
0.3539842722995985
 31
0.0
210
0.0
220
0.0
230
0.9999999999999998
 40
0.998782766
 41
2.356803477777976
 42
3.926381829401681
  0
LINE
  5
23C
330
1F
100
AcDbEntity
  8
0
  6
Continuous
 62
     7
370
    15
100
AcDbLine
 10
104.4875884519
 20
75.7501246723
 30
0.0
 11
102.487588124
 21
75.7501246723
 31
0.0
  0
LINE
  5
23D
330
1F
100
AcDbEntity
  8
0
  6
Continuous
 62
     7
370
    15
100
AcDbLine
 10
104.4875884519
 20
89.7501237074
 30
0.0
 11
102.487588124
 21
89.7501237074
 31
0.0
  0
LINE
  5
23E
330
1F
100
AcDbEntity
  8
0
  6
Continuous
 62
     7
370
    15
100
AcDbLine
 10
102.487588124
 20
82.250123875
 30
0.0
 11
104.4875884519
 21
82.250123875
 31
0.0
  0
LINE
  5
23F
330
1F
100
AcDbEntity
  8
0
  6
Continuous
 62
     7
370
    15
100
AcDbLine
 10
100.4875877962
 20
97.556039606
 30
0.0
 11
100.4875877962
 21
74.2498198839
 31
0.0
  0
LINE
  5
240
330
1F
100
AcDbEntity
  8
0
  6
Continuous
 62
     7
370
    15
100
AcDbLine
 10
104.4875884519
 20
89.7501237074
 30
0.0
 11
104.4875884519
 21
97.556039606
 31
0.0
  0
LINE
  5
241
330
1F
100
AcDbEntity
  8
0
  6
Continuous
 62
     7
370
    15
100
AcDbLine
 10
111.5343308166
 20
134.0501243564
 30
0.0
 11
117.9875878707
 21
134.0501243564
 31
0.0
  0
LINE
  5
242
330
1F
100
AcDbEntity
  8
0
  6
Continuous
 62
     7
370
    15
100
AcDbLine
 10
102.9875891373
 20
134.0501243564
 30
0.0
 11
109.4408461914
 21
134.0501243564
 31
0.0
  0
ELLIPSE
  5
243
330
1F
100
AcDbEntity
  8
0
  6
Continuous
 62
     7
370
    15
100
AcDbEllipse
 10
100.9878934124
 20
143.2498191521
 30
0.0
 11
0.3539842722995984
 21
-0.3539842722996127
 31
0.0
210
0.0
220
0.0
230
0.9999999999999998
 40
0.998782766
 41
2.356803477777939
 42
3.926381829401758
  0
ELLIPSE
  5
244
330
1F
100
AcDbEntity
  8
0
  6
Continuous
 62
     7
370
    15
100
AcDbEllipse
 10
119.9872838681
 20
143.2498191521
 30
0.0
 11
-0.3539842722995984
 21
-0.3539842722996127
 31
0.0
210
0.0
220
0.0
230
0.9999999999999998
 40
0.998782766
 41
2.356803477777842
 42
3.926381829401661
  0
LINE
  5
245
330
1F
100
AcDbEntity
  8
0
  6
Continuous
 62
     7
370
    15
100
AcDbLine
 10
119.9878936724
 20
143.7501246425
 30
0.0
 11
100.9872833357
 21
143.7501246425
 31
0.0
  0
LINE
  5
246
330
1F
100
AcDbEntity
  8
0
  6
Continuous
 62
     7
370
    15
100
AcDbLine
 10
100.4875877962
 20
134.0501243564
 30
0.0
 11
102.9875891373
 21
134.0501243564
 31
0.0
  0
LINE
  5
247
330
1F
100
AcDbEntity
  8
0
  6
Continuous
 62
     7
370
    15
100
AcDbLine
 10
111.5343308166
 20
134.0501243564
 30
0.0
 11
109.4408461914
 21
134.0501243564
 31
0.0
  0
LINE
  5
248
330
1F
100
AcDbEntity
  8
0
  6
Continuous
 62
     7
370
    15
100
AcDbLine
 10
117.9875878707
 20
134.0501243564
 30
0.0
 11
120.4875892118
 21
134.0501243564
 31
0.0
  0
LINE
  5
249
330
1F
100
AcDbEntity
  8
0
  6
Continuous
 62
     7
370
    15
100
AcDbLine
 10
100.4875877962
 20
143.250429103
 30
0.0
 11
100.4875877962
 21
134.0501243564
 31
0.0
  0
LINE
  5
24A
330
1F
100
AcDbEntity
  8
0
  6
Continuous
 62
     7
370
    15
100
AcDbLine
 10
120.4875892118
 20
134.0501243564
 30
0.0
 11
120.4875892118
 21
143.250429103
 31
0.0
  0
LINE
  5
24B
330
1F
100
AcDbEntity
  8
0
  6
Continuous
 62
     7
370
    15
100
AcDbLine
 10
111.4738153384
 20
132.0501240285
 30
0.0
 11
111.5343308166
 21
134.0501243564
 31
0.0
  0
LINE
  5
24C
330
1F
100
AcDbEntity
  8
0
  6
Continuous
 62
     7
370
    15
100
AcDbLine
 10
111.4738153384
 20
132.0501240285
 30
0.0
 11
111.3967595712
 21
132.0501240285
 31
0.0
  0
LINE
  5
24D
330
1F
100
AcDbEntity
  8
0
  6
Continuous
 62
     7
370
    15
100
AcDbLine
 10
111.3875879065
 20
134.0501243564
 30
0.0
 11
111.3967595712
 21
132.0501240285
 31
0.0
  0
LINE
  5
24E
330
1F
100
AcDbEntity
  8
0
  6
Continuous
 62
     7
370
    15
100
AcDbLine
 10
109.5013616697
 20
132.0501240285
 30
0.0
 11
109.5784192995
 21
132.0501240285
 31
0.0
  0
LINE
  5
24F
330
1F
100
AcDbEntity
  8
0
  6
Continuous
 62
     7
370
    15
100
AcDbLine
 10
109.4408461914
 20
134.0501243564
 30
0.0
 11
109.5013616697
 21
132.0501240285
 31
0.0
  0
LINE
  5
250
330
1F
100
AcDbEntity
  8
0
  6
Continuous
 62
     7
370
    15
100
AcDbLine
 10
109.5784192995
 20
132.0501240285
 30
0.0
 11
109.5875891016
 21
134.0501243564
 31
0.0
  0
LINE
  5
251
330
1F
100
AcDbEntity
  8
0
  6
Continuous
 62
     7
370
    15
100
AcDbLine
 10
111.4738153384
 20
132.0501240285
 30
0.0
 11
117.9875878707
 21
132.0501240285
 31
0.0
  0
LINE
  5
252
330
1F
100
AcDbEntity
  8
0
  6
Continuous
 62
     7
370
    15
100
AcDbLine
 10
117.9875878707
 20
134.0501243564
 30
0.0
 11
117.9875878707
 21
132.0501240285
 31
0.0
  0
LINE
  5
253
330
1F
100
AcDbEntity
  8
0
  6
Continuous
 62
     7
370
    15
100
AcDbLine
 10
102.9875891373
 20
132.0501240285
 30
0.0
 11
109.5013616697
 21
132.0501240285
 31
0.0
  0
LINE
  5
254
330
1F
100
AcDbEntity
  8
0
  6
Continuous
 62
     7
370
    15
100
AcDbLine
 10
102.9875891373
 20
134.0501243564
 30
0.0
 11
102.9875891373
 21
132.0501240285
 31
0.0
  0
LINE
  5
255
330
1F
100
AcDbEntity
  8
0
  6
Continuous
 62
     7
370
    15
100
AcDbLine
 10
104.4875884519
 20
98.6123618519
 30
0.0
 11
100.5201356576
 21
98.6123618519
 31
0.0
  0
LINE
  5
256
330
1F
100
AcDbEntity
  8
0
  6
Continuous
 62
     7
370
    15
100
AcDbLine
 10
100.4906574354
 20
97.7681716055
 30
0.0
 11
100.5201356576
 21
98.6123618519
 31
0.0
  0
LINE
  5
257
330
1F
100
AcDbEntity
  8
0
  6
Continuous
 62
     7
370
    15
100
AcDbLine
 10
104.4875884519
 20
98.6123618519
 30
0.0
 11
104.4875884519
 21
97.7681716055
 31
0.0
  0
LINE
  5
258
330
1F
100
AcDbEntity
  8
0
  6
Continuous
 62
     7
370
    15
100
AcDbLine
 10
120.4550413505
 20
98.6123618519
 30
0.0
 11
116.4875885562
 21
98.6123618519
 31
0.0
  0
LINE
  5
259
330
1F
100
AcDbEntity
  8
0
  6
Continuous
 62
     7
370
    15
100
AcDbLine
 10
120.4550413505
 20
98.6123618519
 30
0.0
 11
120.4845195726
 21
97.7681716055
 31
0.0
  0
LINE
  5
25A
330
1F
100
AcDbEntity
  8
0
  6
Continuous
 62
     7
370
    15
100
AcDbLine
 10
116.4875885562
 20
97.7681716055
 30
0.0
 11
116.4875885562
 21
98.6123618519
 31
0.0
  0
LINE
  5
25B
330
1F
100
AcDbEntity
  8
0
  6
Continuous
 62
     7
370
    15
100
AcDbLine
 10
100.5273627207
 20
98.7001841737
 30
0.0
 11
104.4875884519
 21
98.7001841737
 31
0.0
  0
ELLIPSE
  5
25C
330
1F
100
AcDbEntity
  8
0
  6
Continuous
 62
     7
370
    15
100
AcDbEllipse
 10
100.5275446455
 20
98.4002298819
 30
0.0
 11
0.0
 21
0.2999999999999972
 31
0.0
210
0.0
220
0.0
230
1.0
 40
0.0349207695
 41
0.0174532925196707
 42
0.7853981633975625
  0
LINE
  5
25D
330
1F
100
AcDbEntity
  8
0
  6
Continuous
 62
     7
370
    15
100
AcDbLine
 10
104.4875884519
 20
98.7001841737
 30
0.0
 11
104.4875884519
 21
98.6123618519
 31
0.0
  0
LINE
  5
25E
330
1F
100
AcDbEntity
  8
0
  6
Continuous
 62
     7
370
    15
100
AcDbLine
 10
116.4875885562
 20
98.7001841737
 30
0.0
 11
120.44781615
 21
98.7001841737
 31
0.0
  0
ELLIPSE
  5
25F
330
1F
100
AcDbEntity
  8
0
  6
Continuous
 62
     7
370
    15
100
AcDbEllipse
 10
120.447632635
 20
98.4002298819
 30
0.0
 11
0.0
 21
0.2999999999999972
 31
0.0
210
0.0
220
0.0
230
1.0
 40
0.0349207695
 41
5.49778714378126
 42
6.265732014660327
  0
LINE
  5
260
330
1F
100
AcDbEntity
  8
0
  6
Continuous
 62
     7
370
    15
100
AcDbLine
 10
116.4875885562
 20
98.6123618519
 30
0.0
 11
116.4875885562
 21
98.7001841737
 31
0.0
  0
LINE
  5
261
330
1F
100
AcDbEntity
  8
0
  6
Continuous
 62
     7
370
    15
100
AcDbLine
 10
100.6272712812
 20
98.7501240185
 30
0.0
 11
102.487588124
 21
98.7501240185
 31
0.0
  0
LINE
  5
262
330
1F
100
AcDbEntity
  8
0
  6
Continuous
 62
     7
370
    15
100
AcDbLine
 10
102.487588124
 20
98.710413588
 30
0.0
 11
104.4875884519
 21
98.710413588
 31
0.0
  0
LINE
  5
263
330
1F
100
AcDbEntity
  8
0
  6
Continuous
 62
     7
370
    15
100
AcDbLine
 10
102.487588124
 20
98.7501240185
 30
0.0
 11
102.487588124
 21
98.710413588
 31
0.0
  0
LINE
  5
264
330
1F
100
AcDbEntity
  8
0
  6
Continuous
 62
     7
370
    15
100
AcDbLine
 10
100.5273627207
 20
98.7001841737
 30
0.0
 11
100.6272712812
 21
98.7501240185
 31
0.0
  0
LINE
  5
265
330
1F
100
AcDbEntity
  8
0
  6
Continuous
 62
     7
370
    15
100
AcDbLine
 10
104.4875884519
 20
98.710413588
 30
0.0
 11
104.4875884519
 21
98.7001841737
 31
0.0
  0
LINE
  5
266
330
1F
100
AcDbEntity
  8
0
  6
Continuous
 62
     7
370
    15
100
AcDbLine
 10
116.4875885562
 20
98.710413588
 30
0.0
 11
118.487588884
 21
98.710413588
 31
0.0
  0
LINE
  5
267
330
1F
100
AcDbEntity
  8
0
  6
Continuous
 62
     7
370
    15
100
AcDbLine
 10
118.487588884
 20
98.7501240185
 30
0.0
 11
120.3479057268
 21
98.7501240185
 31
0.0
  0
LINE
  5
268
330
1F
100
AcDbEntity
  8
0
  6
Continuous
 62
     7
370
    15
100
AcDbLine
 10
118.487588884
 20
98.710413588
 30
0.0
 11
118.487588884
 21
98.7501240185
 31
0.0
  0
LINE
  5
269
330
1F
100
AcDbEntity
  8
0
  6
Continuous
 62
     7
370
    15
100
AcDbLine
 10
120.44781615
 20
98.7001841737
 30
0.0
 11
120.3479057268
 21
98.7501240185
 31
0.0
  0
LINE
  5
26A
330
1F
100
AcDbEntity
  8
0
  6
Continuous
 62
     7
370
    15
100
AcDbLine
 10
116.4875885562
 20
98.7001841737
 30
0.0
 11
116.4875885562
 21
98.710413588
 31
0.0
  0
ARC
  5
26B
330
1F
100
AcDbEntity
  8
0
  6
Continuous
 62
     7
370
    15
100
AcDbCircle
 10
110.7375886403
 20
85.5001239243
 30
0.0
 40
0.9500000000002231
100
AcDbArc
 50
336.8909237508
 51
90.0
  0
LINE
  5
26C
330
1F
100
AcDbEntity
  8
0
  6
Continuous
 62
     7
370
    15
100
AcDbLine
 10
110.7375880793
 20
86.7501236813
 30
0.0
 11
110.7375880793
 21
86.4501241909
 31
0.0
  0
ARC
  5
26D
330
1F
100
AcDbEntity
  8
0
  6
Continuous
 62
     7
370
    15
100
AcDbCircle
 10
110.7375886403
 20
85.5001239243
 30
0.0
 40
1.250000000000001
100
AcDbArc
 50
336.890923751
 51
90.0
  0
LWPOLYLINE
  5
26E
330
1F
100
AcDbEntity
  8
0
  6
Continuous
 62
     7
370
    15
100
AcDbPolyline
 90
        9
 70
   128
 43
0.0
 10
111.6113605068
 20
85.1272652241
 10
111.6651909516
 20
85.1042941528
 10
111.7169538603
 20
85.0822059753
 10
111.7646580652
 20
85.0618500577
 10
111.8064707235
 20
85.0440068485
 10
111.8407862351
 20
85.0293636637
 10
111.8662839845
 20
85.0184830221
 10
111.8819860832
 20
85.0117830875
 10
111.8872871712
 20
85.0095199736
  0
ARC
  5
26F
330
1F
100
AcDbEntity
  8
0
  6
Continuous
 62
     7
370
    15
100
AcDbCircle
 10
110.2375886403
 20
85.5001239243
 30
0.0
 40
0.9500000000002362
100
AcDbArc
 50
90.0
 51
203.1090762492
  0
LINE
  5
270
330
1F
100
AcDbEntity
  8
0
  6
Continuous
 62
     7
370
    15
100
AcDbLine
 10
110.7375880793
 20
86.4501241909
 30
0.0
 11
110.2375889287
 21
86.4501241909
 31
0.0
  0
LINE
  5
271
330
1F
100
AcDbEntity
  8
0
  6
Continuous
 62
     7
370
    15
100
AcDbLine
 10
109.3638165013
 20
85.1272652241
 30
0.0
 11
111.6113605068
 21
85.1272652241
 31
0.0
  0
LINE
  5
272
330
1F
100
AcDbEntity
  8
0
  6
Continuous
 62
     7
370
    15
100
AcDbLine
 10
111.6113605068
 20
85.1272652241
 30
0.0
 11
111.6113605068
 21
85.0246595534
 31
0.0
  0
LINE
  5
273
330
1F
100
AcDbEntity
  8
0
  6
Continuous
 62
     7
370
    15
100
AcDbLine
 10
111.6113605068
 20
85.0246595534
 30
0.0
 11
109.3638165013
 21
85.0246595534
 31
0.0
  0
LINE
  5
274
330
1F
100
AcDbEntity
  8
0
  6
Continuous
 62
     7
370
    15
100
AcDbLine
 10
109.3638165013
 20
85.1272652241
 30
0.0
 11
109.3638165013
 21
85.0246595534
 31
0.0
  0
LINE
  5
275
330
1F
100
AcDbEntity
  8
0
  6
Continuous
 62
     7
370
    15
100
AcDbLine
 10
110.2375889287
 20
86.7501236813
 30
0.0
 11
110.7375880793
 21
86.7501236813
 31
0.0
  0
LINE
  5
276
330
1F
100
AcDbEntity
  8
0
  6
Continuous
 62
     7
370
    15
100
AcDbLine
 10
110.2375889287
 20
86.7501236813
 30
0.0
 11
110.2375889287
 21
86.4501241909
 31
0.0
  0
ARC
  5
277
330
1F
100
AcDbEntity
  8
0
  6
Continuous
 62
     7
370
    15
100
AcDbCircle
 10
110.2375886403
 20
85.5001239243
 30
0.0
 40
1.250000000000001
100
AcDbArc
 50
90.0
 51
203.109076249
  0
LWPOLYLINE
  5
278
330
1F
100
AcDbEntity
  8
0
  6
Continuous
 62
     7
370
    15
100
AcDbPolyline
 90
        9
 70
   128
 43
0.0
 10
109.0878898368
 20
85.0095199736
 10
109.0931909249
 20
85.0117830875
 10
109.1088930235
 20
85.0184830221
 10
109.1343907729
 20
85.0293636637
 10
109.1687062845
 20
85.0440068485
 10
109.2105208055
 20
85.0618500577
 10
109.2582250104
 20
85.0822059753
 10
109.3099860565
 20
85.1042941528
 10
109.3638165013
 20
85.1272652241
  0
LWPOLYLINE
  5
279
330
1F
100
AcDbEntity
  8
0
  6
Continuous
 62
     7
370
    15
100
AcDbPolyline
 90
        9
 70
   128
 43
0.0
 10
111.6113605068
 20
85.0246595534
 10
111.6610782311
 20
85.0075735094
 10
111.7091996685
 20
84.9943356903
 10
111.7541750983
 20
84.9853698479
 10
111.7945609704
 20
84.9809637608
 10
111.8290590212
 20
84.9812608527
 10
111.8565591142
 20
84.9862508791
 10
111.8761802182
 20
84.9957727211
 10
111.8872871712
 20
85.0095199736
  0
LWPOLYLINE
  5
27A
330
1F
100
AcDbEntity
  8
0
  6
Continuous
 62
     7
370
    15
100
AcDbPolyline
 90
        9
 70
   128
 43
0.0
 10
109.0878898368
 20
85.0095199736
 10
109.0989986525
 20
84.9957727211
 10
109.1186178938
 20
84.9862508791
 10
109.1461179868
 20
84.9812608527
 10
109.1806160376
 20
84.9809637608
 10
109.2210019097
 20
84.9853698479
 10
109.2659773395
 20
84.9943356903
 10
109.3140987769
 20
85.0075735094
 10
109.3638165013
 20
85.0246595534
  0
ARC
  5
27B
330
1F
100
AcDbEntity
  8
0
  6
Continuous
 62
     7
370
    15
100
AcDbCircle
 10
110.2375886403
 20
85.3975178813
 30
0.0
 40
0.9500000000000159
100
AcDbArc
 50
203.1090762492
 51
270.0
  0
ARC
  5
27C
330
1F
100
AcDbEntity
  8
0
  6
Continuous
 62
     7
370
    15
100
AcDbCircle
 10
110.7375886403
 20
85.3975178813
 30
0.0
 40
0.9500000000000327
100
AcDbArc
 50
270.0
 51
336.8909237508
  0
LINE
  5
27D
330
1F
100
AcDbEntity
  8
0
  6
Continuous
 62
     7
370
    15
100
AcDbLine
 10
110.2375889287
 20
84.4475180226
 30
0.0
 11
110.7375880793
 21
84.4475180226
 31
0.0
  0
LINE
  5
27E
330
1F
100
AcDbEntity
  8
0
  6
Continuous
 62
     7
370
    15
100
AcDbLine
 10
110.2375889287
 20
84.4475180226
 30
0.0
 11
110.2375889287
 21
84.2501242029
 31
0.0
  0
ARC
  5
27F
330
1F
100
AcDbEntity
  8
0
  6
Continuous
 62
     7
370
    15
100
AcDbCircle
 10
110.2375886403
 20
85.5001239243
 30
0.0
 40
1.250000000000001
100
AcDbArc
 50
203.109076249
 51
270.0
  0
ARC
  5
280
330
1F
100
AcDbEntity
  8
0
  6
Continuous
 62
     7
370
    15
100
AcDbCircle
 10
110.7375886403
 20
85.5001239243
 30
0.0
 40
1.250000000000001
100
AcDbArc
 50
270.0
 51
336.890923751
  0
LINE
  5
281
330
1F
100
AcDbEntity
  8
0
  6
Continuous
 62
     7
370
    15
100
AcDbLine
 10
110.7375880793
 20
84.4475180226
 30
0.0
 11
110.7375880793
 21
84.2501242029
 31
0.0
  0
LINE
  5
282
330
1F
100
AcDbEntity
  8
0
  6
Continuous
 62
     7
370
    15
100
AcDbLine
 10
110.7375880793
 20
84.2501242029
 30
0.0
 11
110.2375889287
 21
84.2501242029
 31
0.0
  0
ARC
  5
283
330
1F
100
AcDbEntity
  8
0
  6
Continuous
 62
     7
370
    15
100
AcDbCircle
 10
118.4875886403
 20
130.5501239243
 30
0.0
 40
0.25
100
AcDbArc
 50
90.0
 51
270.0
  0
LINE
  5
284
330
1F
100
AcDbEntity
  8
0
  6
Continuous
 62
     7
370
    15
100
AcDbLine
 10
118.487588884
 20
130.3001242073
 30
0.0
 11
118.487588884
 21
129.8001231941
 31
0.0
  0
ARC
  5
285
330
1F
100
AcDbEntity
  8
0
  6
Continuous
 62
     7
370
    15
100
AcDbCircle
 10
118.4875886403
 20
130.5501239243
 30
0.0
 40
0.75
100
AcDbArc
 50
90.0
 51
270.0
  0
LINE
  5
286
330
1F
100
AcDbEntity
  8
0
  6
Continuous
 62
     7
370
    15
100
AcDbLine
 10
118.487588884
 20
130.8001252206
 30
0.0
 11
118.487588884
 21
131.3001225086
 31
0.0
  0
ARC
  5
287
330
1F
100
AcDbEntity
  8
0
  6
Continuous
 62
     7
370
    15
100
AcDbCircle
 10
101.9875886403
 20
130.5501239243
 30
0.0
 40
0.25
100
AcDbArc
 50
90.0
 51
270.0
  0
LINE
  5
288
330
1F
100
AcDbEntity
  8
0
  6
Continuous
 62
     7
370
    15
100
AcDbLine
 10
101.9875871108
 20
129.8001231941
 30
0.0
 11
101.9875871108
 21
130.3001242073
 31
0.0
  0
ARC
  5
289
330
1F
100
AcDbEntity
  8
0
  6
Continuous
 62
     7
370
    15
100
AcDbCircle
 10
101.9875886403
 20
130.5501239243
 30
0.0
 40
0.75
100
AcDbArc
 50
90.0
 51
270.0
  0
LINE
  5
28A
330
1F
100
AcDbEntity
  8
0
  6
Continuous
 62
     7
370
    15
100
AcDbLine
 10
101.9875871108
 20
130.8001252206
 30
0.0
 11
101.9875871108
 21
131.3001225086
 31
0.0
  0
LINE
  5
28B
330
1F
100
AcDbEntity
  8
0
  6
Continuous
 62
     7
370
    15
100
AcDbLine
 10
101.9875871108
 20
129.8001231941
 30
0.0
 11
102.487588124
 21
129.8001231941
 31
0.0
  0
LINE
  5
28C
330
1F
100
AcDbEntity
  8
0
  6
Continuous
 62
     7
370
    15
100
AcDbLine
 10
101.9875871108
 20
130.3001242073
 30
0.0
 11
102.487588124
 21
130.3001242073
 31
0.0
  0
LINE
  5
28D
330
1F
100
AcDbEntity
  8
0
  6
Continuous
 62
     7
370
    15
100
AcDbLine
 10
102.487588124
 20
129.8001231941
 30
0.0
 11
102.487588124
 21
130.3001242073
 31
0.0
  0
ARC
  5
28E
330
1F
100
AcDbEntity
  8
0
  6
Continuous
 62
     7
370
    15
100
AcDbCircle
 10
102.4875886403
 20
130.5501239243
 30
0.0
 40
0.25
100
AcDbArc
 50
270.0
 51
90.0
  0
LINE
  5
28F
330
1F
100
AcDbEntity
  8
0
  6
Continuous
 62
     7
370
    15
100
AcDbLine
 10
102.487588124
 20
130.8001252206
 30
0.0
 11
101.9875871108
 21
130.8001252206
 31
0.0
  0
LINE
  5
290
330
1F
100
AcDbEntity
  8
0
  6
Continuous
 62
     7
370
    15
100
AcDbLine
 10
118.9875880346
 20
130.8001252206
 30
0.0
 11
118.487588884
 21
130.8001252206
 31
0.0
  0
LINE
  5
291
330
1F
100
AcDbEntity
  8
0
  6
Continuous
 62
     7
370
    15
100
AcDbLine
 10
118.9875880346
 20
131.3001225086
 30
0.0
 11
118.487588884
 21
131.3001225086
 31
0.0
  0
LINE
  5
292
330
1F
100
AcDbEntity
  8
0
  6
Continuous
 62
     7
370
    15
100
AcDbLine
 10
118.9875880346
 20
131.3001225086
 30
0.0
 11
118.9875880346
 21
130.8001252206
 31
0.0
  0
LINE
  5
293
330
1F
100
AcDbEntity
  8
0
  6
Continuous
 62
     7
370
    15
100
AcDbLine
 10
118.487588884
 20
130.3001242073
 30
0.0
 11
118.9875880346
 21
130.3001242073
 31
0.0
  0
LINE
  5
294
330
1F
100
AcDbEntity
  8
0
  6
Continuous
 62
     7
370
    15
100
AcDbLine
 10
118.9875880346
 20
129.8001231941
 30
0.0
 11
118.9875880346
 21
130.3001242073
 31
0.0
  0
LINE
  5
295
330
1F
100
AcDbEntity
  8
0
  6
Continuous
 62
     7
370
    15
100
AcDbLine
 10
118.487588884
 20
129.8001231941
 30
0.0
 11
118.9875880346
 21
129.8001231941
 31
0.0
  0
ARC
  5
296
330
1F
100
AcDbEntity
  8
0
  6
Continuous
 62
     7
370
    15
100
AcDbCircle
 10
118.9875886403
 20
130.5501239243
 30
0.0
 40
0.25
100
AcDbArc
 50
270.0
 51
90.0
  0
ARC
  5
297
330
1F
100
AcDbEntity
  8
0
  6
Continuous
 62
     7
370
    15
100
AcDbCircle
 10
118.9875886403
 20
130.5501239243
 30
0.0
 40
0.75
100
AcDbArc
 50
270.0
 51
90.0
  0
LINE
  5
298
330
1F
100
AcDbEntity
  8
0
  6
Continuous
 62
     7
370
    15
100
AcDbLine
 10
102.487588124
 20
131.3001225086
 30
0.0
 11
101.9875871108
 21
131.3001225086
 31
0.0
  0
LINE
  5
299
330
1F
100
AcDbEntity
  8
0
  6
Continuous
 62
     7
370
    15
100
AcDbLine
 10
102.487588124
 20
130.8001252206
 30
0.0
 11
102.487588124
 21
131.3001225086
 31
0.0
  0
ARC
  5
29A
330
1F
100
AcDbEntity
  8
0
  6
Continuous
 62
     7
370
    15
100
AcDbCircle
 10
102.4875886403
 20
130.5501239243
 30
0.0
 40
0.75
100
AcDbArc
 50
270.0
 51
90.0
  0
LINE
  5
29B
330
1F
100
AcDbEntity
  8
0
  6
Continuous
 62
     7
370
    15
100
AcDbLine
 10
118.487588884
 20
101.9001240226
 30
0.0
 11
118.9875880346
 21
101.9001240226
 31
0.0
  0
LINE
  5
29C
330
1F
100
AcDbEntity
  8
0
  6
Continuous
 62
     7
370
    15
100
AcDbLine
 10
118.9875880346
 20
101.9001240226
 30
0.0
 11
118.9875880346
 21
101.5001237707
 31
0.0
  0
LINE
  5
29D
330
1F
100
AcDbEntity
  8
0
  6
Continuous
 62
     7
370
    15
100
AcDbLine
 10
118.487588884
 20
101.5001237707
 30
0.0
 11
118.9875880346
 21
101.5001237707
 31
0.0
  0
LINE
  5
29E
330
1F
100
AcDbEntity
  8
0
  6
Continuous
 62
     7
370
    15
100
AcDbLine
 10
118.487588884
 20
101.5001237707
 30
0.0
 11
118.487588884
 21
101.9001240226
 31
0.0
  0
ARC
  5
29F
330
1F
100
AcDbEntity
  8
0
  6
Continuous
 62
     7
370
    15
100
AcDbCircle
 10
101.9875886403
 20
102.2501239243
 30
0.0
 40
0.7500000000000142
100
AcDbArc
 50
90.0
 51
270.0
  0
LINE
  5
2A0
330
1F
100
AcDbEntity
  8
0
  6
Continuous
 62
     7
370
    15
100
AcDbLine
 10
101.9875871108
 20
103.0001240166
 30
0.0
 11
101.9875871108
 21
102.6001237648
 31
0.0
  0
ARC
  5
2A1
330
1F
100
AcDbEntity
  8
0
  6
Continuous
 62
     7
370
    15
100
AcDbCircle
 10
101.9875886403
 20
102.2501239243
 30
0.0
 40
0.3500000000000085
100
AcDbArc
 50
90.0
 51
270.0
  0
LINE
  5
2A2
330
1F
100
AcDbEntity
  8
0
  6
Continuous
 62
     7
370
    15
100
AcDbLine
 10
101.9875871108
 20
101.5001237707
 30
0.0
 11
101.9875871108
 21
101.9001240226
 31
0.0
  0
ARC
  5
2A3
330
1F
100
AcDbEntity
  8
0
  6
Continuous
 62
     7
370
    15
100
AcDbCircle
 10
118.9875886403
 20
102.2501239243
 30
0.0
 40
0.3500000000000085
100
AcDbArc
 50
270.0
 51
90.0
  0
LINE
  5
2A4
330
1F
100
AcDbEntity
  8
0
  6
Continuous
 62
     7
370
    15
100
AcDbLine
 10
118.9875880346
 20
102.6001237648
 30
0.0
 11
118.9875880346
 21
103.0001240166
 31
0.0
  0
ARC
  5
2A5
330
1F
100
AcDbEntity
  8
0
  6
Continuous
 62
     7
370
    15
100
AcDbCircle
 10
118.9875886403
 20
102.2501239243
 30
0.0
 40
0.7500000000000142
100
AcDbArc
 50
270.0
 51
90.0
  0
LINE
  5
2A6
330
1F
100
AcDbEntity
  8
0
  6
Continuous
 62
     7
370
    15
100
AcDbLine
 10
102.487588124
 20
102.6001237648
 30
0.0
 11
101.9875871108
 21
102.6001237648
 31
0.0
  0
LINE
  5
2A7
330
1F
100
AcDbEntity
  8
0
  6
Continuous
 62
     7
370
    15
100
AcDbLine
 10
102.487588124
 20
103.0001240166
 30
0.0
 11
101.9875871108
 21
103.0001240166
 31
0.0
  0
LINE
  5
2A8
330
1F
100
AcDbEntity
  8
0
  6
Continuous
 62
     7
370
    15
100
AcDbLine
 10
102.487588124
 20
102.6001237648
 30
0.0
 11
102.487588124
 21
103.0001240166
 31
0.0
  0
ARC
  5
2A9
330
1F
100
AcDbEntity
  8
0
  6
Continuous
 62
     7
370
    15
100
AcDbCircle
 10
118.4875886403
 20
102.2501239243
 30
0.0
 40
0.75
100
AcDbArc
 50
90.0
 51
270.0
  0
LINE
  5
2AA
330
1F
100
AcDbEntity
  8
0
  6
Continuous
 62
     7
370
    15
100
AcDbLine
 10
118.487588884
 20
103.0001240166
 30
0.0
 11
118.487588884
 21
102.6001237648
 31
0.0
  0
ARC
  5
2AB
330
1F
100
AcDbEntity
  8
0
  6
Continuous
 62
     7
370
    15
100
AcDbCircle
 10
118.4875886403
 20
102.2501239243
 30
0.0
 40
0.3500000000000085
100
AcDbArc
 50
90.0
 51
270.0
  0
LINE
  5
2AC
330
1F
100
AcDbEntity
  8
0
  6
Continuous
 62
     7
370
    15
100
AcDbLine
 10
118.9875880346
 20
102.6001237648
 30
0.0
 11
118.487588884
 21
102.6001237648
 31
0.0
  0
LINE
  5
2AD
330
1F
100
AcDbEntity
  8
0
  6
Continuous
 62
     7
370
    15
100
AcDbLine
 10
118.9875880346
 20
103.0001240166
 30
0.0
 11
118.487588884
 21
103.0001240166
 31
0.0
  0
ARC
  5
2AE
330
1F
100
AcDbEntity
  8
0
  6
Continuous
 62
     7
370
    15
100
AcDbCircle
 10
102.4875886403
 20
102.2501239243
 30
0.0
 40
0.3500000000000085
100
AcDbArc
 50
270.0
 51
90.0
  0
ARC
  5
2AF
330
1F
100
AcDbEntity
  8
0
  6
Continuous
 62
     7
370
    15
100
AcDbCircle
 10
102.4875886403
 20
102.2501239243
 30
0.0
 40
0.7500000000000142
100
AcDbArc
 50
270.0
 51
90.0
  0
LINE
  5
2B0
330
1F
100
AcDbEntity
  8
0
  6
Continuous
 62
     7
370
    15
100
AcDbLine
 10
102.487588124
 20
101.9001240226
 30
0.0
 11
102.487588124
 21
101.5001237707
 31
0.0
  0
LINE
  5
2B1
330
1F
100
AcDbEntity
  8
0
  6
Continuous
 62
     7
370
    15
100
AcDbLine
 10
101.9875871108
 20
101.9001240226
 30
0.0
 11
102.487588124
 21
101.9001240226
 31
0.0
  0
LINE
  5
2B2
330
1F
100
AcDbEntity
  8
0
  6
Continuous
 62
     7
370
    15
100
AcDbLine
 10
101.9875871108
 20
101.5001237707
 30
0.0
 11
102.487588124
 21
101.5001237707
 31
0.0
  0
LINE
  5
2B3
330
1F
100
AcDbEntity
  8
0
  6
Continuous
 62
     7
370
    15
100
AcDbLine
 10
102.6875877843
 20
82.369351791
 30
0.0
 11
102.487588124
 21
82.369351791
 31
0.0
  0
LINE
  5
2B4
330
1F
100
AcDbEntity
  8
0
  6
Continuous
 62
     7
370
    15
100
AcDbLine
 10
102.487588124
 20
89.6308962571
 30
0.0
 11
102.6875877843
 21
89.6308962571
 31
0.0
  0
LINE
  5
2B5
330
1F
100
AcDbEntity
  8
0
  6
Continuous
 62
     7
370
    15
100
AcDbLine
 10
104.6068163679
 20
98.7501240185
 30
0.0
 11
104.6068163679
 21
98.8693517016
 31
0.0
  0
LINE
  5
2B6
330
1F
100
AcDbEntity
  8
0
  6
Continuous
 62
     7
370
    15
100
AcDbLine
 10
104.6068163679
 20
98.8693517016
 30
0.0
 11
102.487588124
 21
98.8693517016
 31
0.0
  0
LINE
  5
2B7
330
1F
100
AcDbEntity
  8
0
  6
Continuous
 62
     7
370
    15
100
AcDbLine
 10
102.9246987865
 20
131.9872336777
 30
0.0
 11
102.9246987865
 21
134.0501243564
 31
0.0
  0
LINE
  5
2B8
330
1F
100
AcDbEntity
  8
0
  6
Continuous
 62
     7
370
    15
100
AcDbLine
 10
109.6504775897
 20
131.9872336777
 30
0.0
 11
102.9246987865
 21
131.9872336777
 31
0.0
  0
LINE
  5
2B9
330
1F
100
AcDbEntity
  8
0
  6
Continuous
 62
     7
370
    15
100
AcDbLine
 10
109.6504775897
 20
131.9872336777
 30
0.0
 11
109.6504775897
 21
134.0501243564
 31
0.0
  0
LINE
  5
2BA
330
1F
100
AcDbEntity
  8
0
  6
Continuous
 62
     7
370
    15
100
AcDbLine
 10
111.3246994183
 20
134.0501243564
 30
0.0
 11
111.3246994183
 21
131.9872336777
 31
0.0
  0
LINE
  5
2BB
330
1F
100
AcDbEntity
  8
0
  6
Continuous
 62
     7
370
    15
100
AcDbLine
 10
118.0504782215
 20
131.9872336777
 30
0.0
 11
111.3246994183
 21
131.9872336777
 31
0.0
  0
LINE
  5
2BC
330
1F
100
AcDbEntity
  8
0
  6
Continuous
 62
     7
370
    15
100
AcDbLine
 10
118.0504782215
 20
134.0501243564
 30
0.0
 11
118.0504782215
 21
131.9872336777
 31
0.0
  0
LINE
  5
2BD
330
1F
100
AcDbEntity
  8
0
  6
Continuous
 62
     7
370
    15
100
AcDbLine
 10
118.487588884
 20
98.8693517016
 30
0.0
 11
116.3683606402
 21
98.8693517016
 31
0.0
  0
LINE
  5
2BE
330
1F
100
AcDbEntity
  8
0
  6
Continuous
 62
     7
370
    15
100
AcDbLine
 10
116.3683606402
 20
98.8693517016
 30
0.0
 11
116.3683606402
 21
98.7501240185
 31
0.0
  0
LINE
  5
2BF
330
1F
100
AcDbEntity
  8
0
  6
Continuous
 62
     7
370
    15
100
AcDbLine
 10
118.2875892237
 20
89.6308962571
 30
0.0
 11
118.487588884
 21
89.6308962571
 31
0.0
  0
LINE
  5
2C0
330
1F
100
AcDbEntity
  8
0
  6
Continuous
 62
     7
370
    15
100
AcDbLine
 10
118.487588884
 20
82.369351791
 30
0.0
 11
118.2875892237
 21
82.369351791
 31
0.0
  0
LINE
  5
2C1
330
1F
100
AcDbEntity
  8
0
  6
Continuous
 62
     7
370
    15
100
AcDbLine
 10
118.2875892237
 20
75.6308967563
 30
0.0
 11
118.487588884
 21
75.6308967563
 31
0.0
  0
CIRCLE
  5
2C2
330
1F
100
AcDbEntity
  8
0
  6
Continuous
 62
     7
370
    15
100
AcDbCircle
 10
110.4875886403
 20
116.5501239243
 30
0.0
 40
5.607711865199477
  0
LINE
  5
2C3
330
1F
100
AcDbEntity
  8
0
  6
Continuous
 62
     7
370
    15
100
AcDbLine
 10
102.487588124
 20
75.6308967563
 30
0.0
 11
102.6875877843
 21
75.6308967563
 31
0.0
  0
LINE
  5
2C4
330
1F
100
AcDbEntity
  8
0
  6
Continuous
 62
     7
370
    15
100
AcDbLine
 10
118.487588884
 20
73.8898078295
 30
0.0
 11
118.2875892237
 21
73.8898078295
 31
0.0
  0
LINE
  5
2C5
330
1F
100
AcDbEntity
  8
0
  6
Continuous
 62
     7
370
    15
100
AcDbLine
 10
113.6593910024
 20
73.8898078295
 30
0.0
 11
107.3129175321
 21
73.8898078295
 31
0.0
  0
LINE
  5
2C6
330
1F
100
AcDbEntity
  8
0
  6
Continuous
 62
     7
370
    15
100
AcDbLine
 10
102.6875877843
 20
73.8898078295
 30
0.0
 11
102.487588124
 21
73.8898078295
 31
0.0
  0
LINE
  5
2C7
330
1F
100
AcDbEntity
  8
0
  6
Continuous
 62
     7
370
    15
100
AcDbLine
 10
102.487588124
 20
98.8693517016
 30
0.0
 11
102.487588124
 21
98.7501240185
 31
0.0
  0
LINE
  5
2C8
330
1F
100
AcDbEntity
  8
0
  6
Continuous
 62
     7
370
    15
100
AcDbLine
 10
118.487588884
 20
98.8693517016
 30
0.0
 11
118.487588884
 21
98.7501240185
 31
0.0
  0
LINE
  5
2C9
330
1F
100
AcDbEntity
  8
0
  6
Continuous
 62
     7
370
    15
100
AcDbLine
 10
100.6272712812
 20
98.7501240185
 30
0.0
 11
100.6272712812
 21
134.0501243564
 31
0.0
  0
LINE
  5
2CA
330
1F
100
AcDbEntity
  8
0
  6
Continuous
 62
     7
370
    15
100
AcDbLine
 10
120.3479057268
 20
98.7501240185
 30
0.0
 11
120.3479057268
 21
134.0501243564
 31
0.0
  0
CIRCLE
  5
2CB
330
1F
100
AcDbEntity
  8
0
  6
Continuous
 62
     7
370
    15
100
AcDbCircle
 10
110.4875886403
 20
116.5501239243
 30
0.0
 40
5.307814667706808
  0
CIRCLE
  5
2CC
330
1F
100
AcDbEntity
  8
0
  6
Continuous
 62
     7
370
    15
100
AcDbCircle
 10
110.4875886403
 20
116.5501239243
 30
0.0
 40
5.25
  0
LINE
  5
2CD
330
1F
100
AcDbEntity
  8
0
  6
Continuous
 62
     8
370
    15
100
AcDbLine
 10
102.7875894771
 20
191.5501216741
 30
0.0
 11
102.7875894771
 21
143.7501246425
 31
0.0
  0
LINE
  5
2CE
330
1F
100
AcDbEntity
  8
0
  6
Continuous
 62
     8
370
    15
100
AcDbLine
 10
102.7875894771
 20
98.8693517016
 30
0.0
 11
102.7875894771
 21
98.7501240185
 31
0.0
  0
LINE
  5
2CF
330
1F
100
AcDbEntity
  8
0
  6
Continuous
 62
     8
370
    15
100
AcDbLine
 10
102.7875894771
 20
70.1256236376
 30
0.0
 11
102.7875894771
 21
41.5501231643
 31
0.0
  0
LINE
  5
2D0
330
1F
100
AcDbEntity
  8
0
  6
Continuous
 62
     8
370
    15
100
AcDbLine
 10
102.9633263216
 20
191.5501216741
 30
0.0
 11
102.9633263216
 21
143.7501246425
 31
0.0
  0
LINE
  5
2D1
330
1F
100
AcDbEntity
  8
0
  6
Continuous
 62
     8
370
    15
100
AcDbLine
 10
102.9633263216
 20
134.0501243564
 30
0.0
 11
102.9633263216
 21
131.9872336777
 31
0.0
  0
LINE
  5
2D2
330
1F
100
AcDbEntity
  8
0
  6
Continuous
 62
     8
370
    15
100
AcDbLine
 10
102.9633263216
 20
98.8693517016
 30
0.0
 11
102.9633263216
 21
98.7501240185
 31
0.0
  0
LINE
  5
2D3
330
1F
100
AcDbEntity
  8
0
  6
Continuous
 62
     8
370
    15
100
AcDbLine
 10
102.9633263216
 20
69.7367573472
 30
0.0
 11
102.9633263216
 21
41.5501231643
 31
0.0
  0
LINE
  5
2D4
330
1F
100
AcDbEntity
  8
0
  6
Continuous
 62
     8
370
    15
100
AcDbLine
 10
103.1754555271
 20
191.5501216741
 30
0.0
 11
103.1754555271
 21
143.7501246425
 31
0.0
  0
LINE
  5
2D5
330
1F
100
AcDbEntity
  8
0
  6
Continuous
 62
     8
370
    15
100
AcDbLine
 10
103.1754555271
 20
132.0501240285
 30
0.0
 11
103.1754555271
 21
131.9872336777
 31
0.0
  0
LINE
  5
2D6
330
1F
100
AcDbEntity
  8
0
  6
Continuous
 62
     8
370
    15
100
AcDbLine
 10
103.1754555271
 20
98.8693517016
 30
0.0
 11
103.1754555271
 21
98.7501240185
 31
0.0
  0
LINE
  5
2D7
330
1F
100
AcDbEntity
  8
0
  6
Continuous
 62
     8
370
    15
100
AcDbLine
 10
103.1754555271
 20
69.4411332103
 30
0.0
 11
103.1754555271
 21
41.5501231643
 31
0.0
  0
LINE
  5
2D8
330
1F
100
AcDbEntity
  8
0
  6
Continuous
 62
     8
370
    15
100
AcDbLine
 10
118.0118525491
 20
191.5501216741
 30
0.0
 11
118.0118525491
 21
143.7501246425
 31
0.0
  0
LINE
  5
2D9
330
1F
100
AcDbEntity
  8
0
  6
Continuous
 62
     8
370
    15
100
AcDbLine
 10
118.0118525491
 20
134.0501243564
 30
0.0
 11
118.0118525491
 21
131.9872336777
 31
0.0
  0
LINE
  5
2DA
330
1F
100
AcDbEntity
  8
0
  6
Continuous
 62
     8
370
    15
100
AcDbLine
 10
118.0118525491
 20
98.8693517016
 30
0.0
 11
118.0118525491
 21
98.7501240185
 31
0.0
  0
LINE
  5
2DB
330
1F
100
AcDbEntity
  8
0
  6
Continuous
 62
     8
370
    15
100
AcDbLine
 10
118.0118525491
 20
69.7367573472
 30
0.0
 11
118.0118525491
 21
41.5501231643
 31
0.0
  0
LINE
  5
2DC
330
1F
100
AcDbEntity
  8
0
  6
Continuous
 62
     8
370
    15
100
AcDbLine
 10
118.1875893936
 20
191.5501216741
 30
0.0
 11
118.1875893936
 21
143.7501246425
 31
0.0
  0
LINE
  5
2DD
330
1F
100
AcDbEntity
  8
0
  6
Continuous
 62
     8
370
    15
100
AcDbLine
 10
118.1875893936
 20
98.8693517016
 30
0.0
 11
118.1875893936
 21
98.7501240185
 31
0.0
  0
LINE
  5
2DE
330
1F
100
AcDbEntity
  8
0
  6
Continuous
 62
     8
370
    15
100
AcDbLine
 10
118.1875893936
 20
70.1256236376
 30
0.0
 11
118.1875893936
 21
41.5501231643
 31
0.0
  0
LINE
  5
2DF
330
1F
100
AcDbEntity
  8
0
  6
Continuous
 62
     8
370
    15
100
AcDbLine
 10
117.799721481
 20
191.5501216741
 30
0.0
 11
117.799721481
 21
143.7501246425
 31
0.0
  0
LINE
  5
2E0
330
1F
100
AcDbEntity
  8
0
  6
Continuous
 62
     8
370
    15
100
AcDbLine
 10
117.799721481
 20
132.0501240285
 30
0.0
 11
117.799721481
 21
131.9872336777
 31
0.0
  0
LINE
  5
2E1
330
1F
100
AcDbEntity
  8
0
  6
Continuous
 62
     8
370
    15
100
AcDbLine
 10
117.799721481
 20
98.8693517016
 30
0.0
 11
117.799721481
 21
98.7501240185
 31
0.0
  0
LINE
  5
2E2
330
1F
100
AcDbEntity
  8
0
  6
Continuous
 62
     8
370
    15
100
AcDbLine
 10
117.799721481
 20
69.4411332103
 30
0.0
 11
117.799721481
 21
41.5501231643
 31
0.0
  0
LINE
  5
2E3
330
1F
100
AcDbEntity
  8
0
  6
Continuous
 62
     8
370
    15
100
AcDbLine
 10
103.8997190163
 20
191.5501216741
 30
0.0
 11
103.8997190163
 21
143.7501246425
 31
0.0
  0
LINE
  5
2E4
330
1F
100
AcDbEntity
  8
0
  6
Continuous
 62
     8
370
    15
100
AcDbLine
 10
103.8997190163
 20
132.0501240285
 30
0.0
 11
103.8997190163
 21
131.9872336777
 31
0.0
  0
LINE
  5
2E5
330
1F
100
AcDbEntity
  8
0
  6
Continuous
 62
     8
370
    15
100
AcDbLine
 10
103.8997190163
 20
98.8693517016
 30
0.0
 11
103.8997190163
 21
98.7501240185
 31
0.0
  0
LINE
  5
2E6
330
1F
100
AcDbEntity
  8
0
  6
Continuous
 62
     8
370
    15
100
AcDbLine
 10
103.8997190163
 20
68.9118458273
 30
0.0
 11
103.8997190163
 21
41.5501231643
 31
0.0
  0
LINE
  5
2E7
330
1F
100
AcDbEntity
  8
0
  6
Continuous
 62
     8
370
    15
100
AcDbLine
 10
117.0754561291
 20
191.5501216741
 30
0.0
 11
117.0754561291
 21
143.7501246425
 31
0.0
  0
LINE
  5
2E8
330
1F
100
AcDbEntity
  8
0
  6
Continuous
 62
     8
370
    15
100
AcDbLine
 10
117.0754561291
 20
132.0501240285
 30
0.0
 11
117.0754561291
 21
131.9872336777
 31
0.0
  0
LINE
  5
2E9
330
1F
100
AcDbEntity
  8
0
  6
Continuous
 62
     8
370
    15
100
AcDbLine
 10
117.0754561291
 20
98.8693517016
 30
0.0
 11
117.0754561291
 21
98.7501240185
 31
0.0
  0
LINE
  5
2EA
330
1F
100
AcDbEntity
  8
0
  6
Continuous
 62
     8
370
    15
100
AcDbLine
 10
117.0754561291
 20
68.9118458273
 30
0.0
 11
117.0754561291
 21
41.5501231643
 31
0.0
  0
LINE
  5
2EB
330
1F
100
AcDbEntity
  8
0
  6
Continuous
 62
     8
370
    15
100
AcDbLine
 10
107.134375544
 20
191.5501216741
 30
0.0
 11
107.134375544
 21
143.7501246425
 31
0.0
  0
LINE
  5
2EC
330
1F
100
AcDbEntity
  8
0
  6
Continuous
 62
     8
370
    15
100
AcDbLine
 10
107.134375544
 20
132.0501240285
 30
0.0
 11
107.134375544
 21
131.9872336777
 31
0.0
  0
LINE
  5
2ED
330
1F
100
AcDbEntity
  8
0
  6
Continuous
 62
     8
370
    15
100
AcDbLine
 10
107.134375544
 20
73.5973539146
 30
0.0
 11
107.134375544
 21
71.7501240166
 31
0.0
  0
LINE
  5
2EE
330
1F
100
AcDbEntity
  8
0
  6
Continuous
 62
     8
370
    15
100
AcDbLine
 10
107.134375544
 20
68.7501235249
 30
0.0
 11
107.134375544
 21
41.5501231643
 31
0.0
  0
LINE
  5
2EF
330
1F
100
AcDbEntity
  8
0
  6
Continuous
 62
     8
370
    15
100
AcDbLine
 10
113.8408014641
 20
191.5501216741
 30
0.0
 11
113.8408014641
 21
143.7501246425
 31
0.0
  0
LINE
  5
2F0
330
1F
100
AcDbEntity
  8
0
  6
Continuous
 62
     8
370
    15
100
AcDbLine
 10
113.8408014641
 20
132.0501240285
 30
0.0
 11
113.8408014641
 21
131.9872336777
 31
0.0
  0
LINE
  5
2F1
330
1F
100
AcDbEntity
  8
0
  6
Continuous
 62
     8
370
    15
100
AcDbLine
 10
113.8408014641
 20
73.6055290641
 30
0.0
 11
113.8408014641
 21
71.7501240166
 31
0.0
  0
LINE
  5
2F2
330
1F
100
AcDbEntity
  8
0
  6
Continuous
 62
     8
370
    15
100
AcDbLine
 10
113.8408014641
 20
68.7501235249
 30
0.0
 11
113.8408014641
 21
41.5501231643
 31
0.0
  0
LINE
  5
2F3
330
1F
100
AcDbEntity
  8
0
  6
Continuous
 62
     8
370
    15
100
AcDbLine
 10
106.7808212802
 20
191.5501216741
 30
0.0
 11
106.7808212802
 21
143.7501246425
 31
0.0
  0
LINE
  5
2F4
330
1F
100
AcDbEntity
  8
0
  6
Continuous
 62
     8
370
    15
100
AcDbLine
 10
106.7808212802
 20
132.0501240285
 30
0.0
 11
106.7808212802
 21
131.9872336777
 31
0.0
  0
LINE
  5
2F5
330
1F
100
AcDbEntity
  8
0
  6
Continuous
 62
     8
370
    15
100
AcDbLine
 10
106.7808212802
 20
73.3457552584
 30
0.0
 11
106.7808212802
 21
71.7501240166
 31
0.0
  0
LINE
  5
2F6
330
1F
100
AcDbEntity
  8
0
  6
Continuous
 62
     8
370
    15
100
AcDbLine
 10
106.7808212802
 20
68.7501235249
 30
0.0
 11
106.7808212802
 21
41.5501231643
 31
0.0
  0
LINE
  5
2F7
330
1F
100
AcDbEntity
  8
0
  6
Continuous
 62
     8
370
    15
100
AcDbLine
 10
114.1943557278
 20
191.5501216741
 30
0.0
 11
114.1943557278
 21
143.7501246425
 31
0.0
  0
LINE
  5
2F8
330
1F
100
AcDbEntity
  8
0
  6
Continuous
 62
     8
370
    15
100
AcDbLine
 10
114.1943557278
 20
132.0501240285
 30
0.0
 11
114.1943557278
 21
131.9872336777
 31
0.0
  0
LINE
  5
2F9
330
1F
100
AcDbEntity
  8
0
  6
Continuous
 62
     8
370
    15
100
AcDbLine
 10
114.1943557278
 20
73.3405063244
 30
0.0
 11
114.1943557278
 21
71.7501240166
 31
0.0
  0
LINE
  5
2FA
330
1F
100
AcDbEntity
  8
0
  6
Continuous
 62
     8
370
    15
100
AcDbLine
 10
114.1943557278
 20
68.7501235249
 30
0.0
 11
114.1943557278
 21
41.5501231643
 31
0.0
  0
LINE
  5
2FB
330
1F
100
AcDbEntity
  8
0
  6
Continuous
 62
     8
370
    15
100
AcDbLine
 10
104.4997217224
 20
191.5501216741
 30
0.0
 11
104.4997217224
 21
143.7501246425
 31
0.0
  0
LINE
  5
2FC
330
1F
100
AcDbEntity
  8
0
  6
Continuous
 62
     8
370
    15
100
AcDbLine
 10
104.4997217224
 20
132.0501240285
 30
0.0
 11
104.4997217224
 21
131.9872336777
 31
0.0
  0
LINE
  5
2FD
330
1F
100
AcDbEntity
  8
0
  6
Continuous
 62
     8
370
    15
100
AcDbLine
 10
104.4997217224
 20
98.8693517016
 30
0.0
 11
104.4997217224
 21
98.7501240185
 31
0.0
  0
LINE
  5
2FE
330
1F
100
AcDbEntity
  8
0
  6
Continuous
 62
     8
370
    15
100
AcDbLine
 10
104.4997217224
 20
68.758967364
 30
0.0
 11
104.4997217224
 21
41.5501231643
 31
0.0
  0
LINE
  5
2FF
330
1F
100
AcDbEntity
  8
0
  6
Continuous
 62
     8
370
    15
100
AcDbLine
 10
116.4754571483
 20
191.5501216741
 30
0.0
 11
116.4754571483
 21
143.7501246425
 31
0.0
  0
LINE
  5
300
330
1F
100
AcDbEntity
  8
0
  6
Continuous
 62
     8
370
    15
100
AcDbLine
 10
116.4754571483
 20
132.0501240285
 30
0.0
 11
116.4754571483
 21
131.9872336777
 31
0.0
  0
LINE
  5
301
330
1F
100
AcDbEntity
  8
0
  6
Continuous
 62
     8
370
    15
100
AcDbLine
 10
116.4754571483
 20
98.8693517016
 30
0.0
 11
116.4754571483
 21
98.7501240185
 31
0.0
  0
LINE
  5
302
330
1F
100
AcDbEntity
  8
0
  6
Continuous
 62
     8
370
    15
100
AcDbLine
 10
116.4754571483
 20
68.758967364
 30
0.0
 11
116.4754571483
 21
41.5501231643
 31
0.0
  0
DIMENSION
  5
303
330
1F
100
AcDbEntity
  8
0
  6
Continuous
 62
     7
370
     0
100
AcDbDimension
  2
*D7
 10
118.4875886403
 20
201.5501239243
 30
0.0
 11
110.2231538283
 21
201.5501239243
 31
0.0
 70
   160
 71
     2
 42
-1.0
  3
SLDDIMSTYLE0
100
AcDbAlignedDimension
 13
102.4875886403
 23
191.5501239243
 33
0.0
 14
118.4875886403
 24
191.5501239243
 34
0.0
100
AcDbRotatedDimension
  0
DIMENSION
  5
30D
330
1F
100
AcDbEntity
  8
0
  6
Continuous
 62
     7
370
     0
100
AcDbDimension
  2
*D8
 10
120.4875886403
 20
209.2972225783
 30
0.0
 11
110.2231538283
 21
209.2972225783
 31
0.0
 70
   160
 71
     2
 42
-1.0
  3
SLDDIMSTYLE0
100
AcDbAlignedDimension
 13
100.4875886403
 23
143.2504285108
 33
0.0
 14
120.4875886403
 24
143.2504285108
 34
0.0
100
AcDbRotatedDimension
  0
LINE
  5
317
330
1F
100
AcDbEntity
  8
0
  6
Continuous
 62
     7
370
    15
100
AcDbLine
 10
287.5799182635
 20
61.5501227172
 30
0.0
 11
287.5799182635
 21
71.5501243564
 31
0.0
  0
LINE
  5
318
330
1F
100
AcDbEntity
  8
0
  6
Continuous
 62
     7
370
    15
100
AcDbLine
 10
287.2799187731
 20
61.5501227172
 30
0.0
 11
287.2799187731
 21
71.5501243564
 31
0.0
  0
LINE
  5
319
330
1F
100
AcDbEntity
  8
0
  6
Continuous
 62
     7
370
    15
100
AcDbLine
 10
287.5799182635
 20
71.5501243564
 30
0.0
 11
287.2799187731
 21
71.5501243564
 31
0.0
  0
LINE
  5
31A
330
1F
100
AcDbEntity
  8
0
  6
Continuous
 62
     7
370
    15
100
AcDbLine
 10
287.5799182635
 20
61.5501227172
 30
0.0
 11
287.2799187731
 21
61.5501227172
 31
0.0
  0
LINE
  5
31B
330
1F
100
AcDbEntity
  8
0
  6
Continuous
 62
     7
370
    15
100
AcDbLine
 10
282.080208866
 20
61.5501227172
 30
0.0
 11
282.080208866
 21
71.5501243564
 31
0.0
  0
CIRCLE
  5
31C
330
1F
100
AcDbEntity
  8
0
  6
Continuous
 62
     7
370
    15
100
AcDbCircle
 10
284.6800636833
 20
66.5501239243
 30
0.0
 40
2.100000000000009
  0
LINE
  5
31D
330
1F
100
AcDbEntity
  8
0
  6
Continuous
 62
     7
370
    15
100
AcDbLine
 10
287.2799187731
 20
71.5501243564
 30
0.0
 11
282.080208866
 21
71.5501243564
 31
0.0
  0
LINE
  5
31E
330
1F
100
AcDbEntity
  8
0
  6
Continuous
 62
     7
370
    15
100
AcDbLine
 10
287.2799187731
 20
61.5501227172
 30
0.0
 11
282.080208866
 21
61.5501227172
 31
0.0
  0
LINE
  5
31F
330
1F
100
AcDbEntity
  8
0
  6
Continuous
 62
     7
370
    15
100
AcDbLine
 10
281.7802093756
 20
61.5501227172
 30
0.0
 11
281.7802093756
 21
71.5501243564
 31
0.0
  0
LINE
  5
320
330
1F
100
AcDbEntity
  8
0
  6
Continuous
 62
     7
370
    15
100
AcDbLine
 10
282.080208866
 20
71.5501243564
 30
0.0
 11
281.7802093756
 21
71.5501243564
 31
0.0
  0
LINE
  5
321
330
1F
100
AcDbEntity
  8
0
  6
Continuous
 62
     7
370
    15
100
AcDbLine
 10
282.080208866
 20
61.5501227172
 30
0.0
 11
281.7802093756
 21
61.5501227172
 31
0.0
  0
LINE
  5
322
330
1F
100
AcDbEntity
  8
0
  6
Continuous
 62
     7
370
    15
100
AcDbLine
 10
287.68006338
 20
71.5501243564
 30
0.0
 11
287.5799182635
 21
71.5501243564
 31
0.0
  0
LINE
  5
323
330
1F
100
AcDbEntity
  8
0
  6
Continuous
 62
     7
370
    15
100
AcDbLine
 10
287.68006338
 20
61.5501227172
 30
0.0
 11
287.5799182635
 21
61.5501227172
 31
0.0
  0
LINE
  5
324
330
1F
100
AcDbEntity
  8
0
  6
Continuous
 62
     7
370
    15
100
AcDbLine
 10
281.7802093756
 20
71.5501243564
 30
0.0
 11
281.6800642591
 21
71.5501243564
 31
0.0
  0
LINE
  5
325
330
1F
100
AcDbEntity
  8
0
  6
Continuous
 62
     7
370
    15
100
AcDbLine
 10
281.7802093756
 20
61.5501227172
 30
0.0
 11
281.6800642591
 21
61.5501227172
 31
0.0
  0
LINE
  5
326
330
1F
100
AcDbEntity
  8
0
  6
Continuous
 62
     7
370
    15
100
AcDbLine
 10
287.5799182635
 20
161.550120482
 30
0.0
 11
287.5799182635
 21
171.5501258465
 31
0.0
  0
LINE
  5
327
330
1F
100
AcDbEntity
  8
0
  6
Continuous
 62
     7
370
    15
100
AcDbLine
 10
287.2799187731
 20
161.550120482
 30
0.0
 11
287.2799187731
 21
171.5501258465
 31
0.0
  0
LINE
  5
328
330
1F
100
AcDbEntity
  8
0
  6
Continuous
 62
     7
370
    15
100
AcDbLine
 10
287.5799182635
 20
161.550120482
 30
0.0
 11
287.2799187731
 21
161.550120482
 31
0.0
  0
LINE
  5
329
330
1F
100
AcDbEntity
  8
0
  6
Continuous
 62
     7
370
    15
100
AcDbLine
 10
287.5799182635
 20
171.5501258465
 30
0.0
 11
287.2799187731
 21
171.5501258465
 31
0.0
  0
LINE
  5
32A
330
1F
100
AcDbEntity
  8
0
  6
Continuous
 62
     7
370
    15
100
AcDbLine
 10
282.080208866
 20
161.550120482
 30
0.0
 11
282.080208866
 21
171.5501258465
 31
0.0
  0
CIRCLE
  5
32B
330
1F
100
AcDbEntity
  8
0
  6
Continuous
 62
     7
370
    15
100
AcDbCircle
 10
284.6800636833
 20
166.5501239243
 30
0.0
 40
2.099999999999994
  0
LINE
  5
32C
330
1F
100
AcDbEntity
  8
0
  6
Continuous
 62
     7
370
    15
100
AcDbLine
 10
287.2799187731
 20
161.550120482
 30
0.0
 11
282.080208866
 21
161.550120482
 31
0.0
  0
LINE
  5
32D
330
1F
100
AcDbEntity
  8
0
  6
Continuous
 62
     7
370
    15
100
AcDbLine
 10
287.2799187731
 20
171.5501258465
 30
0.0
 11
282.080208866
 21
171.5501258465
 31
0.0
  0
LINE
  5
32E
330
1F
100
AcDbEntity
  8
0
  6
Continuous
 62
     7
370
    15
100
AcDbLine
 10
281.7802093756
 20
161.550120482
 30
0.0
 11
281.7802093756
 21
171.5501258465
 31
0.0
  0
LINE
  5
32F
330
1F
100
AcDbEntity
  8
0
  6
Continuous
 62
     7
370
    15
100
AcDbLine
 10
282.080208866
 20
161.550120482
 30
0.0
 11
281.7802093756
 21
161.550120482
 31
0.0
  0
LINE
  5
330
330
1F
100
AcDbEntity
  8
0
  6
Continuous
 62
     7
370
    15
100
AcDbLine
 10
282.080208866
 20
171.5501258465
 30
0.0
 11
281.7802093756
 21
171.5501258465
 31
0.0
  0
LINE
  5
331
330
1F
100
AcDbEntity
  8
0
  6
Continuous
 62
     7
370
    15
100
AcDbLine
 10
287.68006338
 20
161.550120482
 30
0.0
 11
287.5799182635
 21
161.550120482
 31
0.0
  0
LINE
  5
332
330
1F
100
AcDbEntity
  8
0
  6
Continuous
 62
     7
370
    15
100
AcDbLine
 10
287.68006338
 20
171.5501258465
 30
0.0
 11
287.5799182635
 21
171.5501258465
 31
0.0
  0
LINE
  5
333
330
1F
100
AcDbEntity
  8
0
  6
Continuous
 62
     7
370
    15
100
AcDbLine
 10
281.7802093756
 20
161.550120482
 30
0.0
 11
281.6800642591
 21
161.550120482
 31
0.0
  0
LINE
  5
334
330
1F
100
AcDbEntity
  8
0
  6
Continuous
 62
     7
370
    15
100
AcDbLine
 10
281.7802093756
 20
171.5501258465
 30
0.0
 11
281.6800642591
 21
171.5501258465
 31
0.0
  0
LINE
  5
335
330
1F
100
AcDbEntity
  8
0
  6
Continuous
 62
     7
370
    15
100
AcDbLine
 10
281.6800642591
 20
71.7501240166
 30
0.0
 11
287.68006338
 21
71.7501240166
 31
0.0
  0
LINE
  5
336
330
1F
100
AcDbEntity
  8
0
  6
Continuous
 62
     7
370
    15
100
AcDbLine
 10
281.6800642591
 20
72.8501240106
 30
0.0
 11
287.68006338
 21
72.8501240106
 31
0.0
  0
LINE
  5
337
330
1F
100
AcDbEntity
  8
0
  6
Continuous
 62
     7
370
    15
100
AcDbLine
 10
281.6800642591
 20
61.350123057
 30
0.0
 11
287.68006338
 21
61.350123057
 31
0.0
  0
LINE
  5
338
330
1F
100
AcDbEntity
  8
0
  6
Continuous
 62
     7
370
    15
100
AcDbLine
 10
281.6800642591
 20
60.2501230629
 30
0.0
 11
287.68006338
 21
60.2501230629
 31
0.0
  0
SPLINE
  5
339
330
1F
100
AcDbEntity
  8
0
  6
Continuous
 62
     7
370
    15
100
AcDbSpline
210
0.0
220
0.0
230
1.0
 70
     8
 71
     3
 72
     9
 73
     5
 74
     0
 42
0.00000001
 43
0.00000001
 40
0.0
 40
0.0
 40
0.0
 40
0.0
 40
0.6311115944913283
 40
1.0
 40
1.0
 40
1.0
 40
1.0
 10
285.0800640713879
 20
61.35012305696967
 30
0.0
 10
285.0771888501716
 20
61.39546073080739
 30
0.0
 10
285.0726330453959
 20
61.4672985392607
 30
0.0
 10
285.0339150366697
 20
61.52780323608566
 30
0.0
 10
285.0196324121663
 20
61.5501227172232
 30
0.0
  0
SPLINE
  5
33A
330
1F
100
AcDbEntity
  8
0
  6
Continuous
 62
     7
370
    15
100
AcDbSpline
210
0.0
220
0.0
230
1.0
 70
     8
 71
     3
 72
     9
 73
     5
 74
     0
 42
0.00000001
 43
0.00000001
 40
0.0
 40
0.0
 40
0.0
 40
0.0
 40
0.5354548727303652
 40
1.0
 40
1.0
 40
1.0
 40
1.0
 10
284.3370102178761
 20
61.5501227172232
 30
0.0
 10
284.3191744470627
 20
61.51639488246465
 30
0.0
 10
284.2858648784665
 20
61.45340575588043
 30
0.0
 10
284.2819037094798
 20
61.3828837234844
 30
0.0
 10
284.2800635677287
 20
61.35012305696967
 30
0.0
  0
SPLINE
  5
33B
330
1F
100
AcDbEntity
  8
0
  6
Continuous
 62
     7
370
    15
100
AcDbSpline
210
0.0
220
0.0
230
1.0
 70
     8
 71
     3
 72
    10
 73
     6
 74
     0
 42
0.00000001
 43
0.00000001
 40
0.0
 40
0.0
 40
0.0
 40
0.0
 40
0.1794853128268926
 40
0.8332532491409163
 40
1.0
 40
1.0
 40
1.0
 40
1.0
 10
284.2800635677287
 20
71.75012401660445
 30
0.0
 10
284.2805121007536
 20
71.73756555072897
 30
0.0
 10
284.2825943970402
 20
71.67926338477369
 30
0.0
 10
284.2965880514395
 20
71.60625041658852
 30
0.0
 10
284.3317929533223
 20
71.55960395093713
 30
0.0
 10
284.3389473688313
 20
71.55012435635092
 30
0.0
  0
SPLINE
  5
33C
330
1F
100
AcDbEntity
  8
0
  6
Continuous
 62
     7
370
    15
100
AcDbSpline
210
0.0
220
0.0
230
1.0
 70
     8
 71
     3
 72
    10
 73
     6
 74
     0
 42
0.00000001
 43
0.00000001
 40
0.0
 40
0.0
 40
0.0
 40
0.0
 40
0.3402068750760034
 40
0.9786594120047958
 40
0.9999999999999999
 40
0.9999999999999999
 40
0.9999999999999999
 40
0.9999999999999999
 10
285.0201166999051
 20
71.55012435635092
 30
0.0
 10
285.0331704602367
 20
71.57057456294169
 30
0.0
 10
285.0707216867008
 20
71.62940284838717
 30
0.0
 10
285.0798513872657
 20
71.70226557204737
 30
0.0
 10
285.0800574077855
 20
71.74862456454679
 30
0.0
 10
285.0800640713879
 20
71.75012401660445
 30
0.0
  0
LINE
  5
33D
330
1F
100
AcDbEntity
  8
0
  6
Continuous
 62
     7
370
    15
100
AcDbLine
 10
281.6800642591
 20
171.7501217814
 30
0.0
 11
287.68006338
 21
171.7501217814
 31
0.0
  0
LINE
  5
33E
330
1F
100
AcDbEntity
  8
0
  6
Continuous
 62
     7
370
    15
100
AcDbLine
 10
281.6800642591
 20
172.8501255008
 30
0.0
 11
287.68006338
 21
172.8501255008
 31
0.0
  0
LINE
  5
33F
330
1F
100
AcDbEntity
  8
0
  6
Continuous
 62
     7
370
    15
100
AcDbLine
 10
281.6800642591
 20
160.2501208278
 30
0.0
 11
287.68006338
 21
160.2501208278
 31
0.0
  0
LINE
  5
340
330
1F
100
AcDbEntity
  8
0
  6
Continuous
 62
     7
370
    15
100
AcDbLine
 10
281.6800642591
 20
161.3501245471
 30
0.0
 11
287.68006338
 21
161.3501245471
 31
0.0
  0
SPLINE
  5
341
330
1F
100
AcDbEntity
  8
0
  6
Continuous
 62
     7
370
    15
100
AcDbSpline
210
0.0
220
0.0
230
1.0
 70
     8
 71
     3
 72
     9
 73
     5
 74
     0
 42
0.00000001
 43
0.00000001
 40
0.0
 40
0.0
 40
0.0
 40
0.0
 40
0.6311054880437255
 40
1.0
 40
1.0
 40
1.0
 40
1.0
 10
285.0800640713879
 20
161.3501245470858
 30
0.0
 10
285.0771886259864
 20
161.3954608960827
 30
0.0
 10
285.0726324219033
 20
161.4672973003855
 30
0.0
 10
285.0339150413644
 20
161.5278009994946
 30
0.0
 10
285.0196324121663
 20
161.550120482049
 30
0.0
  0
SPLINE
  5
342
330
1F
100
AcDbEntity
  8
0
  6
Continuous
 62
     7
370
    15
100
AcDbSpline
210
0.0
220
0.0
230
1.0
 70
     8
 71
     3
 72
     9
 73
     5
 74
     0
 42
0.00000001
 43
0.00000001
 40
0.0
 40
0.0
 40
0.0
 40
0.0
 40
0.5354476413411108
 40
1.0
 40
1.0
 40
1.0
 40
1.0
 10
284.3370102178761
 20
161.550120482049
 30
0.0
 10
284.3191744494951
 20
161.5163939227425
 30
0.0
 10
284.2858644355853
 20
161.4534063274998
 30
0.0
 10
284.2819035885577
 20
161.3828852704659
 30
0.0
 10
284.2800635677287
 20
161.3501245470858
 30
0.0
  0
SPLINE
  5
343
330
1F
100
AcDbEntity
  8
0
  6
Continuous
 62
     7
370
    15
100
AcDbSpline
210
0.0
220
0.0
230
1.0
 70
     8
 71
     3
 72
    10
 73
     6
 74
     0
 42
0.00000001
 43
0.00000001
 40
0.0
 40
0.0
 40
0.0
 40
0.0
 40
0.1794711213623102
 40
0.8332646977540619
 40
1.0
 40
1.0
 40
1.0
 40
1.0
 10
284.2800635677287
 20
171.7501217814303
 30
0.0
 10
284.2805121845023
 20
171.7375645914465
 30
0.0
 10
284.2825950628922
 20
171.6792629380271
 30
0.0
 10
284.2965848577246
 20
171.6062483744075
 30
0.0
 10
284.331792925036
 20
171.5596041673058
 30
0.0
 10
284.3389473688313
 20
171.5501258464671
 30
0.0
  0
SPLINE
  5
344
330
1F
100
AcDbEntity
  8
0
  6
Continuous
 62
     7
370
    15
100
AcDbSpline
210
0.0
220
0.0
230
1.0
 70
     8
 71
     3
 72
    10
 73
     6
 74
     0
 42
0.00000001
 43
0.00000001
 40
0.0
 40
0.0
 40
0.0
 40
0.0
 40
0.3401895130870405
 40
0.9786591177830813
 40
1.0
 40
1.0
 40
1.0
 40
1.0
 10
285.0201166999051
 20
171.5501258464671
 30
0.0
 10
285.033170509052
 20
171.5705741339013
 30
0.0
 10
285.0707237811314
 20
171.6293998829933
 30
0.0
 10
285.0798513691159
 20
171.7022627645143
 30
0.0
 10
285.0800574072978
 20
171.7486223296354
 30
0.0
 10
285.0800640713879
 20
171.7501217814303
 30
0.0
  0
LINE
  5
345
330
1F
100
AcDbEntity
  8
0
  6
Continuous
 62
     7
370
    15
100
AcDbLine
 10
287.5799182635
 20
111.5501234623
 30
0.0
 11
287.5799182635
 21
121.5501232388
 31
0.0
  0
LINE
  5
346
330
1F
100
AcDbEntity
  8
0
  6
Continuous
 62
     7
370
    15
100
AcDbLine
 10
287.2799187731
 20
111.5501234623
 30
0.0
 11
287.2799187731
 21
121.5501232388
 31
0.0
  0
LINE
  5
347
330
1F
100
AcDbEntity
  8
0
  6
Continuous
 62
     7
370
    15
100
AcDbLine
 10
287.5799182635
 20
121.5501232388
 30
0.0
 11
287.2799187731
 21
121.5501232388
 31
0.0
  0
LINE
  5
348
330
1F
100
AcDbEntity
  8
0
  6
Continuous
 62
     7
370
    15
100
AcDbLine
 10
287.5799182635
 20
111.5501234623
 30
0.0
 11
287.2799187731
 21
111.5501234623
 31
0.0
  0
LINE
  5
349
330
1F
100
AcDbEntity
  8
0
  6
Continuous
 62
     7
370
    15
100
AcDbLine
 10
282.080208866
 20
111.5501234623
 30
0.0
 11
282.080208866
 21
121.5501232388
 31
0.0
  0
CIRCLE
  5
34A
330
1F
100
AcDbEntity
  8
0
  6
Continuous
 62
     7
370
    15
100
AcDbCircle
 10
284.6800636833
 20
116.5501239243
 30
0.0
 40
1.649999999999991
  0
LINE
  5
34B
330
1F
100
AcDbEntity
  8
0
  6
Continuous
 62
     7
370
    15
100
AcDbLine
 10
287.2799187731
 20
121.5501232388
 30
0.0
 11
282.080208866
 21
121.5501232388
 31
0.0
  0
LINE
  5
34C
330
1F
100
AcDbEntity
  8
0
  6
Continuous
 62
     7
370
    15
100
AcDbLine
 10
287.2799187731
 20
111.5501234623
 30
0.0
 11
282.080208866
 21
111.5501234623
 31
0.0
  0
LINE
  5
34D
330
1F
100
AcDbEntity
  8
0
  6
Continuous
 62
     7
370
    15
100
AcDbLine
 10
281.7802093756
 20
111.5501234623
 30
0.0
 11
281.7802093756
 21
121.5501232388
 31
0.0
  0
LINE
  5
34E
330
1F
100
AcDbEntity
  8
0
  6
Continuous
 62
     7
370
    15
100
AcDbLine
 10
282.080208866
 20
121.5501232388
 30
0.0
 11
281.7802093756
 21
121.5501232388
 31
0.0
  0
LINE
  5
34F
330
1F
100
AcDbEntity
  8
0
  6
Continuous
 62
     7
370
    15
100
AcDbLine
 10
282.080208866
 20
111.5501234623
 30
0.0
 11
281.7802093756
 21
111.5501234623
 31
0.0
  0
LINE
  5
350
330
1F
100
AcDbEntity
  8
0
  6
Continuous
 62
     7
370
    15
100
AcDbLine
 10
287.68006338
 20
121.5501232388
 30
0.0
 11
287.5799182635
 21
121.5501232388
 31
0.0
  0
LINE
  5
351
330
1F
100
AcDbEntity
  8
0
  6
Continuous
 62
     7
370
    15
100
AcDbLine
 10
287.68006338
 20
111.5501234623
 30
0.0
 11
287.5799182635
 21
111.5501234623
 31
0.0
  0
LINE
  5
352
330
1F
100
AcDbEntity
  8
0
  6
Continuous
 62
     7
370
    15
100
AcDbLine
 10
281.7802093756
 20
121.5501232388
 30
0.0
 11
281.6800642591
 21
121.5501232388
 31
0.0
  0
LINE
  5
353
330
1F
100
AcDbEntity
  8
0
  6
Continuous
 62
     7
370
    15
100
AcDbLine
 10
281.7802093756
 20
111.5501234623
 30
0.0
 11
281.6800642591
 21
111.5501234623
 31
0.0
  0
LINE
  5
354
330
1F
100
AcDbEntity
  8
0
  6
Continuous
 62
     7
370
    15
100
AcDbLine
 10
291.680062173
 20
191.5501216741
 30
0.0
 11
291.680062173
 21
41.5501231643
 31
0.0
  0
LINE
  5
355
330
1F
100
AcDbEntity
  8
0
  6
Continuous
 62
     7
370
    15
100
AcDbLine
 10
292.6800641995
 20
191.5501216741
 30
0.0
 11
292.6800641995
 21
41.5501231643
 31
0.0
  0
LINE
  5
356
330
1F
100
AcDbEntity
  8
0
  6
Continuous
 62
     7
370
    15
100
AcDbLine
 10
291.680062173
 20
41.5501231643
 30
0.0
 11
292.6800641995
 21
41.5501231643
 31
0.0
  0
LINE
  5
357
330
1F
100
AcDbEntity
  8
0
  6
Continuous
 62
     7
370
    15
100
AcDbLine
 10
291.680062173
 20
191.5501216741
 30
0.0
 11
292.6800641995
 21
191.5501216741
 31
0.0
  0
LINE
  5
358
330
1F
100
AcDbEntity
  8
0
  6
Continuous
 62
     7
370
    15
100
AcDbLine
 10
287.9800628704
 20
191.5501216741
 30
0.0
 11
287.9800628704
 21
41.5501231643
 31
0.0
  0
LINE
  5
359
330
1F
100
AcDbEntity
  8
0
  6
Continuous
 62
     7
370
    15
100
AcDbLine
 10
287.9800628704
 20
41.5501231643
 30
0.0
 11
291.680062173
 21
41.5501231643
 31
0.0
  0
LINE
  5
35A
330
1F
100
AcDbEntity
  8
0
  6
Continuous
 62
     7
370
    15
100
AcDbLine
 10
287.9800628704
 20
191.5501216741
 30
0.0
 11
291.680062173
 21
191.5501216741
 31
0.0
  0
LINE
  5
35B
330
1F
100
AcDbEntity
  8
0
  6
Continuous
 62
     7
370
    15
100
AcDbLine
 10
287.68006338
 20
191.5501216741
 30
0.0
 11
287.68006338
 21
41.5501231643
 31
0.0
  0
LINE
  5
35C
330
1F
100
AcDbEntity
  8
0
  6
Continuous
 62
     7
370
    15
100
AcDbLine
 10
287.68006338
 20
41.5501231643
 30
0.0
 11
287.9800628704
 21
41.5501231643
 31
0.0
  0
LINE
  5
35D
330
1F
100
AcDbEntity
  8
0
  6
Continuous
 62
     7
370
    15
100
AcDbLine
 10
287.68006338
 20
191.5501216741
 30
0.0
 11
287.9800628704
 21
191.5501216741
 31
0.0
  0
LINE
  5
35E
330
1F
100
AcDbEntity
  8
0
  6
Continuous
 62
     7
370
    15
100
AcDbLine
 10
281.3800629061
 20
191.5501216741
 30
0.0
 11
281.3800629061
 21
41.5501231643
 31
0.0
  0
LINE
  5
35F
330
1F
100
AcDbEntity
  8
0
  6
Continuous
 62
     7
370
    15
100
AcDbLine
 10
281.6800642591
 20
191.5501216741
 30
0.0
 11
281.6800642591
 21
41.5501231643
 31
0.0
  0
LINE
  5
360
330
1F
100
AcDbEntity
  8
0
  6
Continuous
 62
     7
370
    15
100
AcDbLine
 10
281.3800629061
 20
41.5501231643
 30
0.0
 11
281.6800642591
 21
41.5501231643
 31
0.0
  0
LINE
  5
361
330
1F
100
AcDbEntity
  8
0
  6
Continuous
 62
     7
370
    15
100
AcDbLine
 10
281.3800629061
 20
191.5501216741
 30
0.0
 11
281.6800642591
 21
191.5501216741
 31
0.0
  0
LINE
  5
362
330
1F
100
AcDbEntity
  8
0
  6
Continuous
 62
     7
370
    15
100
AcDbLine
 10
277.6800636035
 20
191.5501216741
 30
0.0
 11
277.6800636035
 21
41.5501231643
 31
0.0
  0
LINE
  5
363
330
1F
100
AcDbEntity
  8
0
  6
Continuous
 62
     7
370
    15
100
AcDbLine
 10
277.6800636035
 20
41.5501231643
 30
0.0
 11
281.3800629061
 21
41.5501231643
 31
0.0
  0
LINE
  5
364
330
1F
100
AcDbEntity
  8
0
  6
Continuous
 62
     7
370
    15
100
AcDbLine
 10
277.6800636035
 20
191.5501216741
 30
0.0
 11
281.3800629061
 21
191.5501216741
 31
0.0
  0
LINE
  5
365
330
1F
100
AcDbEntity
  8
0
  6
Continuous
 62
     7
370
    15
100
AcDbLine
 10
276.6800634396
 20
191.5501216741
 30
0.0
 11
276.6800634396
 21
41.5501231643
 31
0.0
  0
LINE
  5
366
330
1F
100
AcDbEntity
  8
0
  6
Continuous
 62
     7
370
    15
100
AcDbLine
 10
276.6800634396
 20
41.5501231643
 30
0.0
 11
277.6800636035
 21
41.5501231643
 31
0.0
  0
LINE
  5
367
330
1F
100
AcDbEntity
  8
0
  6
Continuous
 62
     7
370
    15
100
AcDbLine
 10
276.6800634396
 20
191.5501216741
 30
0.0
 11
277.6800636035
 21
191.5501216741
 31
0.0
  0
LINE
  5
368
330
1F
100
AcDbEntity
  8
0
  6
Continuous
 62
     7
370
    15
100
AcDbLine
 10
287.4947991055
 20
41.5501231643
 30
0.0
 11
287.68006338
 21
41.5501231643
 31
0.0
  0
LINE
  5
369
330
1F
100
AcDbEntity
  8
0
  6
Continuous
 62
     7
370
    15
100
AcDbLine
 10
287.4947991055
 20
191.5501216741
 30
0.0
 11
287.68006338
 21
191.5501216741
 31
0.0
  0
LINE
  5
36A
330
1F
100
AcDbEntity
  8
0
  6
Continuous
 62
     7
370
    15
100
AcDbLine
 10
281.6800642591
 20
41.5501231643
 30
0.0
 11
281.8653285336
 21
41.5501231643
 31
0.0
  0
LINE
  5
36B
330
1F
100
AcDbEntity
  8
0
  6
Continuous
 62
     7
370
    15
100
AcDbLine
 10
281.6800642591
 20
191.5501216741
 30
0.0
 11
281.8653285336
 21
191.5501216741
 31
0.0
  0
LINE
  5
36C
330
1F
100
AcDbEntity
  8
0
  6
Continuous
 62
     7
370
    15
100
AcDbLine
 10
285.1043268871
 20
41.5501231643
 30
0.0
 11
287.4947991055
 21
41.5501231643
 31
0.0
  0
LINE
  5
36D
330
1F
100
AcDbEntity
  8
0
  6
Continuous
 62
     7
370
    15
100
AcDbLine
 10
285.1043268871
 20
191.5501216741
 30
0.0
 11
287.4947991055
 21
191.5501216741
 31
0.0
  0
LINE
  5
36E
330
1F
100
AcDbEntity
  8
0
  6
Continuous
 62
     7
370
    15
100
AcDbLine
 10
284.892195819
 20
191.5501216741
 30
0.0
 11
285.1043268871
 21
191.5501216741
 31
0.0
  0
LINE
  5
36F
330
1F
100
AcDbEntity
  8
0
  6
Continuous
 62
     7
370
    15
100
AcDbLine
 10
284.2557988894
 20
191.5501216741
 30
0.0
 11
284.4679318201
 21
191.5501216741
 31
0.0
  0
LINE
  5
370
330
1F
100
AcDbEntity
  8
0
  6
Continuous
 62
     7
370
    15
100
AcDbLine
 10
281.8653285336
 20
41.5501231643
 30
0.0
 11
284.2557988894
 21
41.5501231643
 31
0.0
  0
LINE
  5
371
330
1F
100
AcDbEntity
  8
0
  6
Continuous
 62
     7
370
    15
100
AcDbLine
 10
281.8653285336
 20
191.5501216741
 30
0.0
 11
284.2557988894
 21
191.5501216741
 31
0.0
  0
LINE
  5
372
330
1F
100
AcDbEntity
  8
0
  6
Continuous
 62
     7
370
    15
100
AcDbLine
 10
284.892195819
 20
41.5501231643
 30
0.0
 11
285.1043268871
 21
41.5501231643
 31
0.0
  0
LINE
  5
373
330
1F
100
AcDbEntity
  8
0
  6
Continuous
 62
     7
370
    15
100
AcDbLine
 10
284.2557988894
 20
41.5501231643
 30
0.0
 11
284.4679318201
 21
41.5501231643
 31
0.0
  0
LINE
  5
374
330
1F
100
AcDbEntity
  8
0
  6
Continuous
 62
     7
370
    15
100
AcDbLine
 10
284.6800628882
 20
191.5501216741
 30
0.0
 11
284.6800628882
 21
172.8501255008
 31
0.0
  0
LINE
  5
375
330
1F
100
AcDbEntity
  8
0
  6
Continuous
 62
     7
370
    15
100
AcDbLine
 10
284.6800628882
 20
168.6501214596
 30
0.0
 11
284.6800628882
 21
164.450124869
 31
0.0
  0
LINE
  5
376
330
1F
100
AcDbEntity
  8
0
  6
Continuous
 62
     7
370
    15
100
AcDbLine
 10
284.6800628882
 20
160.2501208278
 30
0.0
 11
284.6800628882
 21
121.5501232388
 31
0.0
  0
LINE
  5
377
330
1F
100
AcDbEntity
  8
0
  6
Continuous
 62
     7
370
    15
100
AcDbLine
 10
284.6800628882
 20
191.5501216741
 30
0.0
 11
284.892195819
 21
191.5501216741
 31
0.0
  0
LINE
  5
378
330
1F
100
AcDbEntity
  8
0
  6
Continuous
 62
     7
370
    15
100
AcDbLine
 10
284.4679318201
 20
191.5501216741
 30
0.0
 11
284.6800628882
 21
191.5501216741
 31
0.0
  0
LINE
  5
379
330
1F
100
AcDbEntity
  8
0
  6
Continuous
 62
     7
370
    15
100
AcDbLine
 10
284.6800628882
 20
111.5501234623
 30
0.0
 11
284.6800628882
 21
72.8501240106
 31
0.0
  0
LINE
  5
37A
330
1F
100
AcDbEntity
  8
0
  6
Continuous
 62
     7
370
    15
100
AcDbLine
 10
284.6800628882
 20
68.6501236947
 30
0.0
 11
284.6800628882
 21
64.4501233788
 31
0.0
  0
LINE
  5
37B
330
1F
100
AcDbEntity
  8
0
  6
Continuous
 62
     7
370
    15
100
AcDbLine
 10
284.6800628882
 20
60.2501230629
 30
0.0
 11
284.6800628882
 21
41.5501231643
 31
0.0
  0
LINE
  5
37C
330
1F
100
AcDbEntity
  8
0
  6
Continuous
 62
     7
370
    15
100
AcDbLine
 10
284.6800628882
 20
41.5501231643
 30
0.0
 11
284.892195819
 21
41.5501231643
 31
0.0
  0
LINE
  5
37D
330
1F
100
AcDbEntity
  8
0
  6
Continuous
 62
     7
370
    15
100
AcDbLine
 10
284.4679318201
 20
41.5501231643
 30
0.0
 11
284.6800628882
 21
41.5501231643
 31
0.0
  0
LINE
  5
37E
330
1F
100
AcDbEntity
  8
0
  6
Continuous
 62
     7
370
    15
100
AcDbLine
 10
293.9010020178
 20
143.4707576724
 30
0.0
 11
294.1803689879
 21
143.7501246425
 31
0.0
  0
LINE
  5
37F
330
1F
100
AcDbEntity
  8
0
  6
Continuous
 62
     7
370
    15
100
AcDbLine
 10
293.7866169792
 20
143.4707576724
 30
0.0
 11
293.9010020178
 21
143.4707576724
 31
0.0
  0
LINE
  5
380
330
1F
100
AcDbEntity
  8
0
  6
Continuous
 62
     7
370
    15
100
AcDbLine
 10
293.1992504579
 20
143.4463123175
 30
0.0
 11
293.7866169792
 21
143.4707576724
 31
0.0
  0
LINE
  5
381
330
1F
100
AcDbEntity
  8
0
  6
Continuous
 62
     7
370
    15
100
AcDbLine
 10
292.9422836584
 20
143.4463123175
 30
0.0
 11
293.1992504579
 21
143.4463123175
 31
0.0
  0
LINE
  5
382
330
1F
100
AcDbEntity
  8
0
  6
Continuous
 62
     7
370
    15
100
AcDbLine
 10
292.9300647062
 20
143.4707576724
 30
0.0
 11
292.9422836584
 21
143.4463123175
 31
0.0
  0
LINE
  5
383
330
1F
100
AcDbEntity
  8
0
  6
Continuous
 62
     7
370
    15
100
AcDbLine
 10
276.4300629329
 20
143.4707576724
 30
0.0
 11
276.6800634396
 21
143.4707576724
 31
0.0
  0
LINE
  5
384
330
1F
100
AcDbEntity
  8
0
  6
Continuous
 62
     7
370
    15
100
AcDbLine
 10
292.6800641995
 20
143.4707576724
 30
0.0
 11
292.9300647062
 21
143.4707576724
 31
0.0
  0
LINE
  5
385
330
1F
100
AcDbEntity
  8
0
  6
Continuous
 62
     7
370
    15
100
AcDbLine
 10
276.4178458434
 20
143.4463123175
 30
0.0
 11
276.4300629329
 21
143.4707576724
 31
0.0
  0
LINE
  5
386
330
1F
100
AcDbEntity
  8
0
  6
Continuous
 62
     7
370
    15
100
AcDbLine
 10
276.1608790439
 20
143.4463123175
 30
0.0
 11
276.4178458434
 21
143.4463123175
 31
0.0
  0
LINE
  5
387
330
1F
100
AcDbEntity
  8
0
  6
Continuous
 62
     7
370
    15
100
AcDbLine
 10
275.5735087973
 20
143.4707576724
 30
0.0
 11
276.1608790439
 21
143.4463123175
 31
0.0
  0
LINE
  5
388
330
1F
100
AcDbEntity
  8
0
  6
Continuous
 62
     7
370
    15
100
AcDbLine
 10
275.4591256213
 20
143.4707576724
 30
0.0
 11
275.5735087973
 21
143.4707576724
 31
0.0
  0
LINE
  5
389
330
1F
100
AcDbEntity
  8
0
  6
Continuous
 62
     7
370
    15
100
AcDbLine
 10
275.1797586512
 20
143.7501246425
 30
0.0
 11
275.4591256213
 21
143.4707576724
 31
0.0
  0
LINE
  5
38A
330
1F
100
AcDbEntity
  8
0
  6
Continuous
 62
     7
370
    15
100
AcDbLine
 10
275.1797586512
 20
143.7501246425
 30
0.0
 11
276.6800634396
 21
143.7501246425
 31
0.0
  0
LINE
  5
38B
330
1F
100
AcDbEntity
  8
0
  6
Continuous
 62
     7
370
    15
100
AcDbLine
 10
292.6800641995
 20
143.7501246425
 30
0.0
 11
294.1803689879
 21
143.7501246425
 31
0.0
  0
LINE
  5
38C
330
1F
100
AcDbEntity
  8
0
  6
Continuous
 62
     7
370
    15
100
AcDbLine
 10
293.7866169792
 20
89.3501239212
 30
0.0
 11
293.7866169792
 21
143.4707576724
 31
0.0
  0
LINE
  5
38D
330
1F
100
AcDbEntity
  8
0
  6
Continuous
 62
     7
370
    15
100
AcDbLine
 10
293.1992504579
 20
89.3501239212
 30
0.0
 11
293.1992504579
 21
143.4463123175
 31
0.0
  0
LINE
  5
38E
330
1F
100
AcDbEntity
  8
0
  6
Continuous
 62
     7
370
    15
100
AcDbLine
 10
293.1992504579
 20
89.3501239212
 30
0.0
 11
293.7866169792
 21
89.3501239212
 31
0.0
  0
LINE
  5
38F
330
1F
100
AcDbEntity
  8
0
  6
Continuous
 62
     7
370
    15
100
AcDbLine
 10
292.9422836584
 20
89.3501239212
 30
0.0
 11
292.9422836584
 21
143.4463123175
 31
0.0
  0
LINE
  5
390
330
1F
100
AcDbEntity
  8
0
  6
Continuous
 62
     7
370
    15
100
AcDbLine
 10
292.9422836584
 20
89.3501239212
 30
0.0
 11
293.1992504579
 21
89.3501239212
 31
0.0
  0
LINE
  5
391
330
1F
100
AcDbEntity
  8
0
  6
Continuous
 62
     7
370
    15
100
AcDbLine
 10
292.9300647062
 20
89.3501239212
 30
0.0
 11
292.9300647062
 21
143.4707576724
 31
0.0
  0
LINE
  5
392
330
1F
100
AcDbEntity
  8
0
  6
Continuous
 62
     7
370
    15
100
AcDbLine
 10
292.9300647062
 20
89.3501239212
 30
0.0
 11
292.9422836584
 21
89.3501239212
 31
0.0
  0
LINE
  5
393
330
1F
100
AcDbEntity
  8
0
  6
Continuous
 62
     7
370
    15
100
AcDbLine
 10
276.4300629329
 20
89.3501239212
 30
0.0
 11
276.4300629329
 21
143.4707576724
 31
0.0
  0
LINE
  5
394
330
1F
100
AcDbEntity
  8
0
  6
Continuous
 62
     7
370
    15
100
AcDbLine
 10
276.4178458434
 20
89.3501239212
 30
0.0
 11
276.4300629329
 21
89.3501239212
 31
0.0
  0
LINE
  5
395
330
1F
100
AcDbEntity
  8
0
  6
Continuous
 62
     7
370
    15
100
AcDbLine
 10
276.4178458434
 20
89.3501239212
 30
0.0
 11
276.4178458434
 21
143.4463123175
 31
0.0
  0
LINE
  5
396
330
1F
100
AcDbEntity
  8
0
  6
Continuous
 62
     7
370
    15
100
AcDbLine
 10
276.1608790439
 20
89.3501239212
 30
0.0
 11
276.1608790439
 21
143.4463123175
 31
0.0
  0
LINE
  5
397
330
1F
100
AcDbEntity
  8
0
  6
Continuous
 62
     7
370
    15
100
AcDbLine
 10
276.1608790439
 20
89.3501239212
 30
0.0
 11
276.4178458434
 21
89.3501239212
 31
0.0
  0
LINE
  5
398
330
1F
100
AcDbEntity
  8
0
  6
Continuous
 62
     7
370
    15
100
AcDbLine
 10
275.5735087973
 20
89.3501239212
 30
0.0
 11
275.5735087973
 21
143.4707576724
 31
0.0
  0
LINE
  5
399
330
1F
100
AcDbEntity
  8
0
  6
Continuous
 62
     7
370
    15
100
AcDbLine
 10
275.5735087973
 20
89.3501239212
 30
0.0
 11
276.1608790439
 21
89.3501239212
 31
0.0
  0
LINE
  5
39A
330
1F
100
AcDbEntity
  8
0
  6
Continuous
 62
     7
370
    15
100
AcDbLine
 10
294.4006975573
 20
74.5291849913
 30
0.0
 11
294.6800645274
 21
74.2498198839
 31
0.0
  0
LINE
  5
39B
330
1F
100
AcDbEntity
  8
0
  6
Continuous
 62
     7
370
    15
100
AcDbLine
 10
294.4006975573
 20
142.9710621329
 30
0.0
 11
294.4006975573
 21
74.5291849913
 31
0.0
  0
LINE
  5
39C
330
1F
100
AcDbEntity
  8
0
  6
Continuous
 62
     7
370
    15
100
AcDbLine
 10
294.6800645274
 20
143.250429103
 30
0.0
 11
294.4006975573
 21
142.9710621329
 31
0.0
  0
LINE
  5
39D
330
1F
100
AcDbEntity
  8
0
  6
Continuous
 62
     7
370
    15
100
AcDbLine
 10
294.6800645274
 20
143.250429103
 30
0.0
 11
294.6800645274
 21
134.0501243564
 31
0.0
  0
LINE
  5
39E
330
1F
100
AcDbEntity
  8
0
  6
Continuous
 62
     7
370
    15
100
AcDbLine
 10
294.5403810423
 20
134.0501243564
 30
0.0
 11
294.6800645274
 21
134.0501243564
 31
0.0
  0
LINE
  5
39F
330
1F
100
AcDbEntity
  8
0
  6
Continuous
 62
     7
370
    15
100
AcDbLine
 10
294.5403810423
 20
98.7501240185
 30
0.0
 11
294.5403810423
 21
134.0501243564
 31
0.0
  0
LINE
  5
3A0
330
1F
100
AcDbEntity
  8
0
  6
Continuous
 62
     7
370
    15
100
AcDbLine
 10
294.6402896028
 20
98.7001841737
 30
0.0
 11
294.5403810423
 21
98.7501240185
 31
0.0
  0
ELLIPSE
  5
3A1
330
1F
100
AcDbEntity
  8
0
  6
Continuous
 62
     7
370
    15
100
AcDbEllipse
 10
294.6401076781
 20
98.4002298819
 30
0.0
 11
0.0
 21
0.2999999999999972
 31
0.0
210
0.0
220
0.0
230
1.0
 40
0.0349207695
 41
5.497787143789451
 42
6.265732014664514
  0
LINE
  5
3A2
330
1F
100
AcDbEntity
  8
0
  6
Continuous
 62
     7
370
    15
100
AcDbLine
 10
294.6769948882
 20
97.7681716055
 30
0.0
 11
294.647516666
 21
98.6123618519
 31
0.0
  0
ELLIPSE
  5
3A3
330
1F
100
AcDbEntity
  8
0
  6
Continuous
 62
     7
370
    15
100
AcDbEllipse
 10
294.6695874525
 20
97.5560395958
 30
0.0
 11
0.0
 21
0.3000000000000114
 31
0.0
210
0.0
220
0.0
230
1.0
 40
0.0349207695
 41
4.712388980384643
 42
5.497787143789466
  0
LINE
  5
3A4
330
1F
100
AcDbEntity
  8
0
  6
Continuous
 62
     7
370
    15
100
AcDbLine
 10
294.6800645274
 20
97.556039606
 30
0.0
 11
294.6800645274
 21
74.2498198839
 31
0.0
  0
LINE
  5
3A5
330
1F
100
AcDbEntity
  8
0
  6
Continuous
 62
     7
370
    15
100
AcDbLine
 10
294.1803689879
 20
73.7501243444
 30
0.0
 11
293.9010020178
 21
74.0294894518
 31
0.0
  0
ELLIPSE
  5
3A6
330
1F
100
AcDbEntity
  8
0
  6
Continuous
 62
     7
370
    15
100
AcDbEllipse
 10
293.9003927552
 20
74.5297948524
 30
0.0
 11
-0.3539842722996127
 21
0.3539842722995984
 31
0.0
210
0.0
220
0.0
230
0.9999999999999998
 40
0.998782766
 41
2.356803477777889
 42
3.926381829401671
  0
ELLIPSE
  5
3A7
330
1F
100
AcDbEntity
  8
0
  6
Continuous
 62
     7
370
    15
100
AcDbEllipse
 10
294.1797589112
 20
74.2504286964
 30
0.0
 11
-0.3539842722996127
 21
0.3539842722995984
 31
0.0
210
0.0
220
0.0
230
0.9999999999999998
 40
0.998782766
 41
2.356803477777849
 42
3.926381829401655
  0
ELLIPSE
  5
3A8
330
1F
100
AcDbEntity
  8
0
  6
Continuous
 62
     7
370
    15
100
AcDbEllipse
 10
293.9003927552
 20
142.9704529962
 30
0.0
 11
-0.3539842722996128
 21
-0.3539842722995843
 31
0.0
210
0.0
220
0.0
230
1.0
 40
0.998782766
 41
2.356803477777969
 42
3.926381829401711
  0
ELLIPSE
  5
3A9
330
1F
100
AcDbEntity
  8
0
  6
Continuous
 62
     7
370
    15
100
AcDbEllipse
 10
294.1797589112
 20
143.2498191521
 30
0.0
 11
-0.3539842722996127
 21
-0.3539842722996127
 31
0.0
210
0.0
220
0.0
230
0.9999999999999998
 40
0.998782766
 41
2.356803477777852
 42
3.926381829401691
  0
ELLIPSE
  5
3AA
330
1F
100
AcDbEntity
  8
0
  6
Continuous
 62
     7
370
    15
100
AcDbEllipse
 10
275.4597346114
 20
142.9704529962
 30
0.0
 11
0.3539842722995559
 21
-0.3539842722995843
 31
0.0
210
0.0
220
0.0
230
1.0
 40
0.998782766
 41
2.356803477777969
 42
3.926381829401711
  0
LINE
  5
3AB
330
1F
100
AcDbEntity
  8
0
  6
Continuous
 62
     7
370
    15
100
AcDbLine
 10
293.9010020178
 20
74.0294894518
 30
0.0
 11
292.6800641995
 21
74.0294894518
 31
0.0
  0
LINE
  5
3AC
330
1F
100
AcDbEntity
  8
0
  6
Continuous
 62
     7
370
    15
100
AcDbLine
 10
276.6800634396
 20
74.0294894518
 30
0.0
 11
275.4591256213
 21
74.0294894518
 31
0.0
  0
ELLIPSE
  5
3AD
330
1F
100
AcDbEntity
  8
0
  6
Continuous
 62
     7
370
    15
100
AcDbEllipse
 10
275.4597346114
 20
74.5297948524
 30
0.0
 11
0.3539842722995559
 21
0.3539842722995985
 31
0.0
210
0.0
220
0.0
230
1.0
 40
0.998782766
 41
2.356803477777899
 42
3.926381829401581
  0
LINE
  5
3AE
330
1F
100
AcDbEntity
  8
0
  6
Continuous
 62
     7
370
    15
100
AcDbLine
 10
274.9594300818
 20
74.5291849913
 30
0.0
 11
274.9594300818
 21
142.9710621329
 31
0.0
  0
LINE
  5
3AF
330
1F
100
AcDbEntity
  8
0
  6
Continuous
 62
     7
370
    15
100
AcDbLine
 10
294.1803689879
 20
73.7501243444
 30
0.0
 11
292.6800641995
 21
73.7501243444
 31
0.0
  0
LINE
  5
3B0
330
1F
100
AcDbEntity
  8
0
  6
Continuous
 62
     7
370
    15
100
AcDbLine
 10
276.6800634396
 20
73.7501243444
 30
0.0
 11
275.1797586512
 21
73.7501243444
 31
0.0
  0
LINE
  5
3B1
330
1F
100
AcDbEntity
  8
0
  6
Continuous
 62
     7
370
    15
100
AcDbLine
 10
275.4591256213
 20
74.0294894518
 30
0.0
 11
275.1797586512
 21
73.7501243444
 31
0.0
  0
LINE
  5
3B2
330
1F
100
AcDbEntity
  8
0
  6
Continuous
 62
     7
370
    15
100
AcDbLine
 10
274.6800631118
 20
74.2498198839
 30
0.0
 11
274.9594300818
 21
74.5291849913
 31
0.0
  0
ELLIPSE
  5
3B3
330
1F
100
AcDbEntity
  8
0
  6
Continuous
 62
     7
370
    15
100
AcDbEllipse
 10
275.1803684555
 20
74.2504286964
 30
0.0
 11
0.3539842722996127
 21
0.3539842722995984
 31
0.0
210
0.0
220
0.0
230
0.9999999999999998
 40
0.998782766
 41
2.356803477777996
 42
3.926381829401588
  0
LINE
  5
3B4
330
1F
100
AcDbEntity
  8
0
  6
Continuous
 62
     7
370
    15
100
AcDbLine
 10
274.9594300818
 20
142.9710621329
 30
0.0
 11
274.6800631118
 21
143.250429103
 31
0.0
  0
ELLIPSE
  5
3B5
330
1F
100
AcDbEntity
  8
0
  6
Continuous
 62
     7
370
    15
100
AcDbEllipse
 10
275.1803684555
 20
143.2498191521
 30
0.0
 11
0.3539842722996127
 21
-0.3539842722996127
 31
0.0
210
0.0
220
0.0
230
0.9999999999999998
 40
0.998782766
 41
2.356803477778023
 42
3.926381829401748
  0
ELLIPSE
  5
3B6
330
1F
100
AcDbEntity
  8
0
  6
Continuous
 62
     7
370
    15
100
AcDbEllipse
 10
274.7200196885
 20
98.4002298819
 30
0.0
 11
0.0
 21
0.2999999999999972
 31
0.0
210
0.0
220
0.0
230
1.0
 40
0.0349207695
 41
0.0174532925210033
 42
0.785398163400721
  0
LINE
  5
3B7
330
1F
100
AcDbEntity
  8
0
  6
Continuous
 62
     7
370
    15
100
AcDbLine
 10
274.7198361736
 20
98.7001841737
 30
0.0
 11
274.8197465968
 21
98.7501240185
 31
0.0
  0
LINE
  5
3B8
330
1F
100
AcDbEntity
  8
0
  6
Continuous
 62
     7
370
    15
100
AcDbLine
 10
274.8197465968
 20
98.7501240185
 30
0.0
 11
274.8197465968
 21
134.0501243564
 31
0.0
  0
LINE
  5
3B9
330
1F
100
AcDbEntity
  8
0
  6
Continuous
 62
     7
370
    15
100
AcDbLine
 10
274.6800631118
 20
134.0501243564
 30
0.0
 11
274.6800631118
 21
143.250429103
 31
0.0
  0
LINE
  5
3BA
330
1F
100
AcDbEntity
  8
0
  6
Continuous
 62
     7
370
    15
100
AcDbLine
 10
274.6800631118
 20
74.2498198839
 30
0.0
 11
274.6800631118
 21
97.556039606
 31
0.0
  0
ELLIPSE
  5
3BB
330
1F
100
AcDbEntity
  8
0
  6
Continuous
 62
     7
370
    15
100
AcDbEllipse
 10
274.6905399142
 20
97.5560395958
 30
0.0
 11
0.0
 21
0.3000000000000114
 31
0.0
210
0.0
220
0.0
230
1.0
 40
0.0349207695
 41
0.7853981633968744
 42
1.570796326794944
  0
LINE
  5
3BC
330
1F
100
AcDbEntity
  8
0
  6
Continuous
 62
     7
370
    15
100
AcDbLine
 10
274.7126109731
 20
98.6123618519
 30
0.0
 11
274.683132751
 21
97.7681716055
 31
0.0
  0
LINE
  5
3BD
330
1F
100
AcDbEntity
  8
0
  6
Continuous
 62
     7
370
    15
100
AcDbLine
 10
274.8197465968
 20
134.0501243564
 30
0.0
 11
274.6800631118
 21
134.0501243564
 31
0.0
  0
LINE
  5
3BE
330
1F
100
AcDbEntity
  8
0
  6
Continuous
 62
     8
370
    15
100
AcDbLine
 10
287.4947991055
 20
191.5501216741
 30
0.0
 11
287.4947991055
 21
172.8501255008
 31
0.0
  0
LINE
  5
3BF
330
1F
100
AcDbEntity
  8
0
  6
Continuous
 62
     8
370
    15
100
AcDbLine
 10
287.4947991055
 20
171.7501217814
 30
0.0
 11
287.4947991055
 21
171.5501258465
 31
0.0
  0
LINE
  5
3C0
330
1F
100
AcDbEntity
  8
0
  6
Continuous
 62
     8
370
    15
100
AcDbLine
 10
287.4947991055
 20
161.550120482
 30
0.0
 11
287.4947991055
 21
161.3501245471
 31
0.0
  0
LINE
  5
3C1
330
1F
100
AcDbEntity
  8
0
  6
Continuous
 62
     8
370
    15
100
AcDbLine
 10
287.4947991055
 20
160.2501208278
 30
0.0
 11
287.4947991055
 21
121.5501232388
 31
0.0
  0
LINE
  5
3C2
330
1F
100
AcDbEntity
  8
0
  6
Continuous
 62
     8
370
    15
100
AcDbLine
 10
287.4947991055
 20
111.5501234623
 30
0.0
 11
287.4947991055
 21
72.8501240106
 31
0.0
  0
LINE
  5
3C3
330
1F
100
AcDbEntity
  8
0
  6
Continuous
 62
     8
370
    15
100
AcDbLine
 10
287.4947991055
 20
71.7501240166
 30
0.0
 11
287.4947991055
 21
71.5501243564
 31
0.0
  0
LINE
  5
3C4
330
1F
100
AcDbEntity
  8
0
  6
Continuous
 62
     8
370
    15
100
AcDbLine
 10
287.4947991055
 20
61.5501227172
 30
0.0
 11
287.4947991055
 21
61.350123057
 31
0.0
  0
LINE
  5
3C5
330
1F
100
AcDbEntity
  8
0
  6
Continuous
 62
     8
370
    15
100
AcDbLine
 10
287.4947991055
 20
60.2501230629
 30
0.0
 11
287.4947991055
 21
41.5501231643
 31
0.0
  0
LINE
  5
3C6
330
1F
100
AcDbEntity
  8
0
  6
Continuous
 62
     8
370
    15
100
AcDbLine
 10
281.8653285336
 20
191.5501216741
 30
0.0
 11
281.8653285336
 21
172.8501255008
 31
0.0
  0
LINE
  5
3C7
330
1F
100
AcDbEntity
  8
0
  6
Continuous
 62
     8
370
    15
100
AcDbLine
 10
281.8653285336
 20
171.7501217814
 30
0.0
 11
281.8653285336
 21
171.5501258465
 31
0.0
  0
LINE
  5
3C8
330
1F
100
AcDbEntity
  8
0
  6
Continuous
 62
     8
370
    15
100
AcDbLine
 10
281.8653285336
 20
161.550120482
 30
0.0
 11
281.8653285336
 21
161.3501245471
 31
0.0
  0
LINE
  5
3C9
330
1F
100
AcDbEntity
  8
0
  6
Continuous
 62
     8
370
    15
100
AcDbLine
 10
281.8653285336
 20
160.2501208278
 30
0.0
 11
281.8653285336
 21
121.5501232388
 31
0.0
  0
LINE
  5
3CA
330
1F
100
AcDbEntity
  8
0
  6
Continuous
 62
     8
370
    15
100
AcDbLine
 10
281.8653285336
 20
111.5501234623
 30
0.0
 11
281.8653285336
 21
72.8501240106
 31
0.0
  0
LINE
  5
3CB
330
1F
100
AcDbEntity
  8
0
  6
Continuous
 62
     8
370
    15
100
AcDbLine
 10
281.8653285336
 20
71.7501240166
 30
0.0
 11
281.8653285336
 21
71.5501243564
 31
0.0
  0
LINE
  5
3CC
330
1F
100
AcDbEntity
  8
0
  6
Continuous
 62
     8
370
    15
100
AcDbLine
 10
281.8653285336
 20
61.5501227172
 30
0.0
 11
281.8653285336
 21
61.350123057
 31
0.0
  0
LINE
  5
3CD
330
1F
100
AcDbEntity
  8
0
  6
Continuous
 62
     8
370
    15
100
AcDbLine
 10
281.8653285336
 20
60.2501230629
 30
0.0
 11
281.8653285336
 21
41.5501231643
 31
0.0
  0
LINE
  5
3CE
330
1F
100
AcDbEntity
  8
0
  6
Continuous
 62
     8
370
    15
100
AcDbLine
 10
285.1043268871
 20
111.5501234623
 30
0.0
 11
285.1043268871
 21
72.8501240106
 31
0.0
  0
LINE
  5
3CF
330
1F
100
AcDbEntity
  8
0
  6
Continuous
 62
     8
370
    15
100
AcDbLine
 10
285.1043268871
 20
71.7501240166
 30
0.0
 11
285.1043268871
 21
71.5501243564
 31
0.0
  0
LINE
  5
3D0
330
1F
100
AcDbEntity
  8
0
  6
Continuous
 62
     8
370
    15
100
AcDbLine
 10
285.1043268871
 20
68.6068209203
 30
0.0
 11
285.1043268871
 21
64.4934261533
 31
0.0
  0
LINE
  5
3D1
330
1F
100
AcDbEntity
  8
0
  6
Continuous
 62
     8
370
    15
100
AcDbLine
 10
285.1043268871
 20
61.5501227172
 30
0.0
 11
285.1043268871
 21
61.350123057
 31
0.0
  0
LINE
  5
3D2
330
1F
100
AcDbEntity
  8
0
  6
Continuous
 62
     8
370
    15
100
AcDbLine
 10
285.1043268871
 20
60.2501230629
 30
0.0
 11
285.1043268871
 21
41.5501231643
 31
0.0
  0
LINE
  5
3D3
330
1F
100
AcDbEntity
  8
0
  6
Continuous
 62
     8
370
    15
100
AcDbLine
 10
285.1043268871
 20
191.5501216741
 30
0.0
 11
285.1043268871
 21
172.8501255008
 31
0.0
  0
LINE
  5
3D4
330
1F
100
AcDbEntity
  8
0
  6
Continuous
 62
     8
370
    15
100
AcDbLine
 10
285.1043268871
 20
171.7501217814
 30
0.0
 11
285.1043268871
 21
171.5501258465
 31
0.0
  0
LINE
  5
3D5
330
1F
100
AcDbEntity
  8
0
  6
Continuous
 62
     8
370
    15
100
AcDbLine
 10
285.1043268871
 20
168.6068186851
 30
0.0
 11
285.1043268871
 21
164.4934276434
 31
0.0
  0
LINE
  5
3D6
330
1F
100
AcDbEntity
  8
0
  6
Continuous
 62
     8
370
    15
100
AcDbLine
 10
285.1043268871
 20
161.550120482
 30
0.0
 11
285.1043268871
 21
161.3501245471
 31
0.0
  0
LINE
  5
3D7
330
1F
100
AcDbEntity
  8
0
  6
Continuous
 62
     8
370
    15
100
AcDbLine
 10
285.1043268871
 20
160.2501208278
 30
0.0
 11
285.1043268871
 21
121.5501232388
 31
0.0
  0
LINE
  5
3D8
330
1F
100
AcDbEntity
  8
0
  6
Continuous
 62
     8
370
    15
100
AcDbLine
 10
284.892195819
 20
191.5501216741
 30
0.0
 11
284.892195819
 21
172.8501255008
 31
0.0
  0
LINE
  5
3D9
330
1F
100
AcDbEntity
  8
0
  6
Continuous
 62
     8
370
    15
100
AcDbLine
 10
284.892195819
 20
168.6393851729
 30
0.0
 11
284.892195819
 21
164.4608686062
 31
0.0
  0
LINE
  5
3DA
330
1F
100
AcDbEntity
  8
0
  6
Continuous
 62
     8
370
    15
100
AcDbLine
 10
284.892195819
 20
160.2501208278
 30
0.0
 11
284.892195819
 21
121.5501232388
 31
0.0
  0
LINE
  5
3DB
330
1F
100
AcDbEntity
  8
0
  6
Continuous
 62
     8
370
    15
100
AcDbLine
 10
284.4679318201
 20
191.5501216741
 30
0.0
 11
284.4679318201
 21
172.8501255008
 31
0.0
  0
LINE
  5
3DC
330
1F
100
AcDbEntity
  8
0
  6
Continuous
 62
     8
370
    15
100
AcDbLine
 10
284.4679318201
 20
168.6393851729
 30
0.0
 11
284.4679318201
 21
164.4608686062
 31
0.0
  0
LINE
  5
3DD
330
1F
100
AcDbEntity
  8
0
  6
Continuous
 62
     8
370
    15
100
AcDbLine
 10
284.4679318201
 20
160.2501208278
 30
0.0
 11
284.4679318201
 21
121.5501232388
 31
0.0
  0
LINE
  5
3DE
330
1F
100
AcDbEntity
  8
0
  6
Continuous
 62
     8
370
    15
100
AcDbLine
 10
284.2557988894
 20
191.5501216741
 30
0.0
 11
284.2557988894
 21
172.8501255008
 31
0.0
  0
LINE
  5
3DF
330
1F
100
AcDbEntity
  8
0
  6
Continuous
 62
     8
370
    15
100
AcDbLine
 10
284.2557988894
 20
171.7501217814
 30
0.0
 11
284.2557988894
 21
171.5501258465
 31
0.0
  0
LINE
  5
3E0
330
1F
100
AcDbEntity
  8
0
  6
Continuous
 62
     8
370
    15
100
AcDbLine
 10
284.2557988894
 20
168.6068186851
 30
0.0
 11
284.2557988894
 21
164.4934276434
 31
0.0
  0
LINE
  5
3E1
330
1F
100
AcDbEntity
  8
0
  6
Continuous
 62
     8
370
    15
100
AcDbLine
 10
284.2557988894
 20
161.550120482
 30
0.0
 11
284.2557988894
 21
161.3501245471
 31
0.0
  0
LINE
  5
3E2
330
1F
100
AcDbEntity
  8
0
  6
Continuous
 62
     8
370
    15
100
AcDbLine
 10
284.2557988894
 20
160.2501208278
 30
0.0
 11
284.2557988894
 21
121.5501232388
 31
0.0
  0
LINE
  5
3E3
330
1F
100
AcDbEntity
  8
0
  6
Continuous
 62
     8
370
    15
100
AcDbLine
 10
284.2557988894
 20
111.5501234623
 30
0.0
 11
284.2557988894
 21
72.8501240106
 31
0.0
  0
LINE
  5
3E4
330
1F
100
AcDbEntity
  8
0
  6
Continuous
 62
     8
370
    15
100
AcDbLine
 10
284.2557988894
 20
71.7501240166
 30
0.0
 11
284.2557988894
 21
71.5501243564
 31
0.0
  0
LINE
  5
3E5
330
1F
100
AcDbEntity
  8
0
  6
Continuous
 62
     8
370
    15
100
AcDbLine
 10
284.2557988894
 20
68.6068209203
 30
0.0
 11
284.2557988894
 21
64.4934261533
 31
0.0
  0
LINE
  5
3E6
330
1F
100
AcDbEntity
  8
0
  6
Continuous
 62
     8
370
    15
100
AcDbLine
 10
284.2557988894
 20
61.5501227172
 30
0.0
 11
284.2557988894
 21
61.350123057
 31
0.0
  0
LINE
  5
3E7
330
1F
100
AcDbEntity
  8
0
  6
Continuous
 62
     8
370
    15
100
AcDbLine
 10
284.2557988894
 20
60.2501230629
 30
0.0
 11
284.2557988894
 21
41.5501231643
 31
0.0
  0
LINE
  5
3E8
330
1F
100
AcDbEntity
  8
0
  6
Continuous
 62
     8
370
    15
100
AcDbLine
 10
284.892195819
 20
111.5501234623
 30
0.0
 11
284.892195819
 21
72.8501240106
 31
0.0
  0
LINE
  5
3E9
330
1F
100
AcDbEntity
  8
0
  6
Continuous
 62
     8
370
    15
100
AcDbLine
 10
284.892195819
 20
68.6393818202
 30
0.0
 11
284.892195819
 21
64.4608671161
 31
0.0
  0
LINE
  5
3EA
330
1F
100
AcDbEntity
  8
0
  6
Continuous
 62
     8
370
    15
100
AcDbLine
 10
284.892195819
 20
60.2501230629
 30
0.0
 11
284.892195819
 21
41.5501231643
 31
0.0
  0
LINE
  5
3EB
330
1F
100
AcDbEntity
  8
0
  6
Continuous
 62
     8
370
    15
100
AcDbLine
 10
284.4679318201
 20
111.5501234623
 30
0.0
 11
284.4679318201
 21
72.8501240106
 31
0.0
  0
LINE
  5
3EC
330
1F
100
AcDbEntity
  8
0
  6
Continuous
 62
     8
370
    15
100
AcDbLine
 10
284.4679318201
 20
68.6393818202
 30
0.0
 11
284.4679318201
 21
64.4608671161
 31
0.0
  0
LINE
  5
3ED
330
1F
100
AcDbEntity
  8
0
  6
Continuous
 62
     8
370
    15
100
AcDbLine
 10
284.4679318201
 20
60.2501230629
 30
0.0
 11
284.4679318201
 21
41.5501231643
 31
0.0
  0
INSERT
  5
3F5
330
1F
100
AcDbEntity
  8
0
  6
Continuous
 62
     7
370
     0
100
AcDbBlockReference
  2
SW_RADIAL_DIMENSION_0
 10
303.3597173854
 20
196.1546023143
 30
0.0
  0
DIMENSION
  5
3F6
330
1F
100
AcDbEntity
  8
0
  6
Continuous
 62
     7
370
     0
100
AcDbDimension
  2
*D10
 10
267.5595123389
 20
116.5501239243
 30
0.0
 11
267.5595123389
 21
151.8825667345
 31
0.0
 70
   160
 71
     2
 42
-1.0
  3
SLDDIMSTYLE0
100
AcDbAlignedDimension
 13
277.6800636833
 23
191.5501239243
 33
0.0
 14
280.5300636833
 24
116.5501239243
 34
0.0
 50
90.0
100
AcDbRotatedDimension
  0
INSERT
  5
40B
330
1F
100
AcDbEntity
  8
0
  6
Continuous
 62
     7
370
     0
100
AcDbBlockReference
  2
SW_CENTERMARKSYMBOL_0
 10
284.6800636833
 20
116.5501239243
 30
0.0
  0
LINE
  5
40C
330
1F
100
AcDbEntity
  8
0
  6
Continuous
 62
     7
370
    15
100
AcDbLine
 10
202.1592757926
 20
246.9146716684
 30
0.0
 11
202.1592757926
 21
246.7755600154
 31
0.0
  0
LINE
  5
40D
330
1F
100
AcDbEntity
  8
0
  6
Continuous
 62
     7
370
    15
100
AcDbLine
 10
202.1592757926
 20
255.0537809074
 30
0.0
 11
202.1592757926
 21
254.914671117
 31
0.0
  0
LINE
  5
40E
330
1F
100
AcDbEntity
  8
0
  6
Continuous
 62
     7
370
    15
100
AcDbLine
 10
199.3591651814
 20
248.9146719962
 30
0.0
 11
199.4591652444
 21
248.9146719962
 31
0.0
  0
LINE
  5
40F
330
1F
100
AcDbEntity
  8
0
  6
Continuous
 62
     7
370
    15
100
AcDbLine
 10
199.4591652444
 20
252.9146707892
 30
0.0
 11
199.3591651814
 21
252.9146707892
 31
0.0
  0
LINE
  5
410
330
1F
100
AcDbEntity
  8
0
  6
Continuous
 62
     7
370
    15
100
AcDbLine
 10
197.9591652314
 20
243.8646703303
 30
0.0
 11
198.7591652694
 21
244.6646708339
 31
0.0
  0
LINE
  5
411
330
1F
100
AcDbEntity
  8
0
  6
Continuous
 62
     7
370
    15
100
AcDbLine
 10
198.7591652694
 20
257.1646719515
 30
0.0
 11
197.9591652314
 21
257.9646705925
 31
0.0
  0
LINE
  5
412
330
1F
100
AcDbEntity
  8
0
  6
Continuous
 62
     7
370
    15
100
AcDbLine
 10
198.7591652694
 20
244.6646708339
 30
0.0
 11
199.3591651814
 21
244.6751444876
 31
0.0
  0
LINE
  5
413
330
1F
100
AcDbEntity
  8
0
  6
Continuous
 62
     7
370
    15
100
AcDbLine
 10
199.3591651814
 20
257.1541964352
 30
0.0
 11
198.7591652694
 21
257.1646719515
 31
0.0
  0
LINE
  5
414
330
1F
100
AcDbEntity
  8
0
  6
Continuous
 62
     7
370
    15
100
AcDbLine
 10
202.7014082093
 20
247.1451069504
 30
0.0
 11
202.4269305664
 21
247.3372406602
 31
0.0
  0
ARC
  5
415
330
1F
100
AcDbEntity
  8
0
  6
Continuous
 62
     7
370
    15
100
AcDbCircle
 10
203.4591632743
 20
248.8118582373
 30
0.0
 40
1.799999999999995
100
AcDbArc
 50
180.0
 51
235.0079593175
  0
LINE
  5
416
330
1F
100
AcDbEntity
  8
0
  6
Continuous
 62
     7
370
    15
100
AcDbLine
 10
201.6591632534
 20
248.8118577093
 30
0.0
 11
201.6591632534
 21
253.0174850762
 31
0.0
  0
ARC
  5
417
330
1F
100
AcDbEntity
  8
0
  6
Continuous
 62
     7
370
    15
100
AcDbCircle
 10
203.4591632743
 20
253.0174842756
 30
0.0
 40
1.800000000000011
100
AcDbArc
 50
124.9920406825
 51
180.0
  0
LINE
  5
418
330
1F
100
AcDbEntity
  8
0
  6
Continuous
 62
     7
370
    15
100
AcDbLine
 10
202.4269305664
 20
254.4921002626
 30
0.0
 11
202.7014082093
 21
254.684235835
 31
0.0
  0
ARC
  5
419
330
1F
100
AcDbEntity
  8
0
  6
Continuous
 62
     7
370
    15
100
AcDbCircle
 10
205.3591652424
 20
254.2145260268
 30
0.0
 40
0.4000000100000136
100
AcDbArc
 50
180.0
 51
270.0
  0
ARC
  5
41A
330
1F
100
AcDbEntity
  8
0
  6
Continuous
 62
     7
370
    15
100
AcDbCircle
 10
205.4591644224
 20
248.3148165061
 30
0.0
 40
0.3000000100000193
100
AcDbArc
 50
270.0
 51
0.0
  0
LINE
  5
41B
330
1F
100
AcDbEntity
  8
0
  6
Continuous
 62
     7
370
    15
100
AcDbLine
 10
205.4591643652
 20
248.0148169487
 30
0.0
 11
205.3591654664
 21
248.0148169487
 31
0.0
  0
ARC
  5
41C
330
1F
100
AcDbEntity
  8
0
  6
Continuous
 62
     7
370
    15
100
AcDbCircle
 10
205.3591652424
 20
247.6148164861
 30
0.0
 40
0.4000000099999852
100
AcDbArc
 50
90.0
 51
180.0
  0
ARC
  5
41D
330
1F
100
AcDbEntity
  8
0
  6
Continuous
 62
     7
370
    15
100
AcDbCircle
 10
205.4591644224
 20
253.5145260068
 30
0.0
 40
0.3000000100000193
100
AcDbArc
 50
0.0
 51
90.0
  0
LINE
  5
41E
330
1F
100
AcDbEntity
  8
0
  6
Continuous
 62
     7
370
    15
100
AcDbLine
 10
205.7591643213
 20
253.5145263463
 30
0.0
 11
205.7591643213
 21
248.3148164391
 31
0.0
  0
LINE
  5
41F
330
1F
100
AcDbEntity
  8
0
  6
Continuous
 62
     7
370
    15
100
AcDbLine
 10
205.3591654664
 20
253.8145258367
 30
0.0
 11
205.4591643652
 21
253.8145258367
 31
0.0
  0
LINE
  5
420
330
1F
100
AcDbEntity
  8
0
  6
Continuous
 62
     7
370
    15
100
AcDbLine
 10
202.8121248847
 20
255.7066305816
 30
0.0
 11
202.959165236
 21
255.7066305816
 31
0.0
  0
SPLINE
  5
421
330
1F
100
AcDbEntity
  8
0
  6
Continuous
 62
     7
370
    15
100
AcDbSpline
210
0.0
220
0.0
230
1.0
 70
     8
 71
     3
 72
    13
 73
     9
 74
     0
 42
0.00000001
 43
0.00000001
 40
0.0
 40
0.0
 40
0.0
 40
0.0
 40
0.2749558015381254
 40
0.4983864941231602
 40
0.6684107697845489
 40
0.8070629020274495
 40
0.946204968950782
 40
1.0
 40
1.0
 40
1.0
 40
1.0
 10
202.9674692573369
 20
255.7146697580506
 30
0.0
 10
203.0873227078119
 20
255.8335826674356
 30
0.0
 10
203.3045697731825
 20
256.0491249025252
 30
0.0
 10
203.5582927880141
 20
256.3361092264257
 30
0.0
 10
203.7117857699643
 20
256.5372201450654
 30
0.0
 10
203.7822518729006
 20
256.6624294303814
 30
0.0
 10
203.7838098138448
 20
256.7103647727346
 30
0.0
 10
203.7611093929983
 20
256.713732726374
 30
0.0
 10
203.7547800252557
 20
256.7146717846085
 30
0.0
  0
LINE
  5
422
330
1F
100
AcDbEntity
  8
0
  6
Continuous
 62
     7
370
    15
100
AcDbLine
 10
202.959165236
 20
255.7066305816
 30
0.0
 11
202.9674692573
 21
255.7146697581
 31
0.0
  0
LINE
  5
423
330
1F
100
AcDbEntity
  8
0
  6
Continuous
 62
     7
370
    15
100
AcDbLine
 10
202.959165236
 20
246.1227122038
 30
0.0
 11
202.959165236
 21
255.7066305816
 31
0.0
  0
LINE
  5
424
330
1F
100
AcDbEntity
  8
0
  6
Continuous
 62
     7
370
    15
100
AcDbLine
 10
202.8121248847
 20
246.1227122038
 30
0.0
 11
202.959165236
 21
246.1227122038
 31
0.0
  0
SPLINE
  5
425
330
1F
100
AcDbEntity
  8
0
  6
Continuous
 62
     7
370
    15
100
AcDbSpline
210
0.0
220
0.0
230
1.0
 70
     8
 71
     3
 72
    10
 73
     6
 74
     0
 42
0.00000001
 43
0.00000001
 40
0.0
 40
0.0
 40
0.0
 40
0.0
 40
0.1883771901342765
 40
0.8483810929692093
 40
1.0
 40
1.0
 40
1.0
 40
1.0
 10
202.7014082093135
 20
251.3146716445376
 30
0.0
 10
202.6986745040221
 20
251.3141883256843
 30
0.0
 10
202.6863629079033
 20
251.3120116365812
 30
0.0
 10
202.6714559596539
 20
251.2981991150913
 30
0.0
 10
202.6623262259439
 20
251.2639718298213
 30
0.0
 10
202.6606207043275
 20
251.2575778454234
 30
0.0
  0
SPLINE
  5
426
330
1F
100
AcDbEntity
  8
0
  6
Continuous
 62
     7
370
    15
100
AcDbSpline
210
0.0
220
0.0
230
1.0
 70
     8
 71
     3
 72
    10
 73
     6
 74
     0
 42
0.00000001
 43
0.00000001
 40
0.0
 40
0.0
 40
0.0
 40
0.0
 40
0.3376451109548387
 40
0.9848455829344143
 40
1.0
 40
1.0
 40
1.0
 40
1.0
 10
202.6606949773029
 20
250.5731377094676
 30
0.0
 10
202.6647367668679
 20
250.5604528797795
 30
0.0
 10
202.6765258864823
 20
250.5234536812623
 30
0.0
 10
202.6915022482341
 20
250.514821995579
 30
0.0
 10
202.7011866344003
 20
250.5146745151716
 30
0.0
 10
202.7014082093135
 20
250.5146711408784
 30
0.0
  0
LINE
  5
427
330
1F
100
AcDbEntity
  8
0
  6
Continuous
 62
     7
370
    15
100
AcDbLine
 10
202.7014082093
 20
254.914671117
 30
0.0
 11
202.7014082093
 21
251.3146716445
 31
0.0
  0
LINE
  5
428
330
1F
100
AcDbEntity
  8
0
  6
Continuous
 62
     7
370
    15
100
AcDbLine
 10
202.1592757926
 20
254.914671117
 30
0.0
 11
202.7014082093
 21
254.914671117
 31
0.0
  0
LINE
  5
429
330
1F
100
AcDbEntity
  8
0
  6
Continuous
 62
     7
370
    15
100
AcDbLine
 10
202.1592757926
 20
246.9146716684
 30
0.0
 11
202.7014082093
 21
246.9146716684
 31
0.0
  0
LINE
  5
42A
330
1F
100
AcDbEntity
  8
0
  6
Continuous
 62
     7
370
    15
100
AcDbLine
 10
202.7014082093
 20
250.5146711409
 30
0.0
 11
202.7014082093
 21
246.9146716684
 31
0.0
  0
LINE
  5
42B
330
1F
100
AcDbEntity
  8
0
  6
Continuous
 62
     7
370
    15
100
AcDbLine
 10
204.9591652146
 20
255.7146697581
 30
0.0
 11
202.9674692573
 21
255.7146697581
 31
0.0
  0
LINE
  5
42C
330
1F
100
AcDbEntity
  8
0
  6
Continuous
 62
     7
370
    15
100
AcDbLine
 10
203.8201651564
 20
256.7146717846
 30
0.0
 11
204.9420079245
 21
256.7146717846
 31
0.0
  0
LINE
  5
42D
330
1F
100
AcDbEntity
  8
0
  6
Continuous
 62
     7
370
    15
100
AcDbLine
 10
202.9674692573
 20
246.1146711647
 30
0.0
 11
204.9591652146
 21
246.1146711647
 31
0.0
  0
LINE
  5
42E
330
1F
100
AcDbEntity
  8
0
  6
Continuous
 62
     7
370
    15
100
AcDbLine
 10
202.959165236
 20
246.1227122038
 30
0.0
 11
202.9674692573
 21
246.1146711647
 31
0.0
  0
LINE
  5
42F
330
1F
100
AcDbEntity
  8
0
  6
Continuous
 62
     7
370
    15
100
AcDbLine
 10
204.9591652146
 20
247.6146704793
 30
0.0
 11
204.9591652146
 21
254.2146704435
 31
0.0
  0
LINE
  5
430
330
1F
100
AcDbEntity
  8
0
  6
Continuous
 62
     7
370
    15
100
AcDbLine
 10
204.9420079245
 20
245.1146710008
 30
0.0
 11
203.8201651564
 21
245.1146710008
 31
0.0
  0
SPLINE
  5
431
330
1F
100
AcDbEntity
  8
0
  6
Continuous
 62
     7
370
    15
100
AcDbSpline
210
0.0
220
0.0
230
1.0
 70
     8
 71
     3
 72
    13
 73
     9
 74
     0
 42
0.00000001
 43
0.00000001
 40
0.0
 40
0.0
 40
0.0
 40
0.0
 40
0.1331513816798106
 40
0.2663831735248927
 40
0.3986262310134883
 40
0.5969295281017217
 40
0.8780528921196756
 40
1.0
 40
1.0
 40
1.0
 40
1.0
 10
203.7547800252557
 20
245.1146710008075
 30
0.0
 10
203.7674421205103
 20
245.120324923642
 30
0.0
 10
203.7927739576632
 20
245.1316361837171
 30
0.0
 10
203.7535221150797
 20
245.223773930908
 30
0.0
 10
203.6511151199003
 20
245.3762295388158
 30
0.0
 10
203.4457788552573
 20
245.6254161582496
 30
0.0
 10
203.1967449688515
 20
245.8900562743555
 30
0.0
 10
203.0207236834805
 20
246.0624993188206
 30
0.0
 10
202.9674692573369
 20
246.1146711647202
 30
0.0
  0
LINE
  5
432
330
1F
100
AcDbEntity
  8
0
  6
Continuous
 62
     7
370
    15
100
AcDbLine
 10
202.3306032904
 20
246.9146716684
 30
0.0
 11
201.7269325122
 21
247.3372406602
 31
0.0
  0
ARC
  5
433
330
1F
100
AcDbEntity
  8
0
  6
Continuous
 62
     7
370
    15
100
AcDbCircle
 10
202.7591652324
 20
248.8118582373
 30
0.0
 40
1.799999999999995
100
AcDbArc
 50
180.0
 51
235.0079593175
  0
LINE
  5
434
330
1F
100
AcDbEntity
  8
0
  6
Continuous
 62
     7
370
    15
100
AcDbLine
 10
200.9591652356
 20
250.4904064625
 30
0.0
 11
200.9591652356
 21
251.3389344603
 31
0.0
  0
ARC
  5
435
330
1F
100
AcDbEntity
  8
0
  6
Continuous
 62
     7
370
    15
100
AcDbCircle
 10
202.7591652324
 20
253.0174842756
 30
0.0
 40
1.799999999999983
100
AcDbArc
 50
124.9920406825
 51
180.0
  0
LINE
  5
436
330
1F
100
AcDbEntity
  8
0
  6
Continuous
 62
     7
370
    15
100
AcDbLine
 10
201.7269325122
 20
254.4921002626
 30
0.0
 11
202.3306032904
 21
254.914671117
 31
0.0
  0
LINE
  5
437
330
1F
100
AcDbEntity
  8
0
  6
Continuous
 62
     7
370
    15
100
AcDbLine
 10
198.2591651874
 20
242.9146710127
 30
0.0
 11
205.9591653785
 21
242.9146710127
 31
0.0
  0
ARC
  5
438
330
1F
100
AcDbEntity
  8
0
  6
Continuous
 62
     7
370
    15
100
AcDbCircle
 10
198.2591652324
 20
243.2146712565
 30
0.0
 40
0.3000000000000114
100
AcDbArc
 50
180.0
 51
270.0
  0
LINE
  5
439
330
1F
100
AcDbEntity
  8
0
  6
Continuous
 62
     7
370
    15
100
AcDbLine
 10
197.9591652314
 20
243.3904073476
 30
0.0
 11
197.9591652314
 21
243.2146705031
 31
0.0
  0
ARC
  5
43A
330
1F
100
AcDbEntity
  8
0
  6
Continuous
 62
     7
370
    15
100
AcDbCircle
 10
198.2591652324
 20
243.3904071877
 30
0.0
 40
0.3000000000000145
100
AcDbArc
 50
135.0
 51
180.0
  0
LINE
  5
43B
330
1F
100
AcDbEntity
  8
0
  6
Continuous
 62
     7
370
    15
100
AcDbLine
 10
198.7712973757
 20
244.3268037677
 30
0.0
 11
198.047033188
 21
243.6025384158
 31
0.0
  0
ARC
  5
43C
330
1F
100
AcDbEntity
  8
0
  6
Continuous
 62
     7
370
    15
100
AcDbCircle
 10
198.9834293011
 20
244.1146712565
 30
0.0
 40
0.3000000000000145
100
AcDbArc
 50
90.0
 51
135.0
  0
LINE
  5
43D
330
1F
100
AcDbEntity
  8
0
  6
Continuous
 62
     7
370
    15
100
AcDbLine
 10
201.674580833
 20
244.4146703273
 30
0.0
 11
198.9834293751
 21
244.4146703273
 31
0.0
  0
ARC
  5
43E
330
1F
100
AcDbEntity
  8
0
  6
Continuous
 62
     7
370
    15
100
AcDbCircle
 10
201.6745808201
 20
244.7146712565
 30
0.0
 40
0.2999999999999944
100
AcDbArc
 50
270.0
 51
45.0
  0
LINE
  5
43F
330
1F
100
AcDbEntity
  8
0
  6
Continuous
 62
     7
370
    15
100
AcDbLine
 10
199.6056118776
 20
247.2079041689
 30
0.0
 11
201.8867128324
 21
244.9268027484
 31
0.0
  0
ARC
  5
440
330
1F
100
AcDbEntity
  8
0
  6
Continuous
 62
     7
370
    15
100
AcDbCircle
 10
199.9591652324
 20
247.5614576941
 30
0.0
 40
0.500000000000004
100
AcDbArc
 50
180.0
 51
225.0
  0
LINE
  5
441
330
1F
100
AcDbEntity
  8
0
  6
Continuous
 62
     7
370
    15
100
AcDbLine
 10
199.4591652444
 20
254.2678843528
 30
0.0
 11
199.4591652444
 21
247.5614584326
 31
0.0
  0
ARC
  5
442
330
1F
100
AcDbEntity
  8
0
  6
Continuous
 62
     7
370
    15
100
AcDbCircle
 10
199.9591652324
 20
254.2678848188
 30
0.0
 40
0.5
100
AcDbArc
 50
135.0
 51
180.0
  0
LINE
  5
443
330
1F
100
AcDbEntity
  8
0
  6
Continuous
 62
     7
370
    15
100
AcDbLine
 10
201.8867128324
 20
256.9025381744
 30
0.0
 11
199.6056118776
 21
254.6214386165
 31
0.0
  0
ARC
  5
444
330
1F
100
AcDbEntity
  8
0
  6
Continuous
 62
     7
370
    15
100
AcDbCircle
 10
201.6745808201
 20
257.1146712565
 30
0.0
 40
0.3000000000000682
100
AcDbArc
 50
315.0
 51
90.0
  0
ARC
  5
445
330
1F
100
AcDbEntity
  8
0
  6
Continuous
 62
     7
370
    15
100
AcDbCircle
 10
206.6591652324
 20
254.2146712565
 30
0.0
 40
0.3000000000000398
100
AcDbArc
 50
270.0
 51
0.0
  0
LINE
  5
446
330
1F
100
AcDbEntity
  8
0
  6
Continuous
 62
     7
370
    15
100
AcDbLine
 10
205.2591651706
 20
253.9146709531
 30
0.0
 11
206.6591651207
 21
253.9146709531
 31
0.0
  0
ARC
  5
447
330
1F
100
AcDbEntity
  8
0
  6
Continuous
 62
     7
370
    15
100
AcDbCircle
 10
205.2591652324
 20
254.2146712565
 30
0.0
 40
0.3000000000000114
100
AcDbArc
 50
180.0
 51
270.0
  0
LINE
  5
448
330
1F
100
AcDbEntity
  8
0
  6
Continuous
 62
     7
370
    15
100
AcDbLine
 10
204.9591652146
 20
256.6146700918
 30
0.0
 11
204.9591652146
 21
254.2146704435
 31
0.0
  0
LINE
  5
449
330
1F
100
AcDbEntity
  8
0
  6
Continuous
 62
     7
370
    15
100
AcDbLine
 10
201.0470331981
 20
253.9415396094
 30
0.0
 11
203.9322973257
 21
256.8268030226
 31
0.0
  0
ARC
  5
44A
330
1F
100
AcDbEntity
  8
0
  6
Continuous
 62
     7
370
    15
100
AcDbCircle
 10
201.2591652324
 20
253.7294071877
 30
0.0
 40
0.3000000000000145
100
AcDbArc
 50
135.0
 51
180.0
  0
LINE
  5
44B
330
1F
100
AcDbEntity
  8
0
  6
Continuous
 62
     7
370
    15
100
AcDbLine
 10
200.9591652356
 20
251.3389344603
 30
0.0
 11
200.9591652356
 21
253.7294066786
 31
0.0
  0
ARC
  5
44C
330
1F
100
AcDbEntity
  8
0
  6
Continuous
 62
     7
370
    15
100
AcDbCircle
 10
200.6591652324
 20
251.3389353252
 30
0.0
 40
0.3000000000000114
100
AcDbArc
 50
315.0
 51
0.0
  0
LINE
  5
44D
330
1F
100
AcDbEntity
  8
0
  6
Continuous
 62
     7
370
    15
100
AcDbLine
 10
200.6591652432
 20
250.9146704614
 30
0.0
 11
200.8712972717
 21
251.1268033921
 31
0.0
  0
LINE
  5
44E
330
1F
100
AcDbEntity
  8
0
  6
Continuous
 62
     7
370
    15
100
AcDbLine
 10
200.8712972717
 20
250.7025393933
 30
0.0
 11
200.6591652432
 21
250.9146704614
 31
0.0
  0
ARC
  5
44F
330
1F
100
AcDbEntity
  8
0
  6
Continuous
 62
     7
370
    15
100
AcDbCircle
 10
200.6591652324
 20
250.4904071877
 30
0.0
 40
0.3000000000000145
100
AcDbArc
 50
0.0
 51
45.0
  0
LINE
  5
450
330
1F
100
AcDbEntity
  8
0
  6
Continuous
 62
     7
370
    15
100
AcDbLine
 10
200.9591652356
 20
248.0999361068
 30
0.0
 11
200.9591652356
 21
250.4904064625
 31
0.0
  0
ARC
  5
451
330
1F
100
AcDbEntity
  8
0
  6
Continuous
 62
     7
370
    15
100
AcDbCircle
 10
201.2591652324
 20
248.0999353252
 30
0.0
 40
0.3000000000000145
100
AcDbArc
 50
180.0
 51
225.0
  0
LINE
  5
452
330
1F
100
AcDbEntity
  8
0
  6
Continuous
 62
     7
370
    15
100
AcDbLine
 10
203.9322973257
 20
245.0025397628
 30
0.0
 11
201.0470331981
 21
247.887803176
 31
0.0
  0
ARC
  5
453
330
1F
100
AcDbEntity
  8
0
  6
Continuous
 62
     7
370
    15
100
AcDbCircle
 10
204.1444293011
 20
245.2146712565
 30
0.0
 40
0.3000000000000145
100
AcDbArc
 50
225.0
 51
270.0
  0
LINE
  5
454
330
1F
100
AcDbEntity
  8
0
  6
Continuous
 62
     7
370
    15
100
AcDbLine
 10
204.6591652586
 20
244.9146713406
 30
0.0
 11
204.1444293252
 21
244.9146713406
 31
0.0
  0
ARC
  5
455
330
1F
100
AcDbEntity
  8
0
  6
Continuous
 62
     7
370
    15
100
AcDbCircle
 10
204.6591652324
 20
245.2146712565
 30
0.0
 40
0.3000000000000114
100
AcDbArc
 50
270.0
 51
0.0
  0
LINE
  5
456
330
1F
100
AcDbEntity
  8
0
  6
Continuous
 62
     7
370
    15
100
AcDbLine
 10
204.9591652146
 20
247.6146704793
 30
0.0
 11
204.9591652146
 21
245.2146708309
 31
0.0
  0
ARC
  5
457
330
1F
100
AcDbEntity
  8
0
  6
Continuous
 62
     7
370
    15
100
AcDbCircle
 10
205.2591652324
 20
247.6146712565
 30
0.0
 40
0.3000000000000114
100
AcDbArc
 50
90.0
 51
180.0
  0
LINE
  5
458
330
1F
100
AcDbEntity
  8
0
  6
Continuous
 62
     7
370
    15
100
AcDbLine
 10
206.6591651207
 20
247.9146718323
 30
0.0
 11
205.2591651706
 21
247.9146718323
 31
0.0
  0
ARC
  5
459
330
1F
100
AcDbEntity
  8
0
  6
Continuous
 62
     7
370
    15
100
AcDbCircle
 10
206.6591652324
 20
247.6146712565
 30
0.0
 40
0.3000000000000398
100
AcDbArc
 50
0.0
 51
90.0
  0
LINE
  5
45A
330
1F
100
AcDbEntity
  8
0
  6
Continuous
 62
     7
370
    15
100
AcDbLine
 10
206.9591650768
 20
243.9146711766
 30
0.0
 11
206.9591650768
 21
247.6146704793
 31
0.0
  0
ARC
  5
45B
330
1F
100
AcDbEntity
  8
0
  6
Continuous
 62
     7
370
    15
100
AcDbCircle
 10
205.9591652324
 20
243.9146712565
 30
0.0
 40
1.0
100
AcDbArc
 50
270.0
 51
0.0
  0
LINE
  5
45C
330
1F
100
AcDbEntity
  8
0
  6
Continuous
 62
     7
370
    15
100
AcDbLine
 10
197.9591652314
 20
258.6146704197
 30
0.0
 11
197.9591652314
 21
258.4389335751
 31
0.0
  0
ARC
  5
45D
330
1F
100
AcDbEntity
  8
0
  6
Continuous
 62
     7
370
    15
100
AcDbCircle
 10
198.2591652324
 20
258.6146712565
 30
0.0
 40
0.3000000000000682
100
AcDbArc
 50
90.0
 51
180.0
  0
LINE
  5
45E
330
1F
100
AcDbEntity
  8
0
  6
Continuous
 62
     7
370
    15
100
AcDbLine
 10
205.9591653785
 20
258.9146717727
 30
0.0
 11
198.2591651874
 21
258.9146717727
 31
0.0
  0
ARC
  5
45F
330
1F
100
AcDbEntity
  8
0
  6
Continuous
 62
     7
370
    15
100
AcDbCircle
 10
205.9591652324
 20
257.9146712565
 30
0.0
 40
1.0
100
AcDbArc
 50
0.0
 51
90.0
  0
LINE
  5
460
330
1F
100
AcDbEntity
  8
0
  6
Continuous
 62
     7
370
    15
100
AcDbLine
 10
206.9591650768
 20
254.2146704435
 30
0.0
 11
206.9591650768
 21
257.9146697461
 31
0.0
  0
LINE
  5
461
330
1F
100
AcDbEntity
  8
0
  6
Continuous
 62
     7
370
    15
100
AcDbLine
 10
198.9834293751
 20
257.4146724581
 30
0.0
 11
201.674580833
 21
257.4146724581
 31
0.0
  0
ARC
  5
462
330
1F
100
AcDbEntity
  8
0
  6
Continuous
 62
     7
370
    15
100
AcDbCircle
 10
198.9834293011
 20
257.7146712565
 30
0.0
 40
0.3000000000000346
100
AcDbArc
 50
225.0
 51
270.0
  0
LINE
  5
463
330
1F
100
AcDbEntity
  8
0
  6
Continuous
 62
     7
370
    15
100
AcDbLine
 10
198.047033188
 20
258.2268043697
 30
0.0
 11
198.7712973757
 21
257.5025408804
 31
0.0
  0
ARC
  5
464
330
1F
100
AcDbEntity
  8
0
  6
Continuous
 62
     7
370
    15
100
AcDbCircle
 10
198.2591652324
 20
258.4389353252
 30
0.0
 40
0.3000000000000114
100
AcDbArc
 50
180.0
 51
225.0
  0
ARC
  5
465
330
1F
100
AcDbEntity
  8
0
  6
Continuous
 62
     7
370
    15
100
AcDbCircle
 10
204.6591652324
 20
256.6146712565
 30
0.0
 40
0.3000000000000682
100
AcDbArc
 50
0.0
 51
90.0
  0
LINE
  5
466
330
1F
100
AcDbEntity
  8
0
  6
Continuous
 62
     7
370
    15
100
AcDbLine
 10
204.1444293252
 20
256.9146714449
 30
0.0
 11
204.6591652586
 21
256.9146714449
 31
0.0
  0
ARC
  5
467
330
1F
100
AcDbEntity
  8
0
  6
Continuous
 62
     7
370
    15
100
AcDbCircle
 10
204.1444293011
 20
256.6146712565
 30
0.0
 40
0.3000000000000682
100
AcDbArc
 50
90.0
 51
135.0
  0
LINE
  5
468
330
1F
100
AcDbEntity
  8
0
  6
Continuous
 62
     7
370
    15
100
AcDbLine
 10
197.9591652314
 20
260.135609591
 30
0.0
 11
189.9591655499
 21
260.414976561
 31
0.0
  0
LINE
  5
469
330
1F
100
AcDbEntity
  8
0
  6
Continuous
 62
     7
370
    15
100
AcDbLine
 10
197.9591652314
 20
260.0212245524
 30
0.0
 11
197.9591652314
 21
260.135609591
 31
0.0
  0
LINE
  5
46A
330
1F
100
AcDbEntity
  8
0
  6
Continuous
 62
     7
370
    15
100
AcDbLine
 10
198.6591652064
 20
259.433858031
 30
0.0
 11
197.9591652314
 21
260.0212245524
 31
0.0
  0
LINE
  5
46B
330
1F
100
AcDbEntity
  8
0
  6
Continuous
 62
     7
370
    15
100
AcDbLine
 10
198.6591652064
 20
259.1768912315
 30
0.0
 11
198.6591652064
 21
259.433858031
 31
0.0
  0
LINE
  5
46C
330
1F
100
AcDbEntity
  8
0
  6
Continuous
 62
     7
370
    15
100
AcDbLine
 10
197.9591652314
 20
259.1646722793
 30
0.0
 11
198.6591652064
 21
259.1768912315
 31
0.0
  0
LINE
  5
46D
330
1F
100
AcDbEntity
  8
0
  6
Continuous
 62
     7
370
    15
100
AcDbLine
 10
197.9591652314
 20
242.6646705061
 30
0.0
 11
197.9591652314
 21
243.2146705031
 31
0.0
  0
LINE
  5
46E
330
1F
100
AcDbEntity
  8
0
  6
Continuous
 62
     7
370
    15
100
AcDbLine
 10
197.9591652314
 20
243.3904073476
 30
0.0
 11
197.9591652314
 21
258.4389335751
 31
0.0
  0
LINE
  5
46F
330
1F
100
AcDbEntity
  8
0
  6
Continuous
 62
     7
370
    15
100
AcDbLine
 10
197.9591652314
 20
258.6146704197
 30
0.0
 11
197.9591652314
 21
259.1646722793
 31
0.0
  0
LINE
  5
470
330
1F
100
AcDbEntity
  8
0
  6
Continuous
 62
     7
370
    15
100
AcDbLine
 10
198.6591652064
 20
242.6524534166
 30
0.0
 11
197.9591652314
 21
242.6646705061
 31
0.0
  0
LINE
  5
471
330
1F
100
AcDbEntity
  8
0
  6
Continuous
 62
     7
370
    15
100
AcDbLine
 10
198.6591652064
 20
242.3954866171
 30
0.0
 11
198.6591652064
 21
242.6524534166
 31
0.0
  0
LINE
  5
472
330
1F
100
AcDbEntity
  8
0
  6
Continuous
 62
     7
370
    15
100
AcDbLine
 10
197.9591652314
 20
241.8081163704
 30
0.0
 11
198.6591652064
 21
242.3954866171
 31
0.0
  0
LINE
  5
473
330
1F
100
AcDbEntity
  8
0
  6
Continuous
 62
     7
370
    15
100
AcDbLine
 10
197.9591652314
 20
241.6937331944
 30
0.0
 11
197.9591652314
 21
241.8081163704
 31
0.0
  0
LINE
  5
474
330
1F
100
AcDbEntity
  8
0
  6
Continuous
 62
     7
370
    15
100
AcDbLine
 10
189.9591655499
 20
241.4143662244
 30
0.0
 11
197.9591652314
 21
241.6937331944
 31
0.0
  0
LINE
  5
475
330
1F
100
AcDbEntity
  8
0
  6
Continuous
 62
     7
370
    15
100
AcDbLine
 10
189.9591655499
 20
241.4143662244
 30
0.0
 11
189.9591655499
 21
260.414976561
 31
0.0
  0
LINE
  5
476
330
1F
100
AcDbEntity
  8
0
  6
Continuous
 62
     7
370
    15
100
AcDbLine
 10
189.9591655499
 20
260.9146721005
 30
0.0
 11
197.9591652314
 21
260.6353051305
 31
0.0
  0
LINE
  5
477
330
1F
100
AcDbEntity
  8
0
  6
Continuous
 62
     7
370
    15
100
AcDbLine
 10
197.9591652314
 20
260.6353051305
 30
0.0
 11
197.9591652314
 21
260.135609591
 31
0.0
  0
LINE
  5
478
330
1F
100
AcDbEntity
  8
0
  6
Continuous
 62
     7
370
    15
100
AcDbLine
 10
189.9591655499
 20
260.414976561
 30
0.0
 11
189.9591655499
 21
260.9146721005
 31
0.0
  0
LINE
  5
479
330
1F
100
AcDbEntity
  8
0
  6
Continuous
 62
     7
370
    15
100
AcDbLine
 10
197.9591652314
 20
241.6937331944
 30
0.0
 11
197.9591652314
 21
241.194037655
 31
0.0
  0
LINE
  5
47A
330
1F
100
AcDbEntity
  8
0
  6
Continuous
 62
     7
370
    15
100
AcDbLine
 10
197.9591652314
 20
241.194037655
 30
0.0
 11
189.9591655499
 21
240.9146706849
 31
0.0
  0
LINE
  5
47B
330
1F
100
AcDbEntity
  8
0
  6
Continuous
 62
     7
370
    15
100
AcDbLine
 10
189.9591655499
 20
240.9146706849
 30
0.0
 11
189.9591655499
 21
241.4143662244
 31
0.0
  0
LINE
  5
47C
330
1F
100
AcDbEntity
  8
0
  6
Continuous
 62
     7
370
    15
100
AcDbLine
 10
198.7591652694
 20
257.1646719515
 30
0.0
 11
198.7591652694
 21
244.6646708339
 31
0.0
  0
LINE
  5
47D
330
1F
100
AcDbEntity
  8
0
  6
Continuous
 62
     7
370
    15
100
AcDbLine
 10
199.3591651814
 20
257.1541964352
 30
0.0
 11
199.3591651814
 21
244.6751444876
 31
0.0
  0
ENDSEC
  0
SECTION
  2
OBJECTS
  0
DICTIONARY
  5
C
330
0
100
AcDbDictionary
281
     1
  3
ACAD_GROUP
350
D
  3
ACAD_LAYOUT
350
1A
  3
ACAD_MLINESTYLE
350
17
  3
ACAD_PLOTSETTINGS
350
19
  3
ACAD_PLOTSTYLENAME
350
E
  0
DICTIONARY
  5
D
102
{ACAD_REACTORS
330
C
102
}
330
C
100
AcDbDictionary
281
     1
  0
DICTIONARY
  5
1A
102
{ACAD_REACTORS
330
C
102
}
330
C
100
AcDbDictionary
281
     1
  3
Layout1
350
1E
  3
Layout2
350
26
  3
Model
350
22
  0
DICTIONARY
  5
17
102
{ACAD_REACTORS
330
C
102
}
330
C
100
AcDbDictionary
281
     1
  3
Standard
350
18
  0
DICTIONARY
  5
19
102
{ACAD_REACTORS
330
C
102
}
330
C
100
AcDbDictionary
281
     1
  0
ACDBDICTIONARYWDFLT
  5
E
102
{ACAD_REACTORS
330
C
102
}
330
C
100
AcDbDictionary
281
     1
  3
Normal
350
F
100
AcDbDictionaryWithDefault
340
F
  0
LAYOUT
  5
1E
102
{ACAD_REACTORS
330
1A
102
}
330
1A
100
AcDbPlotSettings
  1

  2
none_device
  4

  6

 40
0.0
 41
0.0
 42
0.0
 43
0.0
 44
0.0
 45
0.0
 46
0.0
 47
0.0
 48
0.0
 49
0.0
140
0.0
141
0.0
142
1.0
143
1.0
 70
   688
 72
     0
 73
     0
 74
     5
  7

 75
    16
147
1.0
148
0.0
149
0.0
100
AcDbLayout
  1
Layout1
 70
     1
 71
     1
 10
0.0
 20
0.0
 11
420.0
 21
297.0
 12
0.0
 22
0.0
 32
0.0
 14
1.0000000000E+20
 24
1.0000000000E+20
 34
1.0000000000E+20
 15
-1.0000000000E+20
 25
-1.0000000000E+20
 35
-1.0000000000E+20
146
0.0
 13
0.0
 23
0.0
 33
0.0
 16
1.0
 26
0.0
 36
0.0
 17
0.0
 27
1.0
 37
0.0
 76
     0
330
1B
  0
LAYOUT
  5
26
102
{ACAD_REACTORS
330
1A
102
}
330
1A
100
AcDbPlotSettings
  1

  2
none_device
  4

  6

 40
0.0
 41
0.0
 42
0.0
 43
0.0
 44
0.0
 45
0.0
 46
0.0
 47
0.0
 48
0.0
 49
0.0
140
0.0
141
0.0
142
1.0
143
1.0
 70
   688
 72
     0
 73
     0
 74
     5
  7

 75
    16
147
1.0
148
0.0
149
0.0
100
AcDbLayout
  1
Layout2
 70
     1
 71
     2
 10
0.0
 20
0.0
 11
0.0
 21
0.0
 12
0.0
 22
0.0
 32
0.0
 14
0.0
 24
0.0
 34
0.0
 15
0.0
 25
0.0
 35
0.0
146
0.0
 13
0.0
 23
0.0
 33
0.0
 16
1.0
 26
0.0
 36
0.0
 17
0.0
 27
1.0
 37
0.0
 76
     0
330
23
  0
LAYOUT
  5
22
102
{ACAD_REACTORS
330
1A
102
}
330
1A
100
AcDbPlotSettings
  1

  2
none_device
  4

  6

 40
0.0
 41
0.0
 42
0.0
 43
0.0
 44
0.0
 45
0.0
 46
0.0
 47
0.0
 48
0.0
 49
0.0
140
0.0
141
0.0
142
1.0
143
1.0
 70
  1712
 72
     0
 73
     0
 74
     0
  7

 75
     0
147
1.0
148
0.0
149
0.0
100
AcDbLayout
  1
Model
 70
     1
 71
     0
 10
0.0
 20
0.0
 11
420.0
 21
297.0
 12
0.0
 22
0.0
 32
0.0
 14
0.0
 24
0.0
 34
0.0
 15
420.0
 25
297.0
 35
0.0
146
0.0
 13
0.0
 23
0.0
 33
0.0
 16
1.0
 26
0.0
 36
0.0
 17
0.0
 27
1.0
 37
0.0
 76
     0
330
1F
331
29
  0
MLINESTYLE
  5
18
102
{ACAD_REACTORS
330
17
102
}
330
17
100
AcDbMlineStyle
  2
Standard
 70
     0
  3

 62
   256
 51
90.0
 52
90.0
 71
     2
 49
0.5
 62
   256
  6
BYLAYER
 49
-0.5
 62
   256
  6
BYLAYER
  0
ACDBPLACEHOLDER
  5
F
102
{ACAD_REACTORS
330
E
102
}
330
E
  0
ENDSEC
  0
EOF
