  0
SECTION
  2
HEADER
  9
$ACADVER
  1
AC1015
  9
$ACADMAINTVER
 70
     6
  9
$DWGCODEPAGE
  3
DOS932
  9
$INSBASE
 10
0.0
 20
0.0
 30
0.0
  9
$EXTMIN
 10
0.0
 20
0.0
 30
0.0
  9
$EXTMAX
 10
420.0
 20
297.0
 30
0.0
  9
$LIMMIN
 10
0.0
 20
0.0
  9
$LIMMAX
 10
420.0
 20
297.0
  9
$ORTHOMODE
 70
     0
  9
$REGENMODE
 70
     1
  9
$FILLMODE
 70
     1
  9
$QTEXTMODE
 70
     0
  9
$MIRRTEXT
 70
     1
  9
$LTSCALE
 40
1.0
  9
$ATTMODE
 70
     1
  9
$TEXTSIZE
 40
3.5
  9
$TRACEWID
 40
1.0
  9
$TEXTSTYLE
  7
Standard
  9
$CLAYER
  8
0
  9
$CELTYPE
  6
ByLayer
  9
$CECOLOR
 62
   256
  9
$CELTSCALE
 40
1.0
  9
$DISPSILH
 70
     0
  9
$DIMSCALE
 40
1.0
  9
$DIMASZ
 40
3.0
  9
$DIMEXO
 40
1.0
  9
$DIMDLI
 40
3.75
  9
$DIMRND
 40
0.0
  9
$DIMDLE
 40
0.0
  9
$DIMEXE
 40
1.0
  9
$DIMTP
 40
0.0
  9
$DIMTM
 40
0.0
  9
$DIMTXT
 40
3.5
  9
$DIMCEN
 40
2.5
  9
$DIMTSZ
 40
0.0
  9
$DIMTOL
 70
     0
  9
$DIMLIM
 70
     0
  9
$DIMTIH
 70
     1
  9
$DIMTOH
 70
     1
  9
$DIMSE1
 70
     0
  9
$DIMSE2
 70
     0
  9
$DIMTAD
 70
     1
  9
$DIMZIN
 70
     0
  9
$DIMBLK
  1

  9
$DIMASO
 70
     1
  9
$DIMSHO
 70
     1
  9
$DIMPOST
  1

  9
$DIMAPOST
  1

  9
$DIMALT
 70
     0
  9
$DIMALTD
 70
     3
  9
$DIMALTF
 40
0.0393700787
  9
$DIMLFAC
 40
2.0
  9
$DIMTOFL
 70
     1
  9
$DIMTVP
 40
0.0
  9
$DIMTIX
 70
     0
  9
$DIMSOXD
 70
     0
  9
$DIMSAH
 70
     0
  9
$DIMBLK1
  1

  9
$DIMBLK2
  1

  9
$DIMSTYLE
  2
ISO-25
  9
$DIMCLRD
 70
     0
  9
$DIMCLRE
 70
     0
  9
$DIMCLRT
 70
     0
  9
$DIMTFAC
 40
1.0
  9
$DIMGAP
 40
1.524
  9
$DIMJUST
 70
     0
  9
$DIMSD1
 70
     0
  9
$DIMSD2
 70
     0
  9
$DIMTOLJ
 70
     0
  9
$DIMTZIN
 70
     0
  9
$DIMALTZ
 70
     0
  9
$DIMALTTZ
 70
     0
  9
$DIMUPT
 70
     0
  9
$DIMDEC
 70
     1
  9
$DIMTDEC
 70
     1
  9
$DIMALTU
 70
     2
  9
$DIMALTTD
 70
     3
  9
$DIMTXSTY
  7
Standard
  9
$DIMAUNIT
 70
     0
  9
$DIMADEC
 70
     2
  9
$DIMALTRND
 40
0.0
  9
$DIMAZIN
 70
     0
  9
$DIMDSEP
 70
    44
  9
$DIMATFIT
 70
     3
  9
$DIMFRAC
 70
     0
  9
$DIMLDRBLK
  1

  9
$DIMLUNIT
 70
     2
  9
$DIMLWD
 70
    -2
  9
$DIMLWE
 70
    -2
  9
$DIMTMOVE
 70
     0
  9
$LUNITS
 70
     2
  9
$LUPREC
 70
     1
  9
$SKETCHINC
 40
1.0
  9
$FILLETRAD
 40
10.0
  9
$AUNITS
 70
     0
  9
$AUPREC
 70
     2
  9
$MENU
  1
.
  9
$ELEVATION
 40
0.0
  9
$PELEVATION
 40
0.0
  9
$THICKNESS
 40
0.0
  9
$LIMCHECK
 70
     0
  9
$CHAMFERA
 40
10.0
  9
$CHAMFERB
 40
10.0
  9
$CHAMFERC
 40
20.0
  9
$CHAMFERD
 40
0.0
  9
$SKPOLY
 70
     0
  9
$TDCREATE
 40
2456140.544877396
  9
$TDUCREATE
 40
2456140.169877396
  9
$TDUPDATE
 40
2456140.544877408
  9
$TDUUPDATE
 40
2456140.169877408
  9
$TDINDWG
 40
0.0000000116
  9
$TDUSRTIMER
 40
0.0000000116
  9
$USRTIMER
 70
     1
  9
$ANGBASE
 50
0.0
  9
$ANGDIR
 70
     0
  9
$PDMODE
 70
     0
  9
$PDSIZE
 40
-1.0
  9
$PLINEWID
 40
0.0
  9
$SPLFRAME
 70
     0
  9
$SPLINETYPE
 70
     6
  9
$SPLINESEGS
 70
     8
  9
$HANDSEED
  5
480
  9
$SURFTAB1
 70
     6
  9
$SURFTAB2
 70
     6
  9
$SURFTYPE
 70
     6
  9
$SURFU
 70
     6
  9
$SURFV
 70
     6
  9
$UCSBASE
  2

  9
$UCSNAME
  2

  9
$UCSORG
 10
0.0
 20
0.0
 30
0.0
  9
$UCSXDIR
 10
1.0
 20
0.0
 30
0.0
  9
$UCSYDIR
 10
0.0
 20
1.0
 30
0.0
  9
$UCSORTHOREF
  2

  9
$UCSORTHOVIEW
 70
     0
  9
$UCSORGTOP
 10
0.0
 20
0.0
 30
0.0
  9
$UCSORGBOTTOM
 10
0.0
 20
0.0
 30
0.0
  9
$UCSORGLEFT
 10
0.0
 20
0.0
 30
0.0
  9
$UCSORGRIGHT
 10
0.0
 20
0.0
 30
0.0
  9
$UCSORGFRONT
 10
0.0
 20
0.0
 30
0.0
  9
$UCSORGBACK
 10
0.0
 20
0.0
 30
0.0
  9
$PUCSBASE
  2

  9
$PUCSNAME
  2

  9
$PUCSORG
 10
0.0
 20
0.0
 30
0.0
  9
$PUCSXDIR
 10
1.0
 20
0.0
 30
0.0
  9
$PUCSYDIR
 10
0.0
 20
1.0
 30
0.0
  9
$PUCSORTHOREF
  2

  9
$PUCSORTHOVIEW
 70
     0
  9
$PUCSORGTOP
 10
0.0
 20
0.0
 30
0.0
  9
$PUCSORGBOTTOM
 10
0.0
 20
0.0
 30
0.0
  9
$PUCSORGLEFT
 10
0.0
 20
0.0
 30
0.0
  9
$PUCSORGRIGHT
 10
0.0
 20
0.0
 30
0.0
  9
$PUCSORGFRONT
 10
0.0
 20
0.0
 30
0.0
  9
$PUCSORGBACK
 10
0.0
 20
0.0
 30
0.0
  9
$USERI1
 70
     0
  9
$USERI2
 70
     0
  9
$USERI3
 70
     0
  9
$USERI4
 70
     0
  9
$USERI5
 70
     0
  9
$USERR1
 40
0.0
  9
$USERR2
 40
0.0
  9
$USERR3
 40
0.0
  9
$USERR4
 40
0.0
  9
$USERR5
 40
0.0
  9
$WORLDVIEW
 70
     1
  9
$SHADEDGE
 70
     3
  9
$SHADEDIF
 70
    70
  9
$TILEMODE
 70
     1
  9
$MAXACTVP
 70
    64
  9
$PINSBASE
 10
0.0
 20
0.0
 30
0.0
  9
$PLIMCHECK
 70
     0
  9
$PEXTMIN
 10
1.0000000000E+20
 20
1.0000000000E+20
 30
1.0000000000E+20
  9
$PEXTMAX
 10
-1.0000000000E+20
 20
-1.0000000000E+20
 30
-1.0000000000E+20
  9
$PLIMMIN
 10
0.0
 20
0.0
  9
$PLIMMAX
 10
420.0
 20
297.0
  9
$UNITMODE
 70
     0
  9
$VISRETAIN
 70
     1
  9
$PLINEGEN
 70
     0
  9
$PSLTSCALE
 70
     1
  9
$TREEDEPTH
 70
  3020
  9
$CMLSTYLE
  2
Standard
  9
$CMLJUST
 70
     0
  9
$CMLSCALE
 40
20.0
  9
$PROXYGRAPHICS
 70
     1
  9
$MEASUREMENT
 70
     1
  9
$CELWEIGHT
370
    -1
  9
$ENDCAPS
280
     0
  9
$JOINSTYLE
280
     0
  9
$LWDISPLAY
290
     1
  9
$INSUNITS
 70
     4
  9
$HYPERLINKBASE
  1

  9
$STYLESHEET
  1

  9
$XEDIT
290
     1
  9
$CEPSNTYPE
380
     0
  9
$PSTYLEMODE
290
     1
  9
$FINGERPRINTGUID
  2
{6C89DC43-3030-4F16-B389-59B2798E9FB2}
  9
$VERSIONGUID
  2
{FAEB1C32-E019-11D5-929B-00C0DF256EC4}
  9
$EXTNAMES
290
     1
  9
$PSVPSCALE
 40
0.0
  9
$OLESTARTUP
290
     0
  0
ENDSEC
  0
SECTION
  2
CLASSES
  0
CLASS
  1
ACDBDICTIONARYWDFLT
  2
AcDbDictionaryWithDefault
  3
ObjectDBX Classes
 90
        0
280
     0
281
     0
  0
CLASS
  1
VISUALSTYLE
  2
AcDbVisualStyle
  3
ObjectDBX Classes
 90
     4095
280
     0
281
     0
  0
CLASS
  1
MATERIAL
  2
AcDbMaterial
  3
ObjectDBX Classes
 90
     1153
280
     0
281
     0
  0
CLASS
  1
ACDBPLACEHOLDER
  2
AcDbPlaceHolder
  3
ObjectDBX Classes
 90
        0
280
     0
281
     0
  0
CLASS
  1
LAYOUT
  2
AcDbLayout
  3
ObjectDBX Classes
 90
        0
280
     0
281
     0
  0
ENDSEC
  0
SECTION
  2
TABLES
  0
TABLE
  2
VPORT
  5
8
330
0
100
AcDbSymbolTable
 70
     1
  0
VPORT
  5
29
330
8
100
AcDbSymbolTableRecord
100
AcDbViewportTableRecord
  2
*Active
 70
     0
 10
0.0
 20
0.0
 11
1.0
 21
1.0
 12
210.0
 22
148.5
 13
0.0
 23
0.0
 14
10.0
 24
10.0
 15
10.0
 25
10.0
 16
0.0
 26
0.0
 36
1.0
 17
0.0
 27
0.0
 37
0.0
 40
297.0
 41
1.4141414141
 42
50.0
 43
0.0
 44
0.0
 50
0.0
 51
0.0
 71
     0
 72
  2000
 73
     1
 74
     3
 75
     0
 76
     0
 77
     0
 78
     0
281
     0
 65
     1
110
0.0
120
0.0
130
0.0
111
1.0
121
0.0
131
0.0
112
0.0
122
1.0
132
0.0
 79
     0
146
0.0
  0
ENDTAB
  0
TABLE
  2
LTYPE
  5
5
330
0
100
AcDbSymbolTable
 70
     6
  0
LTYPE
  5
14
330
5
100
AcDbSymbolTableRecord
100
AcDbLinetypeTableRecord
  2
ByBlock
 70
     0
  3

 72
    65
 73
     0
 40
0.0
  0
LTYPE
  5
15
330
5
100
AcDbSymbolTableRecord
100
AcDbLinetypeTableRecord
  2
ByLayer
 70
     0
  3

 72
    65
 73
     0
 40
0.0
  0
LTYPE
  5
16
330
5
100
AcDbSymbolTableRecord
100
AcDbLinetypeTableRecord
  2
Continuous
 70
     0
  3
Solid line
 72
    65
 73
     0
 40
0.0
  0
LTYPE
  5
3F
330
5
100
AcDbSymbolTableRecord
100
AcDbLinetypeTableRecord
  2
HIDDEN
 70
     0
  3
Hidden __ __ __ __ __ __ __ __ __ __ __ __ __ __
 72
    65
 73
     2
 40
1.905
 49
1.27
 74
     0
 49
-0.635
 74
     0
  0
LTYPE
  5
40
330
5
100
AcDbSymbolTableRecord
100
AcDbLinetypeTableRecord
  2
PHANTOM
 70
     0
  3
Phantom ______  __  __  ______  __  __  ______
 72
    65
 73
     6
 40
12.7
 49
6.35
 74
     0
 49
-1.27
 74
     0
 49
1.27
 74
     0
 49
-1.27
 74
     0
 49
1.27
 74
     0
 49
-1.27
 74
     0
  0
LTYPE
  5
41
330
5
100
AcDbSymbolTableRecord
100
AcDbLinetypeTableRecord
  2
CENTER
 70
     0
  3
Center ____ _ ____ _ ____ _ ____ _ ____ _ ____
 72
    65
 73
     4
 40
10.16
 49
6.35
 74
     0
 49
-1.27
 74
     0
 49
1.27
 74
     0
 49
-1.27
 74
     0
  0
LTYPE
  5
42
330
5
100
AcDbSymbolTableRecord
100
AcDbLinetypeTableRecord
  2
CENTERX2
 70
     0
  3
Center (2x) ________  __  ________  __  _____
 72
    65
 73
     4
 40
20.32
 49
12.7
 74
     0
 49
-2.54
 74
     0
 49
2.54
 74
     0
 49
-2.54
 74
     0
  0
LTYPE
  5
43
330
5
100
AcDbSymbolTableRecord
100
AcDbLinetypeTableRecord
  2
DOT2
 70
     0
  3
Dot (.5x) ........................................
 72
    65
 73
     2
 40
0.635
 49
0.0
 74
     0
 49
-0.635
 74
     0
  0
ENDTAB
  0
TABLE
  2
LAYER
  5
2
330
0
100
AcDbSymbolTable
 70
     1
  0
LAYER
  5
10
330
2
100
AcDbSymbolTableRecord
100
AcDbLayerTableRecord
  2
0
 70
     0
 62
     7
  6
Continuous
370
    -3
390
F
  0
ENDTAB
  0
TABLE
  2
STYLE
  5
3
330
0
100
AcDbSymbolTable
 70
     3
  0
STYLE
  5
11
330
3
100
AcDbSymbolTableRecord
100
AcDbTextStyleTableRecord
  2
Standard
 70
     0
 40
0.0
 41
1.0
 50
0.0
 71
     0
 42
2.5
  3
txt
  4
bigfont
  0
STYLE
  5
44
330
3
100
AcDbSymbolTableRecord
100
AcDbTextStyleTableRecord
  2
SLDTEXTSTYLE0
 70
     0
 40
0.0
 41
0.605
 50
0.0
 71
     0
 42
0.2
  3
TXT
  4
bigfont
  0
STYLE
  5
7F
330
3
100
AcDbSymbolTableRecord
100
AcDbTextStyleTableRecord
  2
SLDTEXTSTYLE1
 70
     0
 40
0.0
 41
0.7
 50
0.0
 71
     0
 42
0.2
  3
TXT
  4
bigfont
  0
ENDTAB
  0
TABLE
  2
VIEW
  5
6
330
0
100
AcDbSymbolTable
 70
     0
  0
ENDTAB
  0
TABLE
  2
UCS
  5
7
330
0
100
AcDbSymbolTable
 70
     0
  0
ENDTAB
  0
TABLE
  2
APPID
  5
9
330
0
100
AcDbSymbolTable
 70
     1
  0
APPID
  5
12
330
9
100
AcDbSymbolTableRecord
100
AcDbRegAppTableRecord
  2
ACAD
 70
     0
  0
ENDTAB
  0
TABLE
  2
DIMSTYLE
  5
A
330
0
100
AcDbSymbolTable
 70
     3
100
AcDbDimStyleTable
  0
DIMSTYLE
105
27
330
A
100
AcDbSymbolTableRecord
100
AcDbDimStyleTableRecord
  2
ISO-25
 70
     0
 41
2.5
 42
0.625
 43
3.75
 44
1.25
 73
     0
 74
     0
 77
     1
 78
     8
140
2.5
141
2.5
143
0.0393700787
147
0.625
171
     3
172
     1
178
     0
271
     2
272
     2
274
     3
278
    44
283
     0
284
     8
340
11
  0
DIMSTYLE
105
80
102
{ACAD_REACTORS
330
7E
330
A7
102
}
330
A
100
AcDbSymbolTableRecord
100
AcDbDimStyleTableRecord
  2
SLDDIMSTYLE0
 70
     0
 41
3.0
 44
0.0
 45
0.000000001
 73
     0
 74
     0
 77
     3
 78
    12
 79
     3
140
3.5
147
0.875
172
     1
173
     1
178
     0
271
     1
272
     1
276
     2
284
    12
289
     0
340
7F
341
81
343
81
344
81
  0
DIMSTYLE
105
93
102
{ACAD_REACTORS
330
92
330
9D
330
B3
330
305
330
30F
330
3F0
102
}
330
A
100
AcDbSymbolTableRecord
100
AcDbDimStyleTableRecord
  2
SLDDIMSTYLE1
 70
     0
 41
3.0
 44
0.0
 45
0.000000001
 73
     0
 74
     0
 77
     3
 78
    12
 79
     3
140
3.5
147
0.875
173
     1
178
     0
271
     1
272
     1
276
     2
284
    12
340
7F
341
81
343
81
344
81
  0
ENDTAB
  0
TABLE
  2
BLOCK_RECORD
  5
1
330
0
100
AcDbSymbolTable
 70
    12
  0
BLOCK_RECORD
  5
1F
330
1
100
AcDbSymbolTableRecord
100
AcDbBlockTableRecord
  2
*Model_Space
340
22
  0
BLOCK_RECORD
  5
1B
330
1
100
AcDbSymbolTableRecord
100
AcDbBlockTableRecord
  2
*Paper_Space
340
1E
  0
BLOCK_RECORD
  5
23
330
1
100
AcDbSymbolTableRecord
100
AcDbBlockTableRecord
  2
*Paper_Space0
340
26
  0
BLOCK_RECORD
  5
81
330
1
100
AcDbSymbolTableRecord
100
AcDbBlockTableRecord
  2
_OPEN30
340
0
102
{BLKREFS
331
8A
331
8B
331
97
331
98
331
A1
331
A2
331
AB
331
AC
331
B7
331
B8
331
309
331
30A
331
313
331
314
331
3F4
331
3F5
331
3FD
102
}
  0
BLOCK_RECORD
  5
87
330
1
100
AcDbSymbolTableRecord
100
AcDbBlockTableRecord
  2
*D2
340
0
  0
BLOCK_RECORD
  5
94
330
1
100
AcDbSymbolTableRecord
100
AcDbBlockTableRecord
  2
*D3
340
0
  0
BLOCK_RECORD
  5
9E
330
1
100
AcDbSymbolTableRecord
100
AcDbBlockTableRecord
  2
*D4
340
0
  0
BLOCK_RECORD
  5
A8
330
1
100
AcDbSymbolTableRecord
100
AcDbBlockTableRecord
  2
*D5
340
0
  0
BLOCK_RECORD
  5
B4
330
1
100
AcDbSymbolTableRecord
100
AcDbBlockTableRecord
  2
*D6
340
0
  0
BLOCK_RECORD
  5
306
330
1
100
AcDbSymbolTableRecord
100
AcDbBlockTableRecord
  2
*D7
340
0
  0
BLOCK_RECORD
  5
310
330
1
100
AcDbSymbolTableRecord
100
AcDbBlockTableRecord
  2
*D8
340
0
  0
BLOCK_RECORD
  5
3F1
330
1
100
AcDbSymbolTableRecord
100
AcDbBlockTableRecord
  2
*D9
340
0
  0
BLOCK_RECORD
  5
3FA
330
1
100
AcDbSymbolTableRecord
100
AcDbBlockTableRecord
  2
SW_RADIAL_DIMENSION_0
340
0
102
{BLKREFS
331
401
102
}
  0
BLOCK_RECORD
  5
402
330
1
100
AcDbSymbolTableRecord
100
AcDbBlockTableRecord
  2
SW_CENTERMARKSYMBOL_0
340
0
102
{BLKREFS
331
40D
102
}
  0
ENDTAB
  0
ENDSEC
  0
SECTION
  2
BLOCKS
  0
BLOCK
  5
20
330
1F
100
AcDbEntity
  8
0
100
AcDbBlockBegin
  2
*Model_Space
 70
     0
 10
0.0
 20
0.0
 30
0.0
  3
*Model_Space
  1

  0
ENDBLK
  5
21
330
1F
100
AcDbEntity
  8
0
100
AcDbBlockEnd
  0
BLOCK
  5
1C
330
1B
100
AcDbEntity
 67
     1
  8
0
100
AcDbBlockBegin
  2
*Paper_Space
 70
     0
 10
0.0
 20
0.0
 30
0.0
  3
*Paper_Space
  1

  0
ENDBLK
  5
1D
330
1B
100
AcDbEntity
 67
     1
  8
0
100
AcDbBlockEnd
  0
BLOCK
  5
24
330
23
100
AcDbEntity
  8
0
100
AcDbBlockBegin
  2
*Paper_Space0
 70
     0
 10
0.0
 20
0.0
 30
0.0
  3
*Paper_Space0
  1

  0
ENDBLK
  5
25
330
23
100
AcDbEntity
  8
0
100
AcDbBlockEnd
  0
BLOCK
  5
82
330
81
100
AcDbEntity
  8
0
100
AcDbBlockBegin
  2
_OPEN30
 70
     0
 10
0.0
 20
0.0
 30
0.0
  3
_OPEN30
  1

  0
LINE
  5
84
330
81
100
AcDbEntity
  8
0
  6
ByBlock
 62
     0
370
    -2
100
AcDbLine
 10
-1.0
 20
0.267949
 30
0.0
 11
0.0
 21
0.0
 31
0.0
  0
LINE
  5
85
330
81
100
AcDbEntity
  8
0
  6
ByBlock
 62
     0
370
    -2
100
AcDbLine
 10
0.0
 20
0.0
 30
0.0
 11
-1.0
 21
-0.267949
 31
0.0
  0
LINE
  5
86
330
81
100
AcDbEntity
  8
0
  6
ByBlock
 62
     0
370
    -2
100
AcDbLine
 10
0.0
 20
0.0
 30
0.0
 11
-1.0
 21
0.0
 31
0.0
  0
ENDBLK
  5
83
330
81
100
AcDbEntity
  8
0
100
AcDbBlockEnd
  0
BLOCK
  5
88
330
87
100
AcDbEntity
  8
0
100
AcDbBlockBegin
  2
*D2
 70
     1
 10
0.0
 20
0.0
 30
0.0
  3
*D2
  1

  0
INSERT
  5
8A
330
87
100
AcDbEntity
  8
0
  6
Continuous
 62
     7
370
     0
100
AcDbBlockReference
  2
_OPEN30
 10
213.9618777969
 20
214.2425404475
 30
27.9115354978
 41
3.0
 42
3.0
 50
180.0
  0
INSERT
  5
8B
330
87
100
AcDbEntity
  8
0
  6
Continuous
 62
     7
370
     0
100
AcDbBlockReference
  2
_OPEN30
 10
204.9618777969
 20
214.2425404475
 30
27.9115354978
 41
3.0
 42
3.0
 50
0.0
  0
LINE
  5
8C
330
87
100
AcDbEntity
  8
0
  6
Continuous
 62
     7
370
     0
100
AcDbLine
 10
213.9618777969
 20
205.2425404475
 30
0.0
 11
213.9618777969
 21
215.2425404475
 31
0.0
  0
LINE
  5
8D
330
87
100
AcDbEntity
  8
0
  6
Continuous
 62
     7
370
     0
100
AcDbLine
 10
204.9618777969
 20
205.2425404475
 30
0.0
 11
204.9618777969
 21
215.2425404475
 31
0.0
  0
LINE
  5
8E
330
87
100
AcDbEntity
  8
0
  6
Continuous
 62
     7
370
     0
100
AcDbLine
 10
213.9618777969
 20
214.2425404475
 30
0.0
 11
218.9618777969
 21
214.2425404475
 31
0.0
  0
LINE
  5
8F
330
87
100
AcDbEntity
  8
0
  6
Continuous
 62
     7
370
     0
100
AcDbLine
 10
213.9618777969
 20
214.2425404475
 30
0.0
 11
204.9618777969
 21
214.2425404475
 31
0.0
  0
LINE
  5
90
330
87
100
AcDbEntity
  8
0
  6
Continuous
 62
     7
370
     0
100
AcDbLine
 10
204.9618777969
 20
214.2425404475
 30
0.0
 11
199.9618777969
 21
214.2425404475
 31
0.0
  0
MTEXT
  5
91
330
87
100
AcDbEntity
  8
0
  6
Continuous
 62
     7
370
     0
100
AcDbMText
 10
207.2157911196
 20
218.7542773039
 30
27.9115354978
 40
3.5
 41
0.0
 71
     1
 72
     1
  1
9
  7
SLDTEXTSTYLE1
 73
     1
 44
1.0
  0
ENDBLK
  5
89
330
87
100
AcDbEntity
  8
0
100
AcDbBlockEnd
  0
BLOCK
  5
95
330
94
100
AcDbEntity
  8
0
100
AcDbBlockBegin
  2
*D3
 70
     1
 10
0.0
 20
0.0
 30
0.0
  3
*D3
  1

  0
INSERT
  5
97
330
94
100
AcDbEntity
  8
0
  6
Continuous
 62
     7
370
     0
100
AcDbBlockReference
  2
_OPEN30
 10
213.9618777969
 20
220.2425404475
 30
27.9115354978
 41
3.0
 42
3.0
 50
0.0
  0
INSERT
  5
98
330
94
100
AcDbEntity
  8
0
  6
Continuous
 62
     7
370
     0
100
AcDbBlockReference
  2
_OPEN30
 10
196.9618777969
 20
220.2425404475
 30
27.9115354978
 41
3.0
 42
3.0
 50
180.0
  0
LINE
  5
99
330
94
100
AcDbEntity
  8
0
  6
Continuous
 62
     7
370
     0
100
AcDbLine
 10
213.9618777969
 20
205.2425404475
 30
0.0
 11
213.9618777969
 21
221.2425404475
 31
0.0
  0
LINE
  5
9A
330
94
100
AcDbEntity
  8
0
  6
Continuous
 62
     7
370
     0
100
AcDbLine
 10
196.9618777969
 20
156.942845034
 30
0.0
 11
196.9618777969
 21
221.2425404475
 31
0.0
  0
LINE
  5
9B
330
94
100
AcDbEntity
  8
0
  6
Continuous
 62
     7
370
     0
100
AcDbLine
 10
213.9618777969
 20
220.2425404475
 30
0.0
 11
196.9618777969
 21
220.2425404475
 31
0.0
  0
MTEXT
  5
9C
330
94
100
AcDbEntity
  8
0
  6
Continuous
 62
     7
370
     0
100
AcDbMText
 10
203.0051159721
 20
224.7542773039
 30
27.9115354978
 40
3.5
 41
0.0
 71
     1
 72
     1
  1
17
  7
SLDTEXTSTYLE1
 73
     1
 44
1.0
  0
ENDBLK
  5
96
330
94
100
AcDbEntity
  8
0
100
AcDbBlockEnd
  0
BLOCK
  5
9F
330
9E
100
AcDbEntity
  8
0
100
AcDbBlockBegin
  2
*D4
 70
     1
 10
0.0
 20
0.0
 30
0.0
  3
*D4
  1

  0
INSERT
  5
A1
330
9E
100
AcDbEntity
  8
0
  6
Continuous
 62
     7
370
     0
100
AcDbBlockReference
  2
_OPEN30
 10
186.9618777969
 20
156.4425404475
 30
27.9115354978
 41
3.0
 42
3.0
 50
90.0
  0
INSERT
  5
A2
330
9E
100
AcDbEntity
  8
0
  6
Continuous
 62
     7
370
     0
100
AcDbBlockReference
  2
_OPEN30
 10
186.9618777969
 20
86.4425404475
 30
27.9115354978
 41
3.0
 42
3.0
 50
270.0
  0
LINE
  5
A3
330
9E
100
AcDbEntity
  8
0
  6
Continuous
 62
     7
370
     0
100
AcDbLine
 10
195.9618777969
 20
156.4425404475
 30
0.0
 11
185.9618777969
 21
156.4425404475
 31
0.0
  0
LINE
  5
A4
330
9E
100
AcDbEntity
  8
0
  6
Continuous
 62
     7
370
     0
100
AcDbLine
 10
195.9618777969
 20
86.4425404475
 30
0.0
 11
185.9618777969
 21
86.4425404475
 31
0.0
  0
LINE
  5
A5
330
9E
100
AcDbEntity
  8
0
  6
Continuous
 62
     7
370
     0
100
AcDbLine
 10
186.9618777969
 20
156.4425404475
 30
0.0
 11
186.9618777969
 21
86.4425404475
 31
0.0
  0
MTEXT
  5
A6
330
9E
100
AcDbEntity
  8
0
  6
Continuous
 62
     7
370
     0
100
AcDbMText
 10
182.4501409405
 20
116.9840069293
 30
27.9115354978
 40
3.5
 41
0.0
 71
     1
 72
     1
  1
70
  7
SLDTEXTSTYLE1
 11
-7.044195017643634E-15
 21
1.0
 31
0.0
 73
     1
 44
1.0
  0
ENDBLK
  5
A0
330
9E
100
AcDbEntity
  8
0
100
AcDbBlockEnd
  0
BLOCK
  5
A9
330
A8
100
AcDbEntity
  8
0
100
AcDbBlockBegin
  2
*D5
 70
     1
 10
0.0
 20
0.0
 30
0.0
  3
*D5
  1

  0
INSERT
  5
AB
330
A8
100
AcDbEntity
  8
0
  6
Continuous
 62
     7
370
     0
100
AcDbBlockReference
  2
_OPEN30
 10
186.9618777969
 20
86.4425404475
 30
27.9115354978
 41
3.0
 42
3.0
 50
270.0
  0
INSERT
  5
AC
330
A8
100
AcDbEntity
  8
0
  6
Continuous
 62
     7
370
     0
100
AcDbBlockReference
  2
_OPEN30
 10
186.9618777969
 20
81.4425404475
 30
27.9115354978
 41
3.0
 42
3.0
 50
90.0
  0
LINE
  5
AD
330
A8
100
AcDbEntity
  8
0
  6
Continuous
 62
     7
370
     0
100
AcDbLine
 10
195.9618777969
 20
86.4425404475
 30
0.0
 11
185.9618777969
 21
86.4425404475
 31
0.0
  0
LINE
  5
AE
330
A8
100
AcDbEntity
  8
0
  6
Continuous
 62
     7
370
     0
100
AcDbLine
 10
199.9618777969
 20
81.4425404475
 30
0.0
 11
185.9618777969
 21
81.4425404475
 31
0.0
  0
LINE
  5
AF
330
A8
100
AcDbEntity
  8
0
  6
Continuous
 62
     7
370
     0
100
AcDbLine
 10
186.9618777969
 20
86.4425404475
 30
0.0
 11
186.9618777969
 21
91.4425404475
 31
0.0
  0
LINE
  5
B0
330
A8
100
AcDbEntity
  8
0
  6
Continuous
 62
     7
370
     0
100
AcDbLine
 10
186.9618777969
 20
86.4425404475
 30
0.0
 11
186.9618777969
 21
81.4425404475
 31
0.0
  0
LINE
  5
B1
330
A8
100
AcDbEntity
  8
0
  6
Continuous
 62
     7
370
     0
100
AcDbLine
 10
186.9618777969
 20
81.4425404475
 30
0.0
 11
186.9618777969
 21
76.4425404475
 31
0.0
  0
MTEXT
  5
B2
330
A8
100
AcDbEntity
  8
0
  6
Continuous
 62
     7
370
     0
100
AcDbMText
 10
182.4501409405
 20
81.6361068037
 30
27.9115354978
 40
3.5
 41
0.0
 71
     1
 72
     1
  1
5
  7
SLDTEXTSTYLE1
 11
-7.044195017643634E-15
 21
1.0
 31
0.0
 73
     1
 44
1.0
  0
ENDBLK
  5
AA
330
A8
100
AcDbEntity
  8
0
100
AcDbBlockEnd
  0
BLOCK
  5
B5
330
B4
100
AcDbEntity
  8
0
100
AcDbBlockBegin
  2
*D6
 70
     1
 10
0.0
 20
0.0
 30
0.0
  3
*D6
  1

  0
INSERT
  5
B7
330
B4
100
AcDbEntity
  8
0
  6
Continuous
 62
     7
370
     0
100
AcDbBlockReference
  2
_OPEN30
 10
178.3175113361
 20
204.2425404475
 30
27.9115354978
 41
3.0
 42
3.0
 50
90.0
  0
INSERT
  5
B8
330
B4
100
AcDbEntity
  8
0
  6
Continuous
 62
     7
370
     0
100
AcDbBlockReference
  2
_OPEN30
 10
178.3175113361
 20
54.2425404475
 30
27.9115354978
 41
3.0
 42
3.0
 50
270.0
  0
LINE
  5
B9
330
B4
100
AcDbEntity
  8
0
  6
Continuous
 62
     7
370
     0
100
AcDbLine
 10
203.9618777969
 20
204.2425404475
 30
0.0
 11
177.3175113361
 21
204.2425404475
 31
0.0
  0
LINE
  5
BA
330
B4
100
AcDbEntity
  8
0
  6
Continuous
 62
     7
370
     0
100
AcDbLine
 10
203.9618777969
 20
54.2425404475
 30
0.0
 11
177.3175113361
 21
54.2425404475
 31
0.0
  0
LINE
  5
BB
330
B4
100
AcDbEntity
  8
0
  6
Continuous
 62
     7
370
     0
100
AcDbLine
 10
178.3175113361
 20
204.2425404475
 30
0.0
 11
178.3175113361
 21
54.2425404475
 31
0.0
  0
MTEXT
  5
BC
330
B4
100
AcDbEntity
  8
0
  6
Continuous
 62
     7
370
     0
100
AcDbMText
 10
173.8057744797
 20
125.6521738356
 30
27.9115354978
 40
3.5
 41
0.0
 71
     1
 72
     1
  1
150
  7
SLDTEXTSTYLE1
 11
-7.044195017643634E-15
 21
1.0
 31
0.0
 73
     1
 44
1.0
  0
ENDBLK
  5
B6
330
B4
100
AcDbEntity
  8
0
100
AcDbBlockEnd
  0
BLOCK
  5
307
330
306
100
AcDbEntity
  8
0
100
AcDbBlockBegin
  2
*D7
 70
     1
 10
0.0
 20
0.0
 30
0.0
  3
*D7
  1

  0
INSERT
  5
309
330
306
100
AcDbEntity
  8
0
  6
Continuous
 62
     7
370
     0
100
AcDbBlockReference
  2
_OPEN30
 10
123.0580567986
 20
214.2425404475
 30
-2.4836078794
 41
3.0
 42
3.0
 50
180.0
  0
INSERT
  5
30A
330
306
100
AcDbEntity
  8
0
  6
Continuous
 62
     7
370
     0
100
AcDbBlockReference
  2
_OPEN30
 10
139.0580567986
 20
214.2425404475
 30
-2.4836078794
 41
3.0
 42
3.0
 50
0.0
  0
LINE
  5
30B
330
306
100
AcDbEntity
  8
0
  6
Continuous
 62
     7
370
     0
100
AcDbLine
 10
123.0580567986
 20
205.2425404475
 30
0.0
 11
123.0580567986
 21
215.2425404475
 31
0.0
  0
LINE
  5
30C
330
306
100
AcDbEntity
  8
0
  6
Continuous
 62
     7
370
     0
100
AcDbLine
 10
139.0580567986
 20
205.2425404475
 30
0.0
 11
139.0580567986
 21
215.2425404475
 31
0.0
  0
LINE
  5
30D
330
306
100
AcDbEntity
  8
0
  6
Continuous
 62
     7
370
     0
100
AcDbLine
 10
123.0580567986
 20
214.2425404475
 30
0.0
 11
139.0580567986
 21
214.2425404475
 31
0.0
  0
MTEXT
  5
30E
330
306
100
AcDbEntity
  8
0
  6
Continuous
 62
     7
370
     0
100
AcDbMText
 10
127.626440429
 20
218.7542773039
 30
-2.4836078794
 40
3.5
 41
0.0
 71
     1
 72
     1
  1
16
  7
SLDTEXTSTYLE1
 73
     1
 44
1.0
  0
ENDBLK
  5
308
330
306
100
AcDbEntity
  8
0
100
AcDbBlockEnd
  0
BLOCK
  5
311
330
310
100
AcDbEntity
  8
0
100
AcDbBlockBegin
  2
*D8
 70
     1
 10
0.0
 20
0.0
 30
0.0
  3
*D8
  1

  0
INSERT
  5
313
330
310
100
AcDbEntity
  8
0
  6
Continuous
 62
     7
370
     0
100
AcDbBlockReference
  2
_OPEN30
 10
121.0580567986
 20
220.7121943181
 30
-2.4836078794
 41
3.0
 42
3.0
 50
180.0
  0
INSERT
  5
314
330
310
100
AcDbEntity
  8
0
  6
Continuous
 62
     7
370
     0
100
AcDbBlockReference
  2
_OPEN30
 10
141.0580567986
 20
220.7121943181
 30
-2.4836078794
 41
3.0
 42
3.0
 50
0.0
  0
LINE
  5
315
330
310
100
AcDbEntity
  8
0
  6
Continuous
 62
     7
370
     0
100
AcDbLine
 10
121.0580567986
 20
156.942845034
 30
0.0
 11
121.0580567986
 21
221.7121943181
 31
0.0
  0
LINE
  5
316
330
310
100
AcDbEntity
  8
0
  6
Continuous
 62
     7
370
     0
100
AcDbLine
 10
141.0580567986
 20
156.942845034
 30
0.0
 11
141.0580567986
 21
221.7121943181
 31
0.0
  0
LINE
  5
317
330
310
100
AcDbEntity
  8
0
  6
Continuous
 62
     7
370
     0
100
AcDbLine
 10
121.0580567986
 20
220.7121943181
 30
0.0
 11
141.0580567986
 21
220.7121943181
 31
0.0
  0
MTEXT
  5
318
330
310
100
AcDbEntity
  8
0
  6
Continuous
 62
     7
370
     0
100
AcDbMText
 10
127.626440429
 20
225.2239311744
 30
-2.4836078794
 40
3.5
 41
0.0
 71
     1
 72
     1
  1
20
  7
SLDTEXTSTYLE1
 73
     1
 44
1.0
  0
ENDBLK
  5
312
330
310
100
AcDbEntity
  8
0
100
AcDbBlockEnd
  0
BLOCK
  5
3F2
330
3F1
100
AcDbEntity
  8
0
100
AcDbBlockBegin
  2
*D9
 70
     1
 10
0.0
 20
0.0
 30
0.0
  3
*D9
  1

  0
INSERT
  5
3F4
330
3F1
100
AcDbEntity
  8
0
  6
Continuous
 62
     7
370
     0
100
AcDbBlockReference
  2
_OPEN30
 10
260.7410378657
 20
204.2425404475
 30
2.6836078794
 41
3.0
 42
3.0
 50
90.0
  0
INSERT
  5
3F5
330
3F1
100
AcDbEntity
  8
0
  6
Continuous
 62
     7
370
     0
100
AcDbBlockReference
  2
_OPEN30
 10
260.7410378657
 20
129.2425404475
 30
2.6836078794
 41
3.0
 42
3.0
 50
270.0
  0
LINE
  5
3F6
330
3F1
100
AcDbEntity
  8
0
  6
Continuous
 62
     7
370
     0
100
AcDbLine
 10
272.7410378657
 20
204.2425404475
 30
0.0
 11
259.7410378657
 21
204.2425404475
 31
0.0
  0
LINE
  5
3F7
330
3F1
100
AcDbEntity
  8
0
  6
Continuous
 62
     7
370
     0
100
AcDbLine
 10
275.5910378657
 20
129.2425404475
 30
0.0
 11
259.7410378657
 21
129.2425404475
 31
0.0
  0
LINE
  5
3F8
330
3F1
100
AcDbEntity
  8
0
  6
Continuous
 62
     7
370
     0
100
AcDbLine
 10
260.7410378657
 20
204.2425404475
 30
0.0
 11
260.7410378657
 21
129.2425404475
 31
0.0
  0
MTEXT
  5
3F9
330
3F1
100
AcDbEntity
  8
0
  6
Continuous
 62
     7
370
     0
100
AcDbMText
 10
256.2293010094
 20
163.5723049131
 30
2.6836078794
 40
3.5
 41
0.0
 71
     1
 72
     1
  1
75
  7
SLDTEXTSTYLE1
 11
-7.044195017643634E-15
 21
1.0
 31
0.0
 73
     1
 44
1.0
  0
ENDBLK
  5
3F3
330
3F1
100
AcDbEntity
  8
0
100
AcDbBlockEnd
  0
BLOCK
  5
3FB
330
3FA
100
AcDbEntity
  8
0
100
AcDbBlockBegin
  2
SW_RADIAL_DIMENSION_0
 70
     0
 10
0.0
 20
0.0
 30
0.0
  3
SW_RADIAL_DIMENSION_0
  1

  0
INSERT
  5
3FD
330
3FA
100
AcDbEntity
  8
0
  6
Continuous
 62
     0
370
     0
100
AcDbBlockReference
  2
_OPEN30
 10
-20.3976418364
 20
-32.5801211253
 30
2.6836078794
 41
3.0
 42
3.0
 50
240.0
  0
LINE
  5
3FE
330
3FA
100
AcDbEntity
  8
0
  6
Continuous
 62
     0
370
     0
100
AcDbLine
 10
-20.3976418364
 20
-32.5801211253
 30
0.0
 11
-1.5875
 21
0.0000002328
 31
0.0
  0
LINE
  5
3FF
330
3FA
100
AcDbEntity
  8
0
  6
Continuous
 62
     0
370
     0
100
AcDbLine
 10
-1.5875
 20
0.0000002328
 30
0.0
 11
8.9736105874
 21
0.0000002328
 31
0.0
  0
MTEXT
  5
400
330
3FA
100
AcDbEntity
  8
0
  6
Continuous
 62
     0
370
     0
100
AcDbMText
 10
0.0
 20
4.5117370892
 30
2.6836078794
 40
3.5
 41
0.0
 71
     1
 72
     1
  1
2xM4
  7
SLDTEXTSTYLE1
 73
     1
 44
1.0
  0
ENDBLK
  5
3FC
330
3FA
100
AcDbEntity
  8
0
100
AcDbBlockEnd
  0
BLOCK
  5
403
330
402
100
AcDbEntity
  8
0
100
AcDbBlockBegin
  2
SW_CENTERMARKSYMBOL_0
 70
     0
 10
0.0
 20
0.0
 30
0.0
  3
SW_CENTERMARKSYMBOL_0
  1

  0
LINE
  5
405
330
402
100
AcDbEntity
  8
0
  6
Continuous
 62
     0
370
     0
100
AcDbLine
 10
0.0
 20
0.0
 30
0.0
 11
0.0
 21
2.5
 31
0.0
  0
LINE
  5
406
330
402
100
AcDbEntity
  8
0
  6
Continuous
 62
     0
370
     0
100
AcDbLine
 10
0.0
 20
0.0
 30
0.0
 11
-2.5
 21
0.0
 31
0.0
  0
LINE
  5
407
330
402
100
AcDbEntity
  8
0
  6
Continuous
 62
     0
370
     0
100
AcDbLine
 10
0.0
 20
0.0
 30
0.0
 11
0.0
 21
-2.5
 31
0.0
  0
LINE
  5
408
330
402
100
AcDbEntity
  8
0
  6
Continuous
 62
     0
370
     0
100
AcDbLine
 10
0.0
 20
0.0
 30
0.0
 11
2.5
 21
0.0
 31
0.0
  0
LINE
  5
409
330
402
100
AcDbEntity
  8
0
  6
Continuous
 62
     0
370
     0
100
AcDbLine
 10
0.0
 20
2.5
 30
0.0
 11
0.0
 21
4.15
 31
0.0
  0
LINE
  5
40A
330
402
100
AcDbEntity
  8
0
  6
Continuous
 62
     0
370
     0
100
AcDbLine
 10
-2.5
 20
0.0
 30
0.0
 11
-4.15
 21
0.0
 31
0.0
  0
LINE
  5
40B
330
402
100
AcDbEntity
  8
0
  6
Continuous
 62
     0
370
     0
100
AcDbLine
 10
0.0
 20
-2.5
 30
0.0
 11
0.0
 21
-4.15
 31
0.0
  0
LINE
  5
40C
330
402
100
AcDbEntity
  8
0
  6
Continuous
 62
     0
370
     0
100
AcDbLine
 10
2.5
 20
0.0
 30
0.0
 11
4.15
 21
0.0
 31
0.0
  0
ENDBLK
  5
404
330
402
100
AcDbEntity
  8
0
100
AcDbBlockEnd
  0
ENDSEC
  0
SECTION
  2
ENTITIES
  0
MTEXT
  5
45
330
1F
100
AcDbEntity
  8
0
  6
Continuous
 62
     7
370
     0
100
AcDbMText
 10
389.296074002
 20
15.8507863314
 30
0.0
 40
9.2604166667
 41
0.0
 71
     3
 72
     1
  1
CY7-P174
  7
SLDTEXTSTYLE0
 73
     1
 44
1.0
  0
LINE
  5
46
330
1F
100
AcDbEntity
  8
0
  6
Continuous
 62
     7
370
    15
100
AcDbLine
 10
212.9618779431
 20
204.2425381974
 30
0.0
 11
212.9618779431
 21
54.2425396875
 31
0.0
  0
LINE
  5
47
330
1F
100
AcDbEntity
  8
0
  6
Continuous
 62
     7
370
    15
100
AcDbLine
 10
212.9618779431
 20
204.2425381974
 30
0.0
 11
213.9618776413
 21
204.2425381974
 31
0.0
  0
LINE
  5
48
330
1F
100
AcDbEntity
  8
0
  6
Continuous
 62
     7
370
    15
100
AcDbLine
 10
213.9618776413
 20
204.2425381974
 30
0.0
 11
213.9618776413
 21
54.2425396875
 31
0.0
  0
LINE
  5
49
330
1F
100
AcDbEntity
  8
0
  6
Continuous
 62
     7
370
    15
100
AcDbLine
 10
212.9618779431
 20
54.2425396875
 30
0.0
 11
213.9618776413
 21
54.2425396875
 31
0.0
  0
LINE
  5
4A
330
1F
100
AcDbEntity
  8
0
  6
Continuous
 62
     7
370
    15
100
AcDbLine
 10
205.2618777519
 20
204.2425381974
 30
0.0
 11
212.9618779431
 21
204.2425381974
 31
0.0
  0
LINE
  5
4B
330
1F
100
AcDbEntity
  8
0
  6
Continuous
 62
     7
370
    15
100
AcDbLine
 10
205.2618777519
 20
54.2425396875
 30
0.0
 11
212.9618779431
 21
54.2425396875
 31
0.0
  0
LINE
  5
4C
330
1F
100
AcDbEntity
  8
0
  6
Continuous
 62
     7
370
    15
100
AcDbLine
 10
204.9618777959
 20
204.2425381974
 30
0.0
 11
204.9618777959
 21
156.1631741956
 31
0.0
  0
LINE
  5
4D
330
1F
100
AcDbEntity
  8
0
  6
Continuous
 62
     7
370
    15
100
AcDbLine
 10
204.9618777959
 20
86.7219059751
 30
0.0
 11
204.9618777959
 21
54.2425396875
 31
0.0
  0
LINE
  5
4E
330
1F
100
AcDbEntity
  8
0
  6
Continuous
 62
     7
370
    15
100
AcDbLine
 10
204.9618777959
 20
204.2425381974
 30
0.0
 11
205.2618777519
 21
204.2425381974
 31
0.0
  0
LINE
  5
4F
330
1F
100
AcDbEntity
  8
0
  6
Continuous
 62
     7
370
    15
100
AcDbLine
 10
204.9618777959
 20
54.2425396875
 30
0.0
 11
205.2618777519
 21
54.2425396875
 31
0.0
  0
LINE
  5
50
330
1F
100
AcDbEntity
  8
0
  6
Continuous
 62
     7
370
    15
100
AcDbLine
 10
197.8189333016
 20
86.4724698499
 30
0.0
 11
198.9618775109
 21
86.4425408677
 31
0.0
  0
LINE
  5
51
330
1F
100
AcDbEntity
  8
0
  6
Continuous
 62
     7
370
    15
100
AcDbLine
 10
200.9618778387
 20
83.4425403759
 30
0.0
 11
200.9618778387
 21
86.5822243527
 31
0.0
  0
LINE
  5
52
330
1F
100
AcDbEntity
  8
0
  6
Continuous
 62
     7
370
    15
100
AcDbLine
 10
198.9618775109
 20
83.4425403759
 30
0.0
 11
200.9618778387
 21
83.4425403759
 31
0.0
  0
LINE
  5
53
330
1F
100
AcDbEntity
  8
0
  6
Continuous
 62
     7
370
    15
100
AcDbLine
 10
198.9618775109
 20
83.4425403759
 30
0.0
 11
198.9618775109
 21
86.4425408677
 31
0.0
  0
LINE
  5
54
330
1F
100
AcDbEntity
  8
0
  6
Continuous
 62
     7
370
    15
100
AcDbLine
 10
200.9618778387
 20
81.4425400481
 30
0.0
 11
198.9618775109
 21
81.4949120418
 31
0.0
  0
LINE
  5
55
330
1F
100
AcDbEntity
  8
0
  6
Continuous
 62
     7
370
    15
100
AcDbLine
 10
198.9618775109
 20
81.4949120418
 30
0.0
 11
198.9618775109
 21
83.4425403759
 31
0.0
  0
LINE
  5
56
330
1F
100
AcDbEntity
  8
0
  6
Continuous
 62
     7
370
    15
100
AcDbLine
 10
200.9618778387
 20
83.4425403759
 30
0.0
 11
200.9618778387
 21
81.4425400481
 31
0.0
  0
LINE
  5
57
330
1F
100
AcDbEntity
  8
0
  6
Continuous
 62
     7
370
    15
100
AcDbLine
 10
199.6630656207
 20
111.4198695891
 30
0.0
 11
199.5570624853
 21
113.4425406367
 31
0.0
  0
ARC
  5
58
330
1F
100
AcDbEntity
  8
0
  6
Continuous
 62
     7
370
    15
100
AcDbCircle
 10
197.9618777969
 20
111.2848910531
 30
0.0
 40
0.5000000000000046
100
AcDbArc
 50
145.0
 51
180.0
  0
LINE
  5
59
330
1F
100
AcDbEntity
  8
0
  6
Continuous
 62
     7
370
    15
100
AcDbLine
 10
198.7727175141
 20
113.3146132365
 30
0.0
 11
197.5523021678
 21
111.5716793597
 31
0.0
  0
ARC
  5
5A
330
1F
100
AcDbEntity
  8
0
  6
Continuous
 62
     7
370
    15
100
AcDbCircle
 10
199.0184629885
 20
113.1425404475
 30
0.0
 40
0.2999999999999972
100
AcDbArc
 50
90.0
 51
145.0
  0
LINE
  5
5B
330
1F
100
AcDbEntity
  8
0
  6
Continuous
 62
     7
370
    15
100
AcDbLine
 10
199.5570624853
 20
113.4425406367
 30
0.0
 11
199.0184628079
 21
113.4425406367
 31
0.0
  0
LINE
  5
5C
330
1F
100
AcDbEntity
  8
0
  6
Continuous
 62
     7
370
    15
100
AcDbLine
 10
197.4618781964
 20
110.8727201377
 30
0.0
 11
197.4618781964
 21
111.2848911457
 31
0.0
  0
LINE
  5
5D
330
1F
100
AcDbEntity
  8
0
  6
Continuous
 62
     7
370
    15
100
AcDbLine
 10
198.9618775109
 20
81.4949120418
 30
0.0
 11
197.4618781964
 21
81.5341915027
 31
0.0
  0
LINE
  5
5E
330
1F
100
AcDbEntity
  8
0
  6
Continuous
 62
     7
370
    15
100
AcDbLine
 10
197.4618781964
 20
81.5341915027
 30
0.0
 11
197.4618781964
 21
86.4600013033
 31
0.0
  0
ARC
  5
5F
330
1F
100
AcDbEntity
  8
0
  6
Continuous
 62
     7
370
    15
100
AcDbCircle
 10
198.1060680829
 20
111.0926464051
 30
0.0
 40
0.3000000000000123
100
AcDbArc
 50
91.0
 51
135.0
  0
LINE
  5
60
330
1F
100
AcDbEntity
  8
0
  6
Continuous
 62
     7
370
    15
100
AcDbLine
 10
198.1008325378
 20
111.3926006969
 30
0.0
 11
200.9618778387
 21
111.4425405417
 31
0.0
  0
LINE
  5
61
330
1F
100
AcDbEntity
  8
0
  6
Continuous
 62
     7
370
    15
100
AcDbLine
 10
200.9618778387
 20
111.4425405417
 30
0.0
 11
200.9618778387
 21
146.7425408796
 31
0.0
  0
LINE
  5
62
330
1F
100
AcDbEntity
  8
0
  6
Continuous
 62
     7
370
    15
100
AcDbLine
 10
200.9618778387
 20
146.7425408796
 30
0.0
 11
196.9618781144
 21
146.7425408796
 31
0.0
  0
LINE
  5
63
330
1F
100
AcDbEntity
  8
0
  6
Continuous
 62
     7
370
    15
100
AcDbLine
 10
196.9618781144
 20
146.7425408796
 30
0.0
 11
196.9618781144
 21
155.9428456262
 31
0.0
  0
LINE
  5
64
330
1F
100
AcDbEntity
  8
0
  6
Continuous
 62
     7
370
    15
100
AcDbLine
 10
204.9618777959
 20
155.6634786562
 30
0.0
 11
196.9618781144
 21
155.9428456262
 31
0.0
  0
LINE
  5
65
330
1F
100
AcDbEntity
  8
0
  6
Continuous
 62
     7
370
    15
100
AcDbLine
 10
204.9618777959
 20
87.2216015146
 30
0.0
 11
204.9618777959
 21
155.6634786562
 31
0.0
  0
LINE
  5
66
330
1F
100
AcDbEntity
  8
0
  6
Continuous
 62
     7
370
    15
100
AcDbLine
 10
196.9618781144
 20
86.9422364071
 30
0.0
 11
204.9618777959
 21
87.2216015146
 31
0.0
  0
LINE
  5
67
330
1F
100
AcDbEntity
  8
0
  6
Continuous
 62
     7
370
    15
100
AcDbLine
 10
196.9618781144
 20
86.9422364071
 30
0.0
 11
196.9618781144
 21
110.2484561293
 31
0.0
  0
ARC
  5
68
330
1F
100
AcDbEntity
  8
0
  6
Continuous
 62
     7
370
    15
100
AcDbCircle
 10
197.2618777969
 20
110.2484561191
 30
0.0
 40
0.2999999999999944
100
AcDbArc
 50
135.0
 51
180.0
  0
LINE
  5
69
330
1F
100
AcDbEntity
  8
0
  6
Continuous
 62
     7
370
    15
100
AcDbLine
 10
197.8939364339
 20
111.3047783751
 30
0.0
 11
197.0497456054
 21
110.4605881287
 31
0.0
  0
LINE
  5
6A
330
1F
100
AcDbEntity
  8
0
  6
Continuous
 62
     7
370
    15
100
AcDbLine
 10
196.9618781144
 20
156.4425411657
 30
0.0
 11
204.9618777959
 21
156.1631741956
 31
0.0
  0
LINE
  5
6B
330
1F
100
AcDbEntity
  8
0
  6
Continuous
 62
     7
370
    15
100
AcDbLine
 10
204.9618777959
 20
156.1631741956
 30
0.0
 11
204.9618777959
 21
155.6634786562
 31
0.0
  0
LINE
  5
6C
330
1F
100
AcDbEntity
  8
0
  6
Continuous
 62
     7
370
    15
100
AcDbLine
 10
196.9618781144
 20
155.9428456262
 30
0.0
 11
196.9618781144
 21
156.4425411657
 31
0.0
  0
LINE
  5
6D
330
1F
100
AcDbEntity
  8
0
  6
Continuous
 62
     7
370
    15
100
AcDbLine
 10
204.9618777959
 20
87.2216015146
 30
0.0
 11
204.9618777959
 21
86.7219059751
 31
0.0
  0
LINE
  5
6E
330
1F
100
AcDbEntity
  8
0
  6
Continuous
 62
     7
370
    15
100
AcDbLine
 10
204.9618777959
 20
86.7219059751
 30
0.0
 11
196.9618781144
 21
86.4425408677
 31
0.0
  0
LINE
  5
6F
330
1F
100
AcDbEntity
  8
0
  6
Continuous
 62
     7
370
    15
100
AcDbLine
 10
196.9618781144
 20
86.4425408677
 30
0.0
 11
196.9618781144
 21
86.9422364071
 31
0.0
  0
LINE
  5
70
330
1F
100
AcDbEntity
  8
0
  6
Continuous
 62
     7
370
    15
100
AcDbLine
 10
200.7618777128
 20
114.5925405458
 30
0.0
 11
200.7618777128
 21
115.292540288
 31
0.0
  0
ARC
  5
71
330
1F
100
AcDbEntity
  8
0
  6
Continuous
 62
     7
370
    15
100
AcDbCircle
 10
201.2618777969
 20
115.2925404475
 30
0.0
 40
0.5000000000000397
100
AcDbArc
 50
126.8698976458
 51
180.0
  0
ARC
  5
72
330
1F
100
AcDbEntity
  8
0
  6
Continuous
 62
     7
370
    15
100
AcDbCircle
 10
201.2618777969
 20
114.5925404475
 30
0.0
 40
0.5000000000000284
100
AcDbArc
 50
180.0
 51
233.1301023542
  0
ARC
  5
73
330
1F
100
AcDbEntity
  8
0
  6
Continuous
 62
     7
370
    15
100
AcDbCircle
 10
200.9618777969
 20
142.9925404475
 30
0.0
 40
0.5
100
AcDbArc
 50
180.0
 51
270.0
  0
LINE
  5
74
330
1F
100
AcDbEntity
  8
0
  6
Continuous
 62
     7
370
    15
100
AcDbLine
 10
200.4618777568
 20
142.9925407306
 30
0.0
 11
200.4618777568
 21
143.4925417439
 31
0.0
  0
ARC
  5
75
330
1F
100
AcDbEntity
  8
0
  6
Continuous
 62
     7
370
    15
100
AcDbCircle
 10
200.9618777969
 20
143.4925404475
 30
0.0
 40
0.5000000000000284
100
AcDbArc
 50
90.0
 51
180.0
  0
LINE
  5
76
330
1F
100
AcDbEntity
  8
0
  6
Continuous
 62
     7
370
    15
100
AcDbLine
 10
205.6618777709
 20
102.0425404445
 30
0.0
 11
205.6618777709
 21
156.1387288407
 31
0.0
  0
LINE
  5
77
330
1F
100
AcDbEntity
  8
0
  6
Continuous
 62
     7
370
    15
100
AcDbLine
 10
204.9618777959
 20
102.0425404445
 30
0.0
 11
205.6618777709
 21
102.0425404445
 31
0.0
  0
LINE
  5
78
330
1F
100
AcDbEntity
  8
0
  6
Continuous
 62
     7
370
    15
100
AcDbLine
 10
204.9618777959
 20
156.1631741956
 30
0.0
 11
205.6618777709
 21
156.1387288407
 31
0.0
  0
LINE
  5
79
330
1F
100
AcDbEntity
  8
0
  6
Continuous
 62
     7
370
    15
100
AcDbLine
 10
199.5869001979
 20
144.7425405518
 30
0.0
 11
199.7618780146
 21
146.7425408796
 31
0.0
  0
LINE
  5
7A
330
1F
100
AcDbEntity
  8
0
  6
Continuous
 62
     7
370
    15
100
AcDbLine
 10
198.1165784086
 20
144.7425405518
 30
0.0
 11
199.5869001979
 21
144.7425405518
 31
0.0
  0
LINE
  5
7B
330
1F
100
AcDbEntity
  8
0
  6
Continuous
 62
     7
370
    15
100
AcDbLine
 10
196.9618781144
 20
146.7425408796
 30
0.0
 11
198.1165784086
 21
144.7425405518
 31
0.0
  0
LINE
  5
7C
330
1F
100
AcDbEntity
  8
0
  6
Continuous
 62
     8
370
    15
100
AcDbLine
 10
205.2618777519
 20
204.2425381974
 30
0.0
 11
205.2618777519
 21
156.1526986793
 31
0.0
  0
LINE
  5
7D
330
1F
100
AcDbEntity
  8
0
  6
Continuous
 62
     8
370
    15
100
AcDbLine
 10
205.2618777519
 20
102.0425404445
 30
0.0
 11
205.2618777519
 21
54.2425396875
 31
0.0
  0
DIMENSION
  5
7E
330
1F
100
AcDbEntity
  8
0
  6
Continuous
 62
     7
370
     0
100
AcDbDimension
  2
*D2
 10
204.9618777969
 20
214.2425404475
 30
0.0
 11
209.4591939993
 21
214.2425404475
 31
0.0
 70
   160
 71
     2
 42
-1.0
  3
SLDDIMSTYLE0
100
AcDbAlignedDimension
 13
213.9618777969
 23
204.2425404475
 33
0.0
 14
204.9618777969
 24
204.2425404475
 34
0.0
100
AcDbRotatedDimension
  0
DIMENSION
  5
92
330
1F
100
AcDbEntity
  8
0
  6
Continuous
 62
     7
370
     0
100
AcDbDimension
  2
*D3
 10
196.9618777969
 20
220.2425404475
 30
0.0
 11
206.2669214841
 21
220.2425404475
 31
0.0
 70
   160
 71
     2
 42
-1.0
  3
SLDDIMSTYLE1
100
AcDbAlignedDimension
 13
213.9618777969
 23
204.2425404475
 33
0.0
 14
196.9618777969
 24
155.942845034
 34
0.0
100
AcDbRotatedDimension
  0
DIMENSION
  5
9D
330
1F
100
AcDbEntity
  8
0
  6
Continuous
 62
     7
370
     0
100
AcDbDimension
  2
*D4
 10
186.9618777969
 20
86.4425404475
 30
0.0
 11
186.9618777969
 21
120.2458124414
 31
0.0
 70
   160
 71
     2
 42
-1.0
  3
SLDDIMSTYLE1
100
AcDbAlignedDimension
 13
196.9618777969
 23
156.4425404475
 33
0.0
 14
196.9618777969
 24
86.4425404475
 34
0.0
 50
90.0
100
AcDbRotatedDimension
  0
DIMENSION
  5
A7
330
1F
100
AcDbEntity
  8
0
  6
Continuous
 62
     7
370
     0
100
AcDbDimension
  2
*D5
 10
186.9618777969
 20
81.4425404475
 30
0.0
 11
186.9618777969
 21
83.8795096834
 31
0.0
 70
   160
 71
     2
 42
-1.0
  3
SLDDIMSTYLE0
100
AcDbAlignedDimension
 13
196.9618777969
 23
86.4425404475
 33
0.0
 14
200.9618777969
 24
81.4425404475
 34
0.0
 50
90.0
100
AcDbRotatedDimension
  0
DIMENSION
  5
B3
330
1F
100
AcDbEntity
  8
0
  6
Continuous
 62
     7
370
     0
100
AcDbDimension
  2
*D6
 10
178.3175113361
 20
54.2425404475
 30
0.0
 11
178.3175113361
 21
129.9323824456
 31
0.0
 70
   160
 71
     2
 42
-1.0
  3
SLDDIMSTYLE1
100
AcDbAlignedDimension
 13
204.9618777969
 23
204.2425404475
 33
0.0
 14
204.9618777969
 24
54.2425404475
 34
0.0
 50
90.0
100
AcDbRotatedDimension
  0
LINE
  5
BD
330
1F
100
AcDbEntity
  8
0
  6
CENTERX2
 62
     7
370
     0
100
AcDbLine
 10
188.3646099545
 20
129.2425404475
 30
0.0
 11
215.9618777969
 21
129.2425404475
 31
0.0
  0
CIRCLE
  5
BE
330
1F
100
AcDbEntity
  8
0
  6
Continuous
 62
     7
370
    15
100
AcDbCircle
 10
131.0580567986
 20
129.2425404475
 30
0.0
 40
4.700000000000015
  0
ARC
  5
BF
330
1F
100
AcDbEntity
  8
0
  6
Continuous
 62
     7
370
    15
100
AcDbCircle
 10
121.4668713632
 20
132.9679238278
 30
0.0
 40
12.95930802943199
100
AcDbArc
 50
336.5618043285
 51
340.9841100807
  0
LWPOLYLINE
  5
C0
330
1F
100
AcDbEntity
  8
0
  6
Continuous
 62
     7
370
    15
100
AcDbPolyline
 90
        9
 70
   128
 43
0.0
 10
133.7189672613
 20
128.7453877762
 10
133.5438804799
 20
128.8133948133
 10
133.3665175462
 20
128.8822866068
 10
133.187051686
 20
128.9519942388
 10
133.0056598508
 20
129.0224487916
 10
132.8225227171
 20
129.0935832099
 10
132.6378228241
 20
129.1653248504
 10
132.4517389858
 20
129.2376029328
 10
132.2644574666
 20
129.3103448138
  0
SPLINE
  5
C1
330
1F
100
AcDbEntity
  8
0
  6
Continuous
 62
     7
370
    15
100
AcDbSpline
210
0.0
220
0.0
230
1.0
 70
     8
 71
     3
 72
    12
 73
     8
 74
     0
 42
0.00000001
 43
0.00000001
 40
0.0
 40
0.0
 40
0.0
 40
0.0
 40
0.2121487961365421
 40
0.4246590091338595
 40
0.6338964794116891
 40
0.8416659254175277
 40
1.0
 40
1.0
 40
1.0
 40
1.0
 10
132.264457466591
 20
129.3103448138033
 30
0.0
 10
132.205021522906
 20
129.3402493546996
 30
0.0
 10
132.086048380414
 20
129.4001093818923
 30
0.0
 10
131.9561175291765
 20
129.5585949185239
 30
0.0
 10
131.8839157622935
 20
129.7455675300048
 30
0.0
 10
131.874325856435
 20
129.9304795154721
 30
0.0
 10
131.9078893486704
 20
130.039657995315
 30
0.0
 10
131.9224050366766
 20
130.0868759885822
 30
0.0
  0
LWPOLYLINE
  5
C2
330
1F
100
AcDbEntity
  8
0
  6
Continuous
 62
     7
370
    15
100
AcDbPolyline
 90
        9
 70
   128
 43
0.0
 10
131.9224050367
 20
130.0868759886
 10
131.9951487803
 20
130.2741575078
 10
132.0674268627
 20
130.4602413461
 10
132.1391666406
 20
130.6449412391
 10
132.2103010589
 20
130.8280783728
 10
132.2807556116
 20
131.009470208
 10
132.3504651064
 20
131.1889360682
 10
132.4193550372
 20
131.3662990019
 10
132.4873620742
 20
131.5413857833
  0
ARC
  5
C3
330
1F
100
AcDbEntity
  8
0
  6
Continuous
 62
     7
370
    15
100
AcDbCircle
 10
127.3326727083
 20
119.6513545746
 30
0.0
 40
12.95930802944092
100
AcDbArc
 50
66.5618043285
 51
70.9841100807
  0
LWPOLYLINE
  5
C4
330
1F
100
AcDbEntity
  8
0
  6
Continuous
 62
     7
370
    15
100
AcDbPolyline
 90
        9
 70
   128
 43
0.0
 10
131.5552087599
 20
131.9034504727
 10
131.4872035855
 20
131.728365554
 10
131.418311792
 20
131.5510007576
 10
131.3486041599
 20
131.3715348974
 10
131.2781477445
 20
131.1901430622
 10
131.2070151889
 20
131.0070077911
 10
131.1352735484
 20
130.8223060355
 10
131.062995466
 20
130.6362221972
 10
130.9902517223
 20
130.448940678
  0
SPLINE
  5
C5
330
1F
100
AcDbEntity
  8
0
  6
Continuous
 62
     7
370
    15
100
AcDbSpline
210
0.0
220
0.0
230
1.0
 70
     8
 71
     3
 72
    12
 73
     8
 74
     0
 42
0.00000001
 43
0.00000001
 40
0.0
 40
0.0
 40
0.0
 40
0.0
 40
0.2121477258432644
 40
0.4246565969450322
 40
0.6338947082339039
 40
0.841664084671148
 40
0.9999999999999999
 40
0.9999999999999999
 40
0.9999999999999999
 40
0.9999999999999999
 10
130.9902517223245
 20
130.4489406779801
 30
0.0
 10
130.9603480346218
 20
130.3895044941038
 30
0.0
 10
130.9004897532971
 20
130.2705309464027
 30
0.0
 10
130.7420022847639
 20
130.140603364529
 30
0.0
 10
130.5550314050773
 20
130.0683982421095
 30
0.0
 10
130.3701182830288
 20
130.0588093799916
 30
0.0
 10
130.2609391456803
 20
130.0923725855252
 30
0.0
 10
130.2137205475456
 20
130.1068882480656
 30
0.0
  0
LWPOLYLINE
  5
C6
330
1F
100
AcDbEntity
  8
0
  6
Continuous
 62
     7
370
    15
100
AcDbPolyline
 90
        9
 70
   128
 43
0.0
 10
130.2137205475
 20
130.1068882481
 10
130.0264390284
 20
130.1796319917
 10
129.8403570527
 20
130.2519100741
 10
129.655655297
 20
130.3236517147
 10
129.4725181633
 20
130.3947842703
 10
129.2911281907
 20
130.4652406857
 10
129.1116623306
 20
130.5349483177
 10
128.9342975342
 20
130.6038401112
 10
128.7592107528
 20
130.6718452856
  0
ARC
  5
C7
330
1F
100
AcDbEntity
  8
0
  6
Continuous
 62
     7
370
    15
100
AcDbCircle
 10
140.6494220443
 20
125.5170775347
 30
0.0
 40
12.95950443193045
100
AcDbArc
 50
156.5618030562
 51
160.9840340726
  0
LWPOLYLINE
  5
C8
330
1F
100
AcDbEntity
  8
0
  6
Continuous
 62
     7
370
    15
100
AcDbPolyline
 90
        9
 70
   128
 43
0.0
 10
128.3971460634
 20
129.7396938339
 10
128.5722328448
 20
129.6716867969
 10
128.7495957786
 20
129.6027950034
 10
128.9290635013
 20
129.5330873713
 10
129.1104534739
 20
129.4626309559
 10
129.2935906076
 20
129.3914984003
 10
129.4782905006
 20
129.3197567597
 10
129.664374339
 20
129.2474786774
 10
129.8516558581
 20
129.1747349337
  0
SPLINE
  5
C9
330
1F
100
AcDbEntity
  8
0
  6
Continuous
 62
     7
370
    15
100
AcDbSpline
210
0.0
220
0.0
230
1.0
 70
     8
 71
     3
 72
    12
 73
     8
 74
     0
 42
0.00000001
 43
0.00000001
 40
0.0
 40
0.0
 40
0.0
 40
0.0
 40
0.2121480088686206
 40
0.4246584342188199
 40
0.6338961135792118
 40
0.8416657672006752
 40
1.0
 40
1.0
 40
1.0
 40
1.0
 10
129.8516558581478
 20
129.1747349337136
 30
0.0
 10
129.9110918551569
 20
129.1448311108579
 30
0.0
 10
130.0300653848201
 20
129.0849723798768
 30
0.0
 10
130.1599957334163
 20
128.9264865857811
 30
0.0
 10
130.2321975789288
 20
128.7395141082345
 30
0.0
 10
130.2417874653139
 20
128.5546020895968
 30
0.0
 10
130.2082239751658
 20
128.4454236133093
 30
0.0
 10
130.1937082880623
 20
128.3982056215798
 30
0.0
  0
LWPOLYLINE
  5
CA
330
1F
100
AcDbEntity
  8
0
  6
Continuous
 62
     7
370
    15
100
AcDbPolyline
 90
        9
 70
   128
 43
0.0
 10
130.1937082881
 20
128.3982056216
 10
130.120966407
 20
128.2109241024
 10
130.0486883247
 20
128.0248402641
 10
129.9769466841
 20
127.8401385084
 10
129.9058122659
 20
127.6570013747
 10
129.8353577131
 20
127.4756114021
 10
129.765650081
 20
127.296145542
 10
129.6967582875
 20
127.1187807456
 10
129.6287512505
 20
126.9436939642
  0
ARC
  5
CB
330
1F
100
AcDbEntity
  8
0
  6
Continuous
 62
     7
370
    15
100
AcDbCircle
 10
134.7840947137
 20
138.8354091784
 30
0.0
 40
12.96111326080005
100
AcDbArc
 50
246.5621124521
 51
250.9838019571
  0
LWPOLYLINE
  5
CC
330
1F
100
AcDbEntity
  8
0
  6
Continuous
 62
     7
370
    15
100
AcDbPolyline
 90
        9
 70
   128
 43
0.0
 10
130.5609045648
 20
126.5816292748
 10
130.6289116019
 20
126.7567160562
 10
130.6978015327
 20
126.9340808526
 10
130.7675091648
 20
127.1135467127
 10
130.8379655802
 20
127.2949366853
 10
130.9090999985
 20
127.478073819
 10
130.9808397764
 20
127.6627755747
 10
131.0531178588
 20
127.8488575504
 10
131.1258616024
 20
128.0361390695
  0
SPLINE
  5
CD
330
1F
100
AcDbEntity
  8
0
  6
Continuous
 62
     7
370
    15
100
AcDbSpline
210
0.0
220
0.0
230
1.0
 70
     8
 71
     3
 72
    12
 73
     8
 74
     0
 42
0.00000001
 43
0.00000001
 40
0.0
 40
0.0
 40
0.0
 40
0.0
 40
0.2121475905191467
 40
0.4246575968051978
 40
0.6338948635551978
 40
0.8416641856699589
 40
1.0
 40
1.0
 40
1.0
 40
1.0
 10
131.1258616024143
 20
128.0361390695368
 30
0.0
 10
131.155765426368
 20
128.0955750521292
 30
0.0
 10
131.2156241595473
 20
128.2145485529342
 30
0.0
 10
131.3741099372204
 20
128.344479117137
 30
0.0
 10
131.5610824993543
 20
128.4166801660612
 30
0.0
 10
131.7459949453815
 20
128.4262728189651
 30
0.0
 10
131.8551741570172
 20
128.3927092002372
 30
0.0
 10
131.9023927771932
 20
128.3781933620964
 30
0.0
  0
LWPOLYLINE
  5
CE
330
1F
100
AcDbEntity
  8
0
  6
Continuous
 62
     7
370
    15
100
AcDbPolyline
 90
        9
 70
   128
 43
0.0
 10
131.9023927772
 20
128.3781933621
 10
132.0896742964
 20
128.3054496184
 10
132.2757581347
 20
128.2331715361
 10
132.4604580277
 20
128.1614298955
 10
132.6435951614
 20
128.0902954773
 10
132.824985134
 20
128.0198409245
 10
133.0044528568
 20
127.9501332924
 10
133.1818157905
 20
127.8812414989
 10
133.3569025719
 20
127.8132344619
  0
LINE
  5
CF
330
1F
100
AcDbEntity
  8
0
  6
Continuous
 62
     7
370
    15
100
AcDbLine
 10
132.5971258902
 20
128.1083463714
 30
0.0
 11
132.9591905796
 21
129.0404996857
 31
0.0
  0
LINE
  5
D0
330
1F
100
AcDbEntity
  8
0
  6
Continuous
 62
     7
370
    15
100
AcDbLine
 10
129.9238612974
 20
127.7034725085
 30
0.0
 11
130.8560146117
 21
127.3414059565
 31
0.0
  0
LINE
  5
D1
330
1F
100
AcDbEntity
  8
0
  6
Continuous
 62
     7
370
    15
100
AcDbLine
 10
132.1922520274
 20
130.7816091016
 30
0.0
 11
131.260098713
 21
131.143673791
 31
0.0
  0
LINE
  5
D2
330
1F
100
AcDbEntity
  8
0
  6
Continuous
 62
     7
370
    15
100
AcDbLine
 10
129.5189874345
 20
130.3767352388
 30
0.0
 11
129.1569227451
 21
129.4445819244
 31
0.0
  0
LINE
  5
D3
330
1F
100
AcDbEntity
  8
0
  6
Continuous
 62
     7
370
    15
100
AcDbLine
 10
123.3580576354
 20
204.2425381974
 30
0.0
 11
123.53379448
 21
204.2425381974
 31
0.0
  0
LINE
  5
D4
330
1F
100
AcDbEntity
  8
0
  6
Continuous
 62
     7
370
    15
100
AcDbLine
 10
123.3580576354
 20
54.2425396875
 30
0.0
 11
123.53379448
 21
54.2425396875
 31
0.0
  0
LINE
  5
D5
330
1F
100
AcDbEntity
  8
0
  6
Continuous
 62
     7
370
    15
100
AcDbLine
 10
123.53379448
 20
204.2425381974
 30
0.0
 11
123.7459236854
 21
204.2425381974
 31
0.0
  0
LINE
  5
D6
330
1F
100
AcDbEntity
  8
0
  6
Continuous
 62
     7
370
    15
100
AcDbLine
 10
123.53379448
 20
54.2425396875
 30
0.0
 11
123.7459236854
 21
54.2425396875
 31
0.0
  0
LINE
  5
D7
330
1F
100
AcDbEntity
  8
0
  6
Continuous
 62
     7
370
    15
100
AcDbLine
 10
123.0580562824
 20
204.2425381974
 30
0.0
 11
123.0580562824
 21
156.4425411657
 31
0.0
  0
LINE
  5
D8
330
1F
100
AcDbEntity
  8
0
  6
Continuous
 62
     7
370
    15
100
AcDbLine
 10
123.0580562824
 20
86.4425408677
 30
0.0
 11
123.0580562824
 21
54.2425396875
 31
0.0
  0
LINE
  5
D9
330
1F
100
AcDbEntity
  8
0
  6
Continuous
 62
     7
370
    15
100
AcDbLine
 10
123.0580562824
 20
204.2425381974
 30
0.0
 11
123.3580576354
 21
204.2425381974
 31
0.0
  0
LINE
  5
DA
330
1F
100
AcDbEntity
  8
0
  6
Continuous
 62
     7
370
    15
100
AcDbLine
 10
123.0580562824
 20
54.2425396875
 30
0.0
 11
123.3580576354
 21
54.2425396875
 31
0.0
  0
LINE
  5
DB
330
1F
100
AcDbEntity
  8
0
  6
Continuous
 62
     7
370
    15
100
AcDbLine
 10
138.5823207074
 20
204.2425381974
 30
0.0
 11
138.758057552
 21
204.2425381974
 31
0.0
  0
LINE
  5
DC
330
1F
100
AcDbEntity
  8
0
  6
Continuous
 62
     7
370
    15
100
AcDbLine
 10
138.5823207074
 20
54.2425396875
 30
0.0
 11
138.758057552
 21
54.2425396875
 31
0.0
  0
LINE
  5
DD
330
1F
100
AcDbEntity
  8
0
  6
Continuous
 62
     7
370
    15
100
AcDbLine
 10
138.758057552
 20
204.2425381974
 30
0.0
 11
139.0580570423
 21
204.2425381974
 31
0.0
  0
LINE
  5
DE
330
1F
100
AcDbEntity
  8
0
  6
Continuous
 62
     7
370
    15
100
AcDbLine
 10
139.0580570423
 20
204.2425381974
 30
0.0
 11
139.0580570423
 21
156.4425411657
 31
0.0
  0
LINE
  5
DF
330
1F
100
AcDbEntity
  8
0
  6
Continuous
 62
     7
370
    15
100
AcDbLine
 10
139.0580570423
 20
86.4425408677
 30
0.0
 11
139.0580570423
 21
54.2425396875
 31
0.0
  0
LINE
  5
E0
330
1F
100
AcDbEntity
  8
0
  6
Continuous
 62
     7
370
    15
100
AcDbLine
 10
138.758057552
 20
54.2425396875
 30
0.0
 11
139.0580570423
 21
54.2425396875
 31
0.0
  0
LINE
  5
E1
330
1F
100
AcDbEntity
  8
0
  6
Continuous
 62
     7
370
    15
100
AcDbLine
 10
138.3701896393
 20
204.2425381974
 30
0.0
 11
138.5823207074
 21
204.2425381974
 31
0.0
  0
LINE
  5
E2
330
1F
100
AcDbEntity
  8
0
  6
Continuous
 62
     7
370
    15
100
AcDbLine
 10
138.3701896393
 20
54.2425396875
 30
0.0
 11
138.5823207074
 21
54.2425396875
 31
0.0
  0
LINE
  5
E3
330
1F
100
AcDbEntity
  8
0
  6
Continuous
 62
     7
370
    15
100
AcDbLine
 10
123.7459236854
 20
204.2425381974
 30
0.0
 11
124.4701871747
 21
204.2425381974
 31
0.0
  0
LINE
  5
E4
330
1F
100
AcDbEntity
  8
0
  6
Continuous
 62
     7
370
    15
100
AcDbLine
 10
123.7459236854
 20
54.2425396875
 30
0.0
 11
124.4701871747
 21
54.2425396875
 31
0.0
  0
LINE
  5
E5
330
1F
100
AcDbEntity
  8
0
  6
Continuous
 62
     7
370
    15
100
AcDbLine
 10
137.6459242874
 20
204.2425381974
 30
0.0
 11
138.3701896393
 21
204.2425381974
 31
0.0
  0
LINE
  5
E6
330
1F
100
AcDbEntity
  8
0
  6
Continuous
 62
     7
370
    15
100
AcDbLine
 10
137.6459242874
 20
54.2425396875
 30
0.0
 11
138.3701896393
 21
54.2425396875
 31
0.0
  0
LINE
  5
E7
330
1F
100
AcDbEntity
  8
0
  6
Continuous
 62
     7
370
    15
100
AcDbLine
 10
124.5580555969
 20
204.2425381974
 30
0.0
 11
124.5580555969
 21
156.4425411657
 31
0.0
  0
LINE
  5
E8
330
1F
100
AcDbEntity
  8
0
  6
Continuous
 62
     7
370
    15
100
AcDbLine
 10
124.5580555969
 20
144.7425405518
 30
0.0
 11
124.5580555969
 21
144.6796502009
 31
0.0
  0
LINE
  5
E9
330
1F
100
AcDbEntity
  8
0
  6
Continuous
 62
     7
370
    15
100
AcDbLine
 10
124.5580555969
 20
111.5617682249
 30
0.0
 11
124.5580555969
 21
111.4425405417
 31
0.0
  0
LINE
  5
EA
330
1F
100
AcDbEntity
  8
0
  6
Continuous
 62
     7
370
    15
100
AcDbLine
 10
124.5580555969
 20
81.5690415934
 30
0.0
 11
124.5580555969
 21
54.2425396875
 31
0.0
  0
LINE
  5
EB
330
1F
100
AcDbEntity
  8
0
  6
Continuous
 62
     7
370
    15
100
AcDbLine
 10
124.4701871747
 20
204.2425381974
 30
0.0
 11
124.5580555969
 21
204.2425381974
 31
0.0
  0
LINE
  5
EC
330
1F
100
AcDbEntity
  8
0
  6
Continuous
 62
     7
370
    15
100
AcDbLine
 10
124.4701871747
 20
54.2425396875
 30
0.0
 11
124.5580555969
 21
54.2425396875
 31
0.0
  0
LINE
  5
ED
330
1F
100
AcDbEntity
  8
0
  6
Continuous
 62
     7
370
    15
100
AcDbLine
 10
137.5580577278
 20
204.2425381974
 30
0.0
 11
137.5580577278
 21
156.4425411657
 31
0.0
  0
LINE
  5
EE
330
1F
100
AcDbEntity
  8
0
  6
Continuous
 62
     7
370
    15
100
AcDbLine
 10
137.5580577278
 20
144.7425405518
 30
0.0
 11
137.5580577278
 21
144.6796502009
 31
0.0
  0
LINE
  5
EF
330
1F
100
AcDbEntity
  8
0
  6
Continuous
 62
     7
370
    15
100
AcDbLine
 10
137.5580577278
 20
111.5617682249
 30
0.0
 11
137.5580577278
 21
111.4425405417
 31
0.0
  0
LINE
  5
F0
330
1F
100
AcDbEntity
  8
0
  6
Continuous
 62
     7
370
    15
100
AcDbLine
 10
137.5580577278
 20
81.5690415934
 30
0.0
 11
137.5580577278
 21
54.2425396875
 31
0.0
  0
LINE
  5
F1
330
1F
100
AcDbEntity
  8
0
  6
Continuous
 62
     7
370
    15
100
AcDbLine
 10
137.5580577278
 20
204.2425381974
 30
0.0
 11
137.6459242874
 21
204.2425381974
 31
0.0
  0
LINE
  5
F2
330
1F
100
AcDbEntity
  8
0
  6
Continuous
 62
     7
370
    15
100
AcDbLine
 10
137.5580577278
 20
54.2425396875
 30
0.0
 11
137.6459242874
 21
54.2425396875
 31
0.0
  0
LINE
  5
F3
330
1F
100
AcDbEntity
  8
0
  6
Continuous
 62
     7
370
    15
100
AcDbLine
 10
127.7048437023
 20
204.2425381974
 30
0.0
 11
134.4112696224
 21
204.2425381974
 31
0.0
  0
LINE
  5
F4
330
1F
100
AcDbEntity
  8
0
  6
Continuous
 62
     7
370
    15
100
AcDbLine
 10
127.7048437023
 20
54.2425396875
 30
0.0
 11
134.4112696224
 21
54.2425396875
 31
0.0
  0
LINE
  5
F5
330
1F
100
AcDbEntity
  8
0
  6
Continuous
 62
     7
370
    15
100
AcDbLine
 10
127.3512894386
 20
204.2425381974
 30
0.0
 11
127.7048437023
 21
204.2425381974
 31
0.0
  0
LINE
  5
F6
330
1F
100
AcDbEntity
  8
0
  6
Continuous
 62
     7
370
    15
100
AcDbLine
 10
127.3512894386
 20
54.2425396875
 30
0.0
 11
127.7048437023
 21
54.2425396875
 31
0.0
  0
LINE
  5
F7
330
1F
100
AcDbEntity
  8
0
  6
Continuous
 62
     7
370
    15
100
AcDbLine
 10
134.4112696224
 20
204.2425381974
 30
0.0
 11
134.7648238861
 21
204.2425381974
 31
0.0
  0
LINE
  5
F8
330
1F
100
AcDbEntity
  8
0
  6
Continuous
 62
     7
370
    15
100
AcDbLine
 10
134.4112696224
 20
54.2425396875
 30
0.0
 11
134.7648238861
 21
54.2425396875
 31
0.0
  0
LINE
  5
F9
330
1F
100
AcDbEntity
  8
0
  6
Continuous
 62
     7
370
    15
100
AcDbLine
 10
125.0701898807
 20
204.2425381974
 30
0.0
 11
127.3512894386
 21
204.2425381974
 31
0.0
  0
LINE
  5
FA
330
1F
100
AcDbEntity
  8
0
  6
Continuous
 62
     7
370
    15
100
AcDbLine
 10
125.0701898807
 20
54.2425396875
 30
0.0
 11
127.3512894386
 21
54.2425396875
 31
0.0
  0
LINE
  5
FB
330
1F
100
AcDbEntity
  8
0
  6
Continuous
 62
     7
370
    15
100
AcDbLine
 10
134.7648238861
 20
204.2425381974
 30
0.0
 11
137.0459253067
 21
204.2425381974
 31
0.0
  0
LINE
  5
FC
330
1F
100
AcDbEntity
  8
0
  6
Continuous
 62
     7
370
    15
100
AcDbLine
 10
134.7648238861
 20
54.2425396875
 30
0.0
 11
137.0459253067
 21
54.2425396875
 31
0.0
  0
LINE
  5
FD
330
1F
100
AcDbEntity
  8
0
  6
Continuous
 62
     7
370
    15
100
AcDbLine
 10
124.5580555969
 20
204.2425381974
 30
0.0
 11
125.0701898807
 21
204.2425381974
 31
0.0
  0
LINE
  5
FE
330
1F
100
AcDbEntity
  8
0
  6
Continuous
 62
     7
370
    15
100
AcDbLine
 10
124.5580555969
 20
54.2425396875
 30
0.0
 11
125.0701898807
 21
54.2425396875
 31
0.0
  0
LINE
  5
FF
330
1F
100
AcDbEntity
  8
0
  6
Continuous
 62
     7
370
    15
100
AcDbLine
 10
137.0459253067
 20
204.2425381974
 30
0.0
 11
137.5580577278
 21
204.2425381974
 31
0.0
  0
LINE
  5
100
330
1F
100
AcDbEntity
  8
0
  6
Continuous
 62
     7
370
    15
100
AcDbLine
 10
137.0459253067
 20
54.2425396875
 30
0.0
 11
137.5580577278
 21
54.2425396875
 31
0.0
  0
LINE
  5
101
330
1F
100
AcDbEntity
  8
0
  6
Continuous
 62
     7
370
    15
100
AcDbLine
 10
126.7663033777
 20
86.034191309
 30
0.0
 11
126.8579529697
 21
85.9425398544
 31
0.0
  0
ELLIPSE
  5
102
330
1F
100
AcDbEntity
  8
0
  6
Continuous
 62
     7
370
    15
100
AcDbEllipse
 10
126.8581596364
 20
85.6424376098
 30
0.0
 11
-0.2122774439829982
 21
0.2122774439830123
 31
0.0
210
0.0
220
0.0
230
0.9999999999999998
 40
0.999315002
 41
5.498129760120329
 42
7.068240854238876
  0
LINE
  5
103
330
1F
100
AcDbEntity
  8
0
  6
Continuous
 62
     7
370
    15
100
AcDbLine
 10
126.5580559248
 20
85.6426428095
 30
0.0
 11
126.4664063328
 21
85.7342942641
 31
0.0
  0
ELLIPSE
  5
104
330
1F
100
AcDbEntity
  8
0
  6
Continuous
 62
     7
370
    15
100
AcDbEllipse
 10
126.7665089109
 20
85.7340883352
 30
0.0
 11
-0.2122774439829982
 21
0.2122774439830123
 31
0.0
210
0.0
220
0.0
230
0.9999999999999998
 40
0.999315002
 41
5.498129760120376
 42
7.068240854238876
  0
ARC
  5
105
330
1F
100
AcDbEntity
  8
0
  6
Continuous
 62
     7
370
    15
100
AcDbCircle
 10
91.3720727701
 20
103.654233578
 30
0.0
 40
42.8744770081025
100
AcDbArc
 50
341.2538315025
 51
341.3843993773
  0
ARC
  5
106
330
1F
100
AcDbEntity
  8
0
  6
Continuous
 62
     7
370
    15
100
AcDbCircle
 10
127.5580567986
 20
84.4425404475
 30
0.0
 40
7.091650725492155
100
AcDbArc
 50
18.6785426725
 51
51.1822610317
  0
LWPOLYLINE
  5
107
330
1F
100
AcDbEntity
  8
0
  6
Continuous
 62
     7
370
    15
100
AcDbPolyline
 90
        3
 70
   128
 43
0.0
 10
134.2075483972
 20
86.6298335627
 10
134.2468241328
 20
86.6777128563
 10
134.2761924589
 20
86.7136991606
  0
ARC
  5
108
330
1F
100
AcDbEntity
  8
0
  6
Continuous
 62
     7
370
    15
100
AcDbCircle
 10
127.5580567986
 20
84.4425404475
 30
0.0
 40
6.999999999999998
100
AcDbArc
 50
18.2081805567
 51
50.9069441399
  0
LINE
  5
109
330
1F
100
AcDbEntity
  8
0
  6
Continuous
 62
     7
370
    15
100
AcDbLine
 10
136.8187775934
 20
81.5341915027
 30
0.0
 11
125.2973357314
 21
81.5341915027
 31
0.0
  0
LINE
  5
10A
330
1F
100
AcDbEntity
  8
0
  6
Continuous
 62
     7
370
    15
100
AcDbLine
 10
136.8580570543
 20
81.4949120418
 30
0.0
 11
136.8187775934
 21
81.5341915027
 31
0.0
  0
LINE
  5
10B
330
1F
100
AcDbEntity
  8
0
  6
Continuous
 62
     7
370
    15
100
AcDbLine
 10
136.8580570543
 20
81.4425400481
 30
0.0
 11
136.8580570543
 21
81.4949120418
 31
0.0
  0
LINE
  5
10C
330
1F
100
AcDbEntity
  8
0
  6
Continuous
 62
     7
370
    15
100
AcDbLine
 10
125.2580562705
 20
81.4425400481
 30
0.0
 11
136.8580570543
 21
81.4425400481
 31
0.0
  0
LINE
  5
10D
330
1F
100
AcDbEntity
  8
0
  6
Continuous
 62
     7
370
    15
100
AcDbLine
 10
125.2580562705
 20
81.4949120418
 30
0.0
 11
125.2580562705
 21
81.4425400481
 31
0.0
  0
LINE
  5
10E
330
1F
100
AcDbEntity
  8
0
  6
Continuous
 62
     7
370
    15
100
AcDbLine
 10
125.2973357314
 20
81.5341915027
 30
0.0
 11
125.2580562705
 21
81.4949120418
 31
0.0
  0
LINE
  5
10F
330
1F
100
AcDbEntity
  8
0
  6
Continuous
 62
     7
370
    15
100
AcDbLine
 10
135.349809947
 20
84.3508890853
 30
0.0
 11
135.2581603551
 21
84.4425405398
 31
0.0
  0
ELLIPSE
  5
110
330
1F
100
AcDbEntity
  8
0
  6
Continuous
 62
     7
370
    15
100
AcDbEllipse
 10
135.2579539609
 20
84.7426432853
 30
0.0
 11
0.2122774439830266
 21
-0.2122774439830124
 31
0.0
210
0.0
220
0.0
230
1.0
 40
0.999315002
 41
5.498129760120293
 42
7.068240854238827
  0
LINE
  5
111
330
1F
100
AcDbEntity
  8
0
  6
Continuous
 62
     7
370
    15
100
AcDbLine
 10
135.5580574
 20
84.7424375847
 30
0.0
 11
135.6497069919
 21
84.6507861302
 31
0.0
  0
ELLIPSE
  5
112
330
1F
100
AcDbEntity
  8
0
  6
Continuous
 62
     7
370
    15
100
AcDbEllipse
 10
135.3496046864
 20
84.6509925598
 30
0.0
 11
0.2122774439830266
 21
-0.2122774439829982
 31
0.0
210
0.0
220
0.0
230
1.0
 40
0.999315002
 41
5.498129760120338
 42
7.06824085423881
  0
LINE
  5
113
330
1F
100
AcDbEntity
  8
0
  6
Continuous
 62
     7
370
    15
100
AcDbLine
 10
135.9580567205
 20
94.8552819923
 30
0.0
 11
135.9973361814
 21
94.8552819923
 31
0.0
  0
LINE
  5
114
330
1F
100
AcDbEntity
  8
0
  6
Continuous
 62
     7
370
    15
100
AcDbLine
 10
135.9580567205
 20
102.6047426299
 30
0.0
 11
135.9580567205
 21
94.8552819923
 31
0.0
  0
LINE
  5
115
330
1F
100
AcDbEntity
  8
0
  6
Continuous
 62
     7
370
    15
100
AcDbLine
 10
136.0497081751
 20
102.5873706699
 30
0.0
 11
135.9580567205
 21
102.6047426299
 31
0.0
  0
LINE
  5
116
330
1F
100
AcDbEntity
  8
0
  6
Continuous
 62
     7
370
    15
100
AcDbLine
 10
136.0497081751
 20
94.4425403163
 30
0.0
 11
136.0497081751
 21
102.5873706699
 31
0.0
  0
LINE
  5
117
330
1F
100
AcDbEntity
  8
0
  6
Continuous
 62
     7
370
    15
100
AcDbLine
 10
135.9973361814
 20
94.4425403163
 30
0.0
 11
136.0497081751
 21
94.4425403163
 31
0.0
  0
LINE
  5
118
330
1F
100
AcDbEntity
  8
0
  6
Continuous
 62
     7
370
    15
100
AcDbLine
 10
135.9973361814
 20
94.8552819923
 30
0.0
 11
135.9973361814
 21
94.4425403163
 31
0.0
  0
LINE
  5
119
330
1F
100
AcDbEntity
  8
0
  6
Continuous
 62
     7
370
    15
100
AcDbLine
 10
126.7663033777
 20
86.034191309
 30
0.0
 11
126.8929148191
 21
86.034191309
 31
0.0
  0
LWPOLYLINE
  5
11A
330
1F
100
AcDbEntity
  8
0
  6
Continuous
 62
     7
370
    15
100
AcDbPolyline
 90
        3
 70
   128
 43
0.0
 10
126.9589642161
 20
85.9425398544
 10
126.9261667603
 20
85.9879530058
 10
126.8929148191
 20
86.034191309
  0
LINE
  5
11B
330
1F
100
AcDbEntity
  8
0
  6
Continuous
 62
     7
370
    15
100
AcDbLine
 10
126.8579529697
 20
85.9425398544
 30
0.0
 11
126.9589642161
 21
85.9425398544
 31
0.0
  0
LINE
  5
11C
330
1F
100
AcDbEntity
  8
0
  6
Continuous
 62
     7
370
    15
100
AcDbLine
 10
123.2977675372
 20
111.4028301113
 30
0.0
 11
123.2580559426
 21
111.4425405417
 31
0.0
  0
LINE
  5
11D
330
1F
100
AcDbEntity
  8
0
  6
Continuous
 62
     7
370
    15
100
AcDbLine
 10
123.3104297989
 20
94.9425403983
 30
0.0
 11
123.3104297989
 21
102.4425402306
 31
0.0
  0
LINE
  5
11E
330
1F
100
AcDbEntity
  8
0
  6
Continuous
 62
     7
370
    15
100
AcDbLine
 10
123.3497092599
 20
88.4032617346
 30
0.0
 11
123.3104297989
 21
88.4425411955
 31
0.0
  0
LINE
  5
11F
330
1F
100
AcDbEntity
  8
0
  6
Continuous
 62
     7
370
    15
100
AcDbLine
 10
123.3497092599
 20
88.4032617346
 30
0.0
 11
123.3497092599
 21
86.4818184659
 31
0.0
  0
LINE
  5
120
330
1F
100
AcDbEntity
  8
0
  6
Continuous
 62
     7
370
    15
100
AcDbLine
 10
123.3497092599
 20
86.4818184659
 30
0.0
 11
123.3104297989
 21
86.4425408677
 31
0.0
  0
LINE
  5
121
330
1F
100
AcDbEntity
  8
0
  6
Continuous
 62
     7
370
    15
100
AcDbLine
 10
123.3104297989
 20
83.4425403759
 30
0.0
 11
123.3104297989
 21
86.4425408677
 31
0.0
  0
LINE
  5
122
330
1F
100
AcDbEntity
  8
0
  6
Continuous
 62
     7
370
    15
100
AcDbLine
 10
123.2580559426
 20
83.4425403759
 30
0.0
 11
123.3104297989
 21
83.4425403759
 31
0.0
  0
LINE
  5
123
330
1F
100
AcDbEntity
  8
0
  6
Continuous
 62
     7
370
    15
100
AcDbLine
 10
123.2580559426
 20
83.4425403759
 30
0.0
 11
123.2580559426
 21
88.4425411955
 31
0.0
  0
LINE
  5
124
330
1F
100
AcDbEntity
  8
0
  6
Continuous
 62
     7
370
    15
100
AcDbLine
 10
123.2580559426
 20
94.9425403983
 30
0.0
 11
123.2580559426
 21
102.4425402306
 31
0.0
  0
LINE
  5
125
330
1F
100
AcDbEntity
  8
0
  6
Continuous
 62
     7
370
    15
100
AcDbLine
 10
123.2580559426
 20
111.4028301113
 30
0.0
 11
123.2580559426
 21
111.4425405417
 31
0.0
  0
LWPOLYLINE
  5
126
330
1F
100
AcDbEntity
  8
0
  6
Continuous
 62
     7
370
    15
100
AcDbPolyline
 90
        3
 70
   128
 43
0.0
 10
130.300679999
 20
90.0341919646
 10
130.3168477589
 20
89.988391383
 10
130.3330937499
 20
89.94254051
  0
SPLINE
  5
127
330
1F
100
AcDbEntity
  8
0
  6
Continuous
 62
     7
370
    15
100
AcDbSpline
210
0.0
220
0.0
230
1.0
 70
     8
 71
     3
 72
     9
 73
     5
 74
     0
 42
0.00000001
 43
0.00000001
 40
0.0
 40
0.0
 40
0.0
 40
0.0
 40
0.5000003637640724
 40
1.0
 40
1.0
 40
1.0
 40
1.0
 10
130.3330937498695
 20
89.94254051003801
 30
0.0
 10
130.2986843399885
 20
89.93949385147592
 30
0.0
 10
130.229865570294
 20
89.93340053878477
 30
0.0
 10
130.1726118267491
 20
89.89473323887697
 30
0.0
 10
130.1439849758035
 20
89.87539960298884
 30
0.0
  0
ARC
  5
128
330
1F
100
AcDbEntity
  8
0
  6
Continuous
 62
     7
370
    15
100
AcDbCircle
 10
172.6370478342
 20
104.2942773546
 30
0.0
 40
44.8727581802891
100
AcDbArc
 50
198.6185078591
 51
198.7432612611
  0
SPLINE
  5
129
330
1F
100
AcDbEntity
  8
0
  6
Continuous
 62
     7
370
    15
100
AcDbSpline
210
0.0
220
0.0
230
1.0
 70
     8
 71
     3
 72
     9
 73
     5
 74
     0
 42
0.00000001
 43
0.00000001
 40
0.0
 40
0.0
 40
0.0
 40
0.0
 40
0.4999971858566786
 40
1.0
 40
1.0
 40
1.0
 40
1.0
 10
130.1126906746513
 20
89.96795630309927
 30
0.0
 10
130.1411901755543
 20
89.98703289474437
 30
0.0
 10
130.1981894981689
 20
90.02518629277282
 30
0.0
 10
130.2665163705236
 20
90.03119006273124
 30
0.0
 10
130.3006799989826
 20
90.03419196460592
 30
0.0
  0
LINE
  5
12A
330
1F
100
AcDbEntity
  8
0
  6
Continuous
 62
     7
370
    15
100
AcDbLine
 10
138.7664059275
 20
86.4818184659
 30
0.0
 11
138.8056853884
 21
86.4425408677
 31
0.0
  0
LINE
  5
12B
330
1F
100
AcDbEntity
  8
0
  6
Continuous
 62
     7
370
    15
100
AcDbLine
 10
138.7664059275
 20
86.4818184659
 30
0.0
 11
138.7664059275
 21
88.4032617346
 31
0.0
  0
LINE
  5
12C
330
1F
100
AcDbEntity
  8
0
  6
Continuous
 62
     7
370
    15
100
AcDbLine
 10
138.7664059275
 20
88.4032617346
 30
0.0
 11
138.8056853884
 21
88.4425411955
 31
0.0
  0
LINE
  5
12D
330
1F
100
AcDbEntity
  8
0
  6
Continuous
 62
     7
370
    15
100
AcDbLine
 10
138.8056853884
 20
94.9425403983
 30
0.0
 11
138.8056853884
 21
102.4425402306
 31
0.0
  0
LINE
  5
12E
330
1F
100
AcDbEntity
  8
0
  6
Continuous
 62
     7
370
    15
100
AcDbLine
 10
138.8580573821
 20
111.4425405417
 30
0.0
 11
138.8183457875
 21
111.4028301113
 31
0.0
  0
LINE
  5
12F
330
1F
100
AcDbEntity
  8
0
  6
Continuous
 62
     7
370
    15
100
AcDbLine
 10
138.8580573821
 20
83.4425403759
 30
0.0
 11
138.8580573821
 21
88.4425411955
 31
0.0
  0
LINE
  5
130
330
1F
100
AcDbEntity
  8
0
  6
Continuous
 62
     7
370
    15
100
AcDbLine
 10
138.8580573821
 20
94.9425403983
 30
0.0
 11
138.8580573821
 21
102.4425402306
 31
0.0
  0
LINE
  5
131
330
1F
100
AcDbEntity
  8
0
  6
Continuous
 62
     7
370
    15
100
AcDbLine
 10
138.8580573821
 20
111.4028301113
 30
0.0
 11
138.8580573821
 21
111.4425405417
 31
0.0
  0
LINE
  5
132
330
1F
100
AcDbEntity
  8
0
  6
Continuous
 62
     7
370
    15
100
AcDbLine
 10
138.8056853884
 20
83.4425403759
 30
0.0
 11
138.8580573821
 21
83.4425403759
 31
0.0
  0
LINE
  5
133
330
1F
100
AcDbEntity
  8
0
  6
Continuous
 62
     7
370
    15
100
AcDbLine
 10
138.8056853884
 20
83.4425403759
 30
0.0
 11
138.8056853884
 21
86.4425408677
 31
0.0
  0
SPLINE
  5
134
330
1F
100
AcDbEntity
  8
0
  6
Continuous
 62
     7
370
    15
100
AcDbSpline
210
0.0
220
0.0
230
1.0
 70
     8
 71
     3
 72
     9
 73
     5
 74
     0
 42
0.00000001
 43
0.00000001
 40
0.0
 40
0.0
 40
0.0
 40
0.0
 40
0.5019403578796888
 40
1.0
 40
1.0
 40
1.0
 40
1.0
 10
132.6152345263845
 20
84.11307027790892
 30
0.0
 10
132.6023403382463
 20
84.12645455402983
 30
0.0
 10
132.5766516524575
 20
84.15311962670393
 30
0.0
 10
132.5502424631626
 20
84.1794824286561
 30
0.0
 10
132.5370891117937
 20
84.19261267636168
 30
0.0
  0
SPLINE
  5
135
330
1F
100
AcDbEntity
  8
0
  6
Continuous
 62
     7
370
    15
100
AcDbSpline
210
0.0
220
0.0
230
1.0
 70
     8
 71
     3
 72
    12
 73
     8
 74
     0
 42
0.00000001
 43
0.00000001
 40
0.0
 40
0.0
 40
0.0
 40
0.0
 40
0.2403706403983467
 40
0.4807457213678653
 40
0.7210562714422295
 40
0.9613558484573159
 40
1.0
 40
1.0
 40
1.0
 40
1.0
 10
132.5370891117937
 20
84.19261267636168
 30
0.0
 10
132.5459756560069
 20
84.22531241922285
 30
0.0
 10
132.563748908602
 20
84.29071250903536
 30
0.0
 10
132.6297006205516
 20
84.37064883131565
 30
0.0
 10
132.716050807648
 20
84.42509042874242
 30
0.0
 10
132.7884545690574
 20
84.44177751376162
 30
0.0
 10
132.827398192374
 20
84.44244769468703
 30
0.0
 10
132.8327933424598
 20
84.44254053984034
 30
0.0
  0
SPLINE
  5
136
330
1F
100
AcDbEntity
  8
0
  6
Continuous
 62
     7
370
    15
100
AcDbSpline
210
0.0
220
0.0
230
1.0
 70
     8
 71
     3
 72
     9
 73
     5
 74
     0
 42
0.00000001
 43
0.00000001
 40
0.0
 40
0.0
 40
0.0
 40
0.0
 40
0.4980607801571102
 40
1.0
 40
1.0
 40
1.0
 40
1.0
 10
132.8327933424598
 20
84.44254053984034
 30
0.0
 10
132.8455826724772
 20
84.42732461647145
 30
0.0
 10
132.8712609240619
 20
84.39677428210447
 30
0.0
 10
132.8961458215934
 20
84.36622364714813
 30
0.0
 10
132.9086365276462
 20
84.35088908527243
 30
0.0
  0
SPLINE
  5
137
330
1F
100
AcDbEntity
  8
0
  6
Continuous
 62
     7
370
    15
100
AcDbSpline
210
0.0
220
0.0
230
1.0
 70
     8
 71
     3
 72
    11
 73
     7
 74
     0
 42
0.00000001
 43
0.00000001
 40
0.0
 40
0.0
 40
0.0
 40
0.0
 40
0.247689730019818
 40
0.4953799651818159
 40
0.7430113147044418
 40
0.9999999999999999
 40
0.9999999999999999
 40
0.9999999999999999
 40
0.9999999999999999
 10
132.9086365276462
 20
84.35088908527243
 30
0.0
 10
132.8748765482957
 20
84.34758147292926
 30
0.0
 10
132.8073565207439
 20
84.34096624149736
 30
0.0
 10
132.7181004328244
 20
84.28916339063737
 30
0.0
 10
132.6470516840065
 20
84.21248928764146
 30
0.0
 10
132.6259705503968
 20
84.14661711098711
 30
0.0
 10
132.6152345263845
 20
84.11307027790892
 30
0.0
  0
SPLINE
  5
138
330
1F
100
AcDbEntity
  8
0
  6
Continuous
 62
     7
370
    15
100
AcDbSpline
210
0.0
220
0.0
230
1.0
 70
     8
 71
     3
 72
     9
 73
     5
 74
     0
 42
0.00000001
 43
0.00000001
 40
0.0
 40
0.0
 40
0.0
 40
0.0
 40
0.5019392198428897
 40
1.0
 40
1.0
 40
1.0
 40
1.0
 10
129.2074767970926
 20
84.35088908527243
 30
0.0
 10
129.2199675031454
 20
84.36622364714813
 30
0.0
 10
129.244852400677
 20
84.39677428210447
 30
0.0
 10
129.2705306522617
 20
84.42732461647145
 30
0.0
 10
129.283319982279
 20
84.44254053984034
 30
0.0
  0
SPLINE
  5
139
330
1F
100
AcDbEntity
  8
0
  6
Continuous
 62
     7
370
    15
100
AcDbSpline
210
0.0
220
0.0
230
1.0
 70
     8
 71
     3
 72
    12
 73
     8
 74
     0
 42
0.00000001
 43
0.00000001
 40
0.0
 40
0.0
 40
0.0
 40
0.0
 40
0.2403739492846417
 40
0.4807461610347945
 40
0.7210590724105145
 40
0.9613579659525763
 40
1.0
 40
1.0
 40
1.0
 40
1.0
 10
129.283319982279
 20
84.44254053984034
 30
0.0
 10
129.3170438867611
 20
84.43922696133302
 30
0.0
 10
129.3844914519532
 20
84.43259982827051
 30
0.0
 10
129.4742990258382
 20
84.38088713060522
 30
0.0
 10
129.5423662071763
 20
84.30481502372729
 30
0.0
 10
129.5708863599176
 20
84.23620430018475
 30
0.0
 10
129.5780340364188
 20
84.19791670464855
 30
0.0
 10
129.5790242129451
 20
84.19261267636168
 30
0.0
  0
SPLINE
  5
13A
330
1F
100
AcDbEntity
  8
0
  6
Continuous
 62
     7
370
    15
100
AcDbSpline
210
0.0
220
0.0
230
1.0
 70
     8
 71
     3
 72
     9
 73
     5
 74
     0
 42
0.00000001
 43
0.00000001
 40
0.0
 40
0.0
 40
0.0
 40
0.0
 40
0.4980596421203113
 40
1.0
 40
1.0
 40
1.0
 40
1.0
 10
129.5790242129451
 20
84.19261267636168
 30
0.0
 10
129.5658708615763
 20
84.17948242865609
 30
0.0
 10
129.5394616722814
 20
84.15311962670391
 30
0.0
 10
129.5137729864926
 20
84.12645455402982
 30
0.0
 10
129.5008787983543
 20
84.11307027790892
 30
0.0
  0
SPLINE
  5
13B
330
1F
100
AcDbEntity
  8
0
  6
Continuous
 62
     7
370
    15
100
AcDbSpline
210
0.0
220
0.0
230
1.0
 70
     8
 71
     3
 72
    11
 73
     7
 74
     0
 42
0.00000001
 43
0.00000001
 40
0.0
 40
0.0
 40
0.0
 40
0.0
 40
0.247688717722008
 40
0.4953809368566597
 40
0.743009999755363
 40
1.0
 40
1.0
 40
1.0
 40
1.0
 10
129.5008787983543
 20
84.11307027790892
 30
0.0
 10
129.4906548159603
 20
84.1454144117218
 30
0.0
 10
129.4702067066426
 20
84.21010313657531
 30
0.0
 10
129.4010486317543
 20
84.2867015224531
 30
0.0
 10
129.3113291003469
 20
84.34034176354493
 30
0.0
 10
129.2425197144129
 20
84.34733009898454
 30
0.0
 10
129.2074767970926
 20
84.35088908527243
 30
0.0
  0
LINE
  5
13C
330
1F
100
AcDbEntity
  8
0
  6
Continuous
 62
     7
370
    15
100
AcDbLine
 10
126.4664063328
 20
84.6507861302
 30
0.0
 11
126.5580559248
 21
84.7424375847
 31
0.0
  0
LINE
  5
13D
330
1F
100
AcDbEntity
  8
0
  6
Continuous
 62
     7
370
    15
100
AcDbLine
 10
126.4664063328
 20
84.6507861302
 30
0.0
 11
126.4664063328
 21
85.7342942641
 31
0.0
  0
LINE
  5
13E
330
1F
100
AcDbEntity
  8
0
  6
Continuous
 62
     7
370
    15
100
AcDbLine
 10
126.5580559248
 20
84.7424375847
 30
0.0
 11
126.5580559248
 21
85.6426428095
 31
0.0
  0
LINE
  5
13F
330
1F
100
AcDbEntity
  8
0
  6
Continuous
 62
     7
370
    15
100
AcDbLine
 10
126.8579529697
 20
84.4425405398
 30
0.0
 11
126.7663033777
 21
84.3508890853
 31
0.0
  0
LINE
  5
140
330
1F
100
AcDbEntity
  8
0
  6
Continuous
 62
     7
370
    15
100
AcDbLine
 10
129.2833199823
 20
84.4425405398
 30
0.0
 11
126.8579529697
 21
84.4425405398
 31
0.0
  0
LINE
  5
141
330
1F
100
AcDbEntity
  8
0
  6
Continuous
 62
     7
370
    15
100
AcDbLine
 10
129.2074767971
 20
84.3508890853
 30
0.0
 11
126.7663033777
 21
84.3508890853
 31
0.0
  0
LINE
  5
142
330
1F
100
AcDbEntity
  8
0
  6
Continuous
 62
     7
370
    15
100
AcDbLine
 10
130.300679999
 20
90.0341919646
 30
0.0
 11
131.8154333258
 21
90.0341919646
 31
0.0
  0
LWPOLYLINE
  5
143
330
1F
100
AcDbEntity
  8
0
  6
Continuous
 62
     7
370
    15
100
AcDbPolyline
 90
        3
 70
   128
 43
0.0
 10
131.7830195749
 20
89.94254051
 10
131.7992655659
 20
89.988391383
 10
131.8154333258
 20
90.0341919646
  0
LINE
  5
144
330
1F
100
AcDbEntity
  8
0
  6
Continuous
 62
     7
370
    15
100
AcDbLine
 10
130.3330937499
 20
89.94254051
 30
0.0
 11
131.7830195749
 21
89.94254051
 31
0.0
  0
LINE
  5
145
330
1F
100
AcDbEntity
  8
0
  6
Continuous
 62
     7
370
    15
100
AcDbLine
 10
136.8187775934
 20
111.2848911457
 30
0.0
 11
125.2973357314
 21
111.2848911457
 31
0.0
  0
ELLIPSE
  5
146
330
1F
100
AcDbEntity
  8
0
  6
Continuous
 62
     7
370
    15
100
AcDbEllipse
 10
125.2842427202
 20
111.2848910531
 30
0.0
 11
0.0
 21
0.5
 31
0.0
210
0.0
220
0.0
230
1.0
 40
0.0261859216
 41
4.71238898038469
 42
5.323254218583025
  0
LINE
  5
147
330
1F
100
AcDbEntity
  8
0
  6
Continuous
 62
     7
370
    15
100
AcDbLine
 10
125.2949664467
 20
111.5716793597
 30
0.0
 11
136.8211450153
 21
111.5716793597
 31
0.0
  0
ELLIPSE
  5
148
330
1F
100
AcDbEntity
  8
0
  6
Continuous
 62
     7
370
    15
100
AcDbEllipse
 10
136.8318708771
 20
111.2848910531
 30
0.0
 11
0.0
 21
0.5
 31
0.0
210
0.0
220
0.0
230
1.0
 40
0.0261859216
 41
0.9599310885977624
 42
1.570796326794897
  0
SPLINE
  5
149
330
1F
100
AcDbEntity
  8
0
  6
Continuous
 62
     7
370
    15
100
AcDbSpline
210
0.0
220
0.0
230
1.0
 70
     8
 71
     3
 72
     9
 73
     5
 74
     0
 42
0.00000001
 43
0.00000001
 40
0.0
 40
0.0
 40
0.0
 40
0.0
 40
0.4999996362359276
 40
1.0
 40
1.0
 40
1.0
 40
1.0
 10
131.9721283489353
 20
89.87539960298884
 30
0.0
 10
131.9435014979897
 20
89.89473323887697
 30
0.0
 10
131.8862477544448
 20
89.93340053878478
 30
0.0
 10
131.8174289847504
 20
89.93949385147592
 30
0.0
 10
131.7830195748693
 20
89.94254051003801
 30
0.0
  0
SPLINE
  5
14A
330
1F
100
AcDbEntity
  8
0
  6
Continuous
 62
     7
370
    15
100
AcDbSpline
210
0.0
220
0.0
230
1.0
 70
     8
 71
     3
 72
     9
 73
     5
 74
     0
 42
0.00000001
 43
0.00000001
 40
0.0
 40
0.0
 40
0.0
 40
0.0
 40
0.5000028141433214
 40
1.0
 40
1.0
 40
1.0
 40
1.0
 10
131.8154333257562
 20
90.03419196460592
 30
0.0
 10
131.8495969542152
 20
90.03119006273124
 30
0.0
 10
131.9179238265699
 20
90.02518629277283
 30
0.0
 10
131.9749231491845
 20
89.98703289474437
 30
0.0
 10
132.0034226500875
 20
89.96795630309927
 30
0.0
  0
LINE
  5
14B
330
1F
100
AcDbEntity
  8
0
  6
Continuous
 62
     7
370
    15
100
AcDbLine
 10
135.2581603551
 20
85.9425398544
 30
0.0
 11
135.349809947
 21
86.034191309
 31
0.0
  0
LINE
  5
14C
330
1F
100
AcDbEntity
  8
0
  6
Continuous
 62
     7
370
    15
100
AcDbLine
 10
135.1571509713
 20
85.9425398544
 30
0.0
 11
135.2581603551
 21
85.9425398544
 31
0.0
  0
LWPOLYLINE
  5
14D
330
1F
100
AcDbEntity
  8
0
  6
Continuous
 62
     7
370
    15
100
AcDbPolyline
 90
        3
 70
   128
 43
0.0
 10
135.2231985056
 20
86.034191309
 10
135.1899484271
 20
85.9879530058
 10
135.1571509713
 20
85.9425398544
  0
LINE
  5
14E
330
1F
100
AcDbEntity
  8
0
  6
Continuous
 62
     7
370
    15
100
AcDbLine
 10
135.2231985056
 20
86.034191309
 30
0.0
 11
135.349809947
 21
86.034191309
 31
0.0
  0
LWPOLYLINE
  5
14F
330
1F
100
AcDbEntity
  8
0
  6
Continuous
 62
     7
370
    15
100
AcDbPolyline
 90
        3
 70
   128
 43
0.0
 10
127.8399208659
 20
86.7136991606
 10
127.8790587658
 20
86.6657770262
 10
127.9085649276
 20
86.6298335627
  0
SPLINE
  5
150
330
1F
100
AcDbEntity
  8
0
  6
Continuous
 62
     7
370
    15
100
AcDbSpline
210
0.0
220
0.0
230
1.0
 70
     8
 71
     3
 72
    11
 73
     7
 74
     0
 42
0.00000001
 43
0.00000001
 40
0.0
 40
0.0
 40
0.0
 40
0.0
 40
0.2691375339449394
 40
0.5382790382104133
 40
0.8073656699028602
 40
1.0
 40
1.0
 40
1.0
 40
1.0
 10
127.9085649275667
 20
86.62983356271135
 30
0.0
 10
127.862936788584
 20
86.52640543689482
 30
0.0
 10
127.7716798375118
 20
86.3195476594886
 30
0.0
 10
127.514571209829
 20
86.09058899106289
 30
0.0
 10
127.2317569921166
 20
85.961890562884
 30
0.0
 10
127.039271129356
 20
85.94823647029949
 30
0.0
 10
126.9589642161018
 20
85.94253985438692
 30
0.0
  0
SPLINE
  5
151
330
1F
100
AcDbEntity
  8
0
  6
Continuous
 62
     7
370
    15
100
AcDbSpline
210
0.0
220
0.0
230
1.0
 70
     8
 71
     3
 72
    11
 73
     7
 74
     0
 42
0.00000001
 43
0.00000001
 40
0.0
 40
0.0
 40
0.0
 40
0.0
 40
0.2709084153113565
 40
0.5418173939525479
 40
0.8126744910308761
 40
0.9999999999999999
 40
0.9999999999999999
 40
0.9999999999999999
 40
0.9999999999999999
 10
126.8929148191101
 20
86.03419130895483
 30
0.0
 10
127.0054203605522
 20
86.04521578692426
 30
0.0
 10
127.2304316773818
 20
86.0672647657875
 30
0.0
 10
127.5282904318085
 20
86.23995705065352
 30
0.0
 10
127.7369406155962
 20
86.4663595300568
 30
0.0
 10
127.8100361481693
 20
86.64192156226733
 30
0.0
 10
127.8399208658821
 20
86.71369916055548
 30
0.0
  0
LINE
  5
152
330
1F
100
AcDbEntity
  8
0
  6
Continuous
 62
     7
370
    15
100
AcDbLine
 10
127.1580586308
 20
93.4425401524
 30
0.0
 11
127.1580586308
 21
93.3508905605
 31
0.0
  0
LINE
  5
153
330
1F
100
AcDbEntity
  8
0
  6
Continuous
 62
     7
370
    15
100
AcDbLine
 10
133.6009500646
 20
93.4425401524
 30
0.0
 11
127.1580586308
 21
93.4425401524
 31
0.0
  0
LINE
  5
154
330
1F
100
AcDbEntity
  8
0
  6
Continuous
 62
     7
370
    15
100
AcDbLine
 10
133.6009500646
 20
93.4032606915
 30
0.0
 11
133.6009500646
 21
93.4425401524
 31
0.0
  0
LINE
  5
155
330
1F
100
AcDbEntity
  8
0
  6
Continuous
 62
     7
370
    15
100
AcDbLine
 10
133.6009500646
 20
93.4032606915
 30
0.0
 11
134.9580565566
 21
93.4032606915
 31
0.0
  0
LINE
  5
156
330
1F
100
AcDbEntity
  8
0
  6
Continuous
 62
     7
370
    15
100
AcDbLine
 10
134.9580565566
 20
93.3508905605
 30
0.0
 11
134.9580565566
 21
93.4032606915
 31
0.0
  0
LINE
  5
157
330
1F
100
AcDbEntity
  8
0
  6
Continuous
 62
     7
370
    15
100
AcDbLine
 10
127.1580586308
 20
93.3508905605
 30
0.0
 11
134.9580565566
 21
93.3508905605
 31
0.0
  0
LINE
  5
158
330
1F
100
AcDbEntity
  8
0
  6
Continuous
 62
     7
370
    15
100
AcDbLine
 10
125.2973357314
 20
88.4032617346
 30
0.0
 11
125.2580562705
 21
88.4425411955
 31
0.0
  0
LINE
  5
159
330
1F
100
AcDbEntity
  8
0
  6
Continuous
 62
     7
370
    15
100
AcDbLine
 10
125.2973357314
 20
88.4032617346
 30
0.0
 11
123.3497092599
 21
88.4032617346
 31
0.0
  0
LINE
  5
15A
330
1F
100
AcDbEntity
  8
0
  6
Continuous
 62
     7
370
    15
100
AcDbLine
 10
125.2580562705
 20
88.4425411955
 30
0.0
 11
125.0580566102
 21
88.4425411955
 31
0.0
  0
LINE
  5
15B
330
1F
100
AcDbEntity
  8
0
  6
Continuous
 62
     7
370
    15
100
AcDbLine
 10
136.8580570543
 20
81.4949120418
 30
0.0
 11
136.8580570543
 21
86.4425408677
 31
0.0
  0
LINE
  5
15C
330
1F
100
AcDbEntity
  8
0
  6
Continuous
 62
     7
370
    15
100
AcDbLine
 10
136.8187775934
 20
81.5341915027
 30
0.0
 11
136.8187775934
 21
86.4818184659
 31
0.0
  0
LINE
  5
15D
330
1F
100
AcDbEntity
  8
0
  6
Continuous
 62
     7
370
    15
100
AcDbLine
 10
136.8187775934
 20
86.4818184659
 30
0.0
 11
136.8580570543
 21
86.4425408677
 31
0.0
  0
ELLIPSE
  5
15E
330
1F
100
AcDbEntity
  8
0
  6
Continuous
 62
     7
370
    15
100
AcDbEllipse
 10
126.8581596364
 20
84.7426432853
 30
0.0
 11
-0.2122774439829982
 21
-0.2122774439830123
 31
0.0
210
0.0
220
0.0
230
0.9999999999999998
 40
0.999315002
 41
5.498129760120277
 42
7.068240854238891
  0
ELLIPSE
  5
15F
330
1F
100
AcDbEntity
  8
0
  6
Continuous
 62
     7
370
    15
100
AcDbEllipse
 10
126.7665089109
 20
84.6509925598
 30
0.0
 11
-0.2122774439829982
 21
-0.2122774439829982
 31
0.0
210
0.0
220
0.0
230
0.9999999999999998
 40
0.999315002
 41
5.498129760120326
 42
7.06824085423886
  0
LINE
  5
160
330
1F
100
AcDbEntity
  8
0
  6
Continuous
 62
     7
370
    15
100
AcDbLine
 10
125.2973357314
 20
81.5341915027
 30
0.0
 11
125.2973357314
 21
86.4818184659
 31
0.0
  0
LINE
  5
161
330
1F
100
AcDbEntity
  8
0
  6
Continuous
 62
     7
370
    15
100
AcDbLine
 10
125.2580562705
 20
81.4949120418
 30
0.0
 11
125.2580562705
 21
86.4425408677
 31
0.0
  0
LINE
  5
162
330
1F
100
AcDbEntity
  8
0
  6
Continuous
 62
     7
370
    15
100
AcDbLine
 10
125.2973357314
 20
86.4818184659
 30
0.0
 11
125.2580562705
 21
86.4425408677
 31
0.0
  0
LINE
  5
163
330
1F
100
AcDbEntity
  8
0
  6
Continuous
 62
     7
370
    15
100
AcDbLine
 10
135.6497069919
 20
85.7342942641
 30
0.0
 11
135.5580574
 21
85.6426428095
 31
0.0
  0
ELLIPSE
  5
164
330
1F
100
AcDbEntity
  8
0
  6
Continuous
 62
     7
370
    15
100
AcDbEllipse
 10
135.2579539609
 20
85.6424376098
 30
0.0
 11
0.2122774439830266
 21
0.2122774439830124
 31
0.0
210
0.0
220
0.0
230
1.0
 40
0.999315002
 41
5.498129760120309
 42
7.068240854238943
  0
ELLIPSE
  5
165
330
1F
100
AcDbEntity
  8
0
  6
Continuous
 62
     7
370
    15
100
AcDbEllipse
 10
135.3496046864
 20
85.7340883352
 30
0.0
 11
0.2122774439830266
 21
0.2122774439830124
 31
0.0
210
0.0
220
0.0
230
1.0
 40
0.999315002
 41
5.498129760120309
 42
7.068240854238849
  0
LINE
  5
166
330
1F
100
AcDbEntity
  8
0
  6
Continuous
 62
     7
370
    15
100
AcDbLine
 10
134.9580565566
 20
108.4425404574
 30
0.0
 11
134.9580565566
 21
108.5341911553
 31
0.0
  0
ARC
  5
167
330
1F
100
AcDbEntity
  8
0
  6
Continuous
 62
     7
370
    15
100
AcDbCircle
 10
134.9580567986
 20
107.4425404475
 30
0.0
 40
1.091650725492158
100
AcDbArc
 50
0.0
 51
90.0
  0
LINE
  5
168
330
1F
100
AcDbEntity
  8
0
  6
Continuous
 62
     7
370
    15
100
AcDbLine
 10
136.0497081751
 20
107.4425404681
 30
0.0
 11
135.9580567205
 21
107.4425404681
 31
0.0
  0
ARC
  5
169
330
1F
100
AcDbEntity
  8
0
  6
Continuous
 62
     7
370
    15
100
AcDbCircle
 10
134.9580567986
 20
107.4425404475
 30
0.0
 40
1.0
100
AcDbArc
 50
0.0
 51
90.0
  0
LINE
  5
16A
330
1F
100
AcDbEntity
  8
0
  6
Continuous
 62
     7
370
    15
100
AcDbLine
 10
135.6497069919
 20
85.7342942641
 30
0.0
 11
135.6497069919
 21
84.6507861302
 31
0.0
  0
LINE
  5
16B
330
1F
100
AcDbEntity
  8
0
  6
Continuous
 62
     7
370
    15
100
AcDbLine
 10
135.5580574
 20
85.6426428095
 30
0.0
 11
135.5580574
 21
84.7424375847
 31
0.0
  0
SPLINE
  5
16C
330
1F
100
AcDbEntity
  8
0
  6
Continuous
 62
     7
370
    15
100
AcDbSpline
210
0.0
220
0.0
230
1.0
 70
     8
 71
     3
 72
    11
 73
     7
 74
     0
 42
0.00000001
 43
0.00000001
 40
0.0
 40
0.0
 40
0.0
 40
0.0
 40
0.2691386145689975
 40
0.5382788443612575
 40
0.8073652323432103
 40
1.0
 40
1.0
 40
1.0
 40
1.0
 10
135.1571509712822
 20
85.94253985438692
 30
0.0
 10
135.0446437170386
 20
85.95356509240922
 30
0.0
 10
134.8196285333443
 20
85.97561563462128
 30
0.0
 10
134.5217956165199
 20
86.14830792815114
 30
0.0
 10
134.3111708951265
 20
86.37674660209476
 30
0.0
 10
134.2380536544898
 20
86.5553277072286
 30
0.0
 10
134.2075483971721
 20
86.62983356271135
 30
0.0
  0
SPLINE
  5
16D
330
1F
100
AcDbEntity
  8
0
  6
Continuous
 62
     7
370
    15
100
AcDbSpline
210
0.0
220
0.0
230
1.0
 70
     8
 71
     3
 72
    11
 73
     7
 74
     0
 42
0.00000001
 43
0.00000001
 40
0.0
 40
0.0
 40
0.0
 40
0.0
 40
0.2709073822165568
 40
0.541816659734323
 40
0.8126729577540487
 40
1.0
 40
1.0
 40
1.0
 40
1.0
 10
134.2761924588567
 20
86.71369916055548
 30
0.0
 10
134.3226675931397
 20
86.6106507160088
 30
0.0
 10
134.4156181868514
 20
86.40455310597592
 30
0.0
 10
134.674605197824
 20
86.17768891071032
 30
0.0
 10
134.9559048020678
 20
86.05253338768759
 30
0.0
 10
135.1456299021553
 20
86.03951417819248
 30
0.0
 10
135.2231985056287
 20
86.03419130895483
 30
0.0
  0
ARC
  5
16E
330
1F
100
AcDbEntity
  8
0
  6
Continuous
 62
     7
370
    15
100
AcDbCircle
 10
131.3080567986
 20
104.4425404475
 30
0.0
 40
5.00000000000001
100
AcDbArc
 50
338.4348149848
 51
21.5651850152
  0
LINE
  5
16F
330
1F
100
AcDbEntity
  8
0
  6
Continuous
 62
     7
370
    15
100
AcDbLine
 10
135.9580567205
 20
106.2803380214
 30
0.0
 11
136.0497081751
 21
106.2977104471
 31
0.0
  0
ARC
  5
170
330
1F
100
AcDbEntity
  8
0
  6
Continuous
 62
     7
370
    15
100
AcDbCircle
 10
131.3080567986
 20
104.4425404475
 30
0.0
 40
5.091650725492131
100
AcDbArc
 50
338.6320876898
 51
21.3679123102
  0
LINE
  5
171
330
1F
100
AcDbEntity
  8
0
  6
Continuous
 62
     7
370
    15
100
AcDbLine
 10
133.0920977616
 20
108.4425404574
 30
0.0
 11
134.9580565566
 21
108.4425404574
 31
0.0
  0
LINE
  5
172
330
1F
100
AcDbEntity
  8
0
  6
Continuous
 62
     7
370
    15
100
AcDbLine
 10
133.0580560589
 20
108.4765821602
 30
0.0
 11
133.0920977616
 21
108.4425404574
 31
0.0
  0
LINE
  5
173
330
1F
100
AcDbEntity
  8
0
  6
Continuous
 62
     7
370
    15
100
AcDbLine
 10
129.0580572659
 20
108.4765821602
 30
0.0
 11
133.0580560589
 21
108.4765821602
 31
0.0
  0
LINE
  5
174
330
1F
100
AcDbEntity
  8
0
  6
Continuous
 62
     7
370
    15
100
AcDbLine
 10
129.0240155631
 20
108.4425404574
 30
0.0
 11
129.0580572659
 21
108.4765821602
 31
0.0
  0
LINE
  5
175
330
1F
100
AcDbEntity
  8
0
  6
Continuous
 62
     7
370
    15
100
AcDbLine
 10
128.5151632601
 20
108.4425404574
 30
0.0
 11
129.0240155631
 21
108.4425404574
 31
0.0
  0
LINE
  5
176
330
1F
100
AcDbEntity
  8
0
  6
Continuous
 62
     7
370
    15
100
AcDbLine
 10
128.5151632601
 20
108.4818193362
 30
0.0
 11
128.5151632601
 21
108.4425404574
 31
0.0
  0
LINE
  5
177
330
1F
100
AcDbEntity
  8
0
  6
Continuous
 62
     7
370
    15
100
AcDbLine
 10
128.5151632601
 20
108.4818193362
 30
0.0
 11
127.1580586308
 21
108.4818193362
 31
0.0
  0
LINE
  5
178
330
1F
100
AcDbEntity
  8
0
  6
Continuous
 62
     7
370
    15
100
AcDbLine
 10
127.1580586308
 20
108.5341911553
 30
0.0
 11
127.1580586308
 21
108.4818193362
 31
0.0
  0
LINE
  5
179
330
1F
100
AcDbEntity
  8
0
  6
Continuous
 62
     7
370
    15
100
AcDbLine
 10
134.9580565566
 20
108.5341911553
 30
0.0
 11
127.1580586308
 21
108.5341911553
 31
0.0
  0
ARC
  5
17A
330
1F
100
AcDbEntity
  8
0
  6
Continuous
 62
     7
370
    15
100
AcDbCircle
 10
134.5580567986
 20
84.4425404475
 30
0.0
 40
6.999999999999998
100
AcDbArc
 50
129.0930558601
 51
161.7918194433
  0
ARC
  5
17B
330
1F
100
AcDbEntity
  8
0
  6
Continuous
 62
     7
370
    15
100
AcDbCircle
 10
134.5580567986
 20
84.4425404475
 30
0.0
 40
7.091650725492149
100
AcDbArc
 50
128.8177389683
 51
161.3214573275
  0
LINE
  5
17C
330
1F
100
AcDbEntity
  8
0
  6
Continuous
 62
     7
370
    15
100
AcDbLine
 10
126.1580566043
 20
95.6047424138
 30
0.0
 11
126.0664070123
 21
95.5873704538
 31
0.0
  0
LINE
  5
17D
330
1F
100
AcDbEntity
  8
0
  6
Continuous
 62
     7
370
    15
100
AcDbLine
 10
126.1580566043
 20
94.4425403163
 30
0.0
 11
126.1580566043
 21
95.6047424138
 31
0.0
  0
LINE
  5
17E
330
1F
100
AcDbEntity
  8
0
  6
Continuous
 62
     7
370
    15
100
AcDbLine
 10
126.0664070123
 20
94.4425403163
 30
0.0
 11
126.1580566043
 21
94.4425403163
 31
0.0
  0
LINE
  5
17F
330
1F
100
AcDbEntity
  8
0
  6
Continuous
 62
     7
370
    15
100
AcDbLine
 10
126.0664070123
 20
95.5873704538
 30
0.0
 11
126.0664070123
 21
94.4425403163
 31
0.0
  0
LINE
  5
180
330
1F
100
AcDbEntity
  8
0
  6
Continuous
 62
     7
370
    15
100
AcDbLine
 10
138.7664059275
 20
88.4032617346
 30
0.0
 11
136.8187775934
 21
88.4032617346
 31
0.0
  0
LINE
  5
181
330
1F
100
AcDbEntity
  8
0
  6
Continuous
 62
     7
370
    15
100
AcDbLine
 10
136.8187775934
 20
86.4818184659
 30
0.0
 11
138.7664059275
 21
86.4818184659
 31
0.0
  0
LINE
  5
182
330
1F
100
AcDbEntity
  8
0
  6
Continuous
 62
     7
370
    15
100
AcDbLine
 10
123.3497092599
 20
86.4818184659
 30
0.0
 11
125.2973357314
 21
86.4818184659
 31
0.0
  0
LINE
  5
183
330
1F
100
AcDbEntity
  8
0
  6
Continuous
 62
     7
370
    15
100
AcDbLine
 10
125.2973357314
 20
88.4032617346
 30
0.0
 11
125.2973357314
 21
111.2848911457
 31
0.0
  0
LINE
  5
184
330
1F
100
AcDbEntity
  8
0
  6
Continuous
 62
     7
370
    15
100
AcDbLine
 10
136.8187775934
 20
88.4032617346
 30
0.0
 11
136.8187775934
 21
111.2848911457
 31
0.0
  0
ARC
  5
185
330
1F
100
AcDbEntity
  8
0
  6
Continuous
 62
     7
370
    15
100
AcDbCircle
 10
127.1580567986
 20
94.4425404475
 30
0.0
 40
1.091650725492144
100
AcDbArc
 50
180.0
 51
270.0
  0
ARC
  5
186
330
1F
100
AcDbEntity
  8
0
  6
Continuous
 62
     7
370
    15
100
AcDbCircle
 10
134.9580567986
 20
94.4425404475
 30
0.0
 40
1.091650725492144
100
AcDbArc
 50
270.0
 51
0.0
  0
LINE
  5
187
330
1F
100
AcDbEntity
  8
0
  6
Continuous
 62
     7
370
    15
100
AcDbLine
 10
136.0497081751
 20
106.2977104471
 30
0.0
 11
136.0497081751
 21
107.4425404681
 31
0.0
  0
ARC
  5
188
330
1F
100
AcDbEntity
  8
0
  6
Continuous
 62
     7
370
    15
100
AcDbCircle
 10
127.1580567986
 20
107.4425404475
 30
0.0
 40
1.091650725492158
100
AcDbArc
 50
90.0
 51
180.0
  0
LINE
  5
189
330
1F
100
AcDbEntity
  8
0
  6
Continuous
 62
     7
370
    15
100
AcDbLine
 10
126.0664070123
 20
107.4425404681
 30
0.0
 11
126.0664070123
 21
99.297710231
 31
0.0
  0
ARC
  5
18A
330
1F
100
AcDbEntity
  8
0
  6
Continuous
 62
     7
370
    15
100
AcDbCircle
 10
130.8080567986
 20
97.4425404475
 30
0.0
 40
5.091650725492141
100
AcDbArc
 50
158.6320876898
 51
201.3679123102
  0
ARC
  5
18B
330
1F
100
AcDbEntity
  8
0
  6
Continuous
 62
     7
370
    15
100
AcDbCircle
 10
131.0580567986
 20
84.4425404475
 30
0.0
 40
1.591650725492175
100
AcDbArc
 50
191.9465249491
 51
348.0534750509
  0
LINE
  5
18C
330
1F
100
AcDbEntity
  8
0
  6
Continuous
 62
     7
370
    15
100
AcDbLine
 10
135.349809947
 20
84.3508890853
 30
0.0
 11
132.9086365276
 21
84.3508890853
 31
0.0
  0
ARC
  5
18D
330
1F
100
AcDbEntity
  8
0
  6
Continuous
 62
     7
370
    15
100
AcDbCircle
 10
134.9580567986
 20
94.4425404475
 30
0.0
 40
1.039278882353784
100
AcDbArc
 50
270.0
 51
0.0
  0
ARC
  5
18E
330
1F
100
AcDbEntity
  8
0
  6
Continuous
 62
     7
370
    15
100
AcDbCircle
 10
131.0580567986
 20
84.4425404475
 30
0.0
 40
1.500000000000006
100
AcDbArc
 50
189.5913024773
 51
350.4086975227
  0
LINE
  5
18F
330
1F
100
AcDbEntity
  8
0
  6
Continuous
 62
     7
370
    15
100
AcDbLine
 10
135.2581603551
 20
84.4425405398
 30
0.0
 11
132.8327933425
 21
84.4425405398
 31
0.0
  0
LINE
  5
190
330
1F
100
AcDbEntity
  8
0
  6
Continuous
 62
     7
370
    15
100
AcDbLine
 10
126.1580566043
 20
107.0297986757
 30
0.0
 11
126.1187771433
 21
107.0297986757
 31
0.0
  0
LINE
  5
191
330
1F
100
AcDbEntity
  8
0
  6
Continuous
 62
     7
370
    15
100
AcDbLine
 10
126.1580566043
 20
99.280338271
 30
0.0
 11
126.1580566043
 21
107.0297986757
 31
0.0
  0
LINE
  5
192
330
1F
100
AcDbEntity
  8
0
  6
Continuous
 62
     7
370
    15
100
AcDbLine
 10
126.0664070123
 20
99.297710231
 30
0.0
 11
126.1580566043
 21
99.280338271
 31
0.0
  0
LINE
  5
193
330
1F
100
AcDbEntity
  8
0
  6
Continuous
 62
     7
370
    15
100
AcDbLine
 10
126.1187771433
 20
107.4425404681
 30
0.0
 11
126.0664070123
 21
107.4425404681
 31
0.0
  0
LINE
  5
194
330
1F
100
AcDbEntity
  8
0
  6
Continuous
 62
     7
370
    15
100
AcDbLine
 10
126.1187771433
 20
107.4425404681
 30
0.0
 11
126.1187771433
 21
107.0297986757
 31
0.0
  0
LINE
  5
195
330
1F
100
AcDbEntity
  8
0
  6
Continuous
 62
     7
370
    15
100
AcDbLine
 10
135.9580567205
 20
107.4425404681
 30
0.0
 11
135.9580567205
 21
106.2803380214
 31
0.0
  0
LINE
  5
196
330
1F
100
AcDbEntity
  8
0
  6
Continuous
 62
     7
370
    15
100
AcDbLine
 10
136.8764339113
 20
111.4085454051
 30
0.0
 11
136.8736418062
 21
113.4425406367
 31
0.0
  0
LINE
  5
197
330
1F
100
AcDbEntity
  8
0
  6
Continuous
 62
     7
370
    15
100
AcDbLine
 10
136.8580570543
 20
111.390168548
 30
0.0
 11
136.8764339113
 21
111.4085454051
 31
0.0
  0
LINE
  5
198
330
1F
100
AcDbEntity
  8
0
  6
Continuous
 62
     7
370
    15
100
AcDbLine
 10
136.8580570543
 20
88.4425411955
 30
0.0
 11
136.8580570543
 21
111.390168548
 31
0.0
  0
LINE
  5
199
330
1F
100
AcDbEntity
  8
0
  6
Continuous
 62
     7
370
    15
100
AcDbLine
 10
136.8187775934
 20
88.4032617346
 30
0.0
 11
136.8580570543
 21
88.4425411955
 31
0.0
  0
LINE
  5
19A
330
1F
100
AcDbEntity
  8
0
  6
Continuous
 62
     7
370
    15
100
AcDbLine
 10
136.8531042808
 20
113.3146132365
 30
0.0
 11
136.8211450153
 21
111.5716793597
 31
0.0
  0
ELLIPSE
  5
19B
330
1F
100
AcDbEntity
  8
0
  6
Continuous
 62
     7
370
    15
100
AcDbEllipse
 10
136.859538534
 20
113.1425404475
 30
0.0
 11
0.0
 21
0.2999999999999972
 31
0.0
210
0.0
220
0.0
230
1.0
 40
0.0261859216
 41
0.0
 42
0.9599310885975526
  0
LINE
  5
19C
330
1F
100
AcDbEntity
  8
0
  6
Continuous
 62
     7
370
    15
100
AcDbLine
 10
136.8736418062
 20
113.4425406367
 30
0.0
 11
136.8595378572
 21
113.4425406367
 31
0.0
  0
ARC
  5
19D
330
1F
100
AcDbEntity
  8
0
  6
Continuous
 62
     7
370
    15
100
AcDbCircle
 10
127.1580567986
 20
94.4425404475
 30
0.0
 40
1.0
100
AcDbArc
 50
180.0
 51
270.0
  0
LINE
  5
19E
330
1F
100
AcDbEntity
  8
0
  6
Continuous
 62
     7
370
    15
100
AcDbLine
 10
123.3104297989
 20
86.4425408677
 30
0.0
 11
125.2580562705
 21
86.4425408677
 31
0.0
  0
LINE
  5
19F
330
1F
100
AcDbEntity
  8
0
  6
Continuous
 62
     7
370
    15
100
AcDbLine
 10
137.0580567145
 20
88.4425411955
 30
0.0
 11
136.8580570543
 21
88.4425411955
 31
0.0
  0
LINE
  5
1A0
330
1F
100
AcDbEntity
  8
0
  6
Continuous
 62
     7
370
    15
100
AcDbLine
 10
136.8580570543
 20
86.4425408677
 30
0.0
 11
138.8056853884
 21
86.4425408677
 31
0.0
  0
ARC
  5
1A1
330
1F
100
AcDbEntity
  8
0
  6
Continuous
 62
     7
370
    15
100
AcDbCircle
 10
130.8080567986
 20
97.4425404475
 30
0.0
 40
5.0
100
AcDbArc
 50
158.4348149848
 51
201.5651850152
  0
LINE
  5
1A2
330
1F
100
AcDbEntity
  8
0
  6
Continuous
 62
     7
370
    15
100
AcDbLine
 10
125.2580562705
 20
88.4425411955
 30
0.0
 11
125.2580562705
 21
111.390168548
 31
0.0
  0
LINE
  5
1A3
330
1F
100
AcDbEntity
  8
0
  6
Continuous
 62
     7
370
    15
100
AcDbLine
 10
125.2396794134
 20
111.4085454051
 30
0.0
 11
125.2580562705
 21
111.390168548
 31
0.0
  0
LINE
  5
1A4
330
1F
100
AcDbEntity
  8
0
  6
Continuous
 62
     7
370
    15
100
AcDbLine
 10
125.2424696559
 20
113.4425406367
 30
0.0
 11
125.2396794134
 21
111.4085454051
 31
0.0
  0
LINE
  5
1A5
330
1F
100
AcDbEntity
  8
0
  6
Continuous
 62
     7
370
    15
100
AcDbLine
 10
125.2565736049
 20
113.4425406367
 30
0.0
 11
125.2424696559
 21
113.4425406367
 31
0.0
  0
ELLIPSE
  5
1A6
330
1F
100
AcDbEntity
  8
0
  6
Continuous
 62
     7
370
    15
100
AcDbEllipse
 10
125.2565750632
 20
113.1425404475
 30
0.0
 11
0.0
 21
0.2999999999999972
 31
0.0
210
0.0
220
0.0
230
1.0
 40
0.0261859216
 41
5.323254218583242
 42
6.283185307179586
  0
LINE
  5
1A7
330
1F
100
AcDbEntity
  8
0
  6
Continuous
 62
     7
370
    15
100
AcDbLine
 10
125.2949664467
 20
111.5716793597
 30
0.0
 11
125.2630109066
 21
113.3146132365
 31
0.0
  0
ARC
  5
1A8
330
1F
100
AcDbEntity
  8
0
  6
Continuous
 62
     7
370
    15
100
AcDbCircle
 10
127.1580567986
 20
107.4425404475
 30
0.0
 40
1.039278882353784
100
AcDbArc
 50
90.0
 51
180.0
  0
LINE
  5
1A9
330
1F
100
AcDbEntity
  8
0
  6
Continuous
 62
     7
370
    15
100
AcDbLine
 10
136.8531042808
 20
113.3146132365
 30
0.0
 11
125.2630109066
 21
113.3146132365
 31
0.0
  0
LINE
  5
1AA
330
1F
100
AcDbEntity
  8
0
  6
Continuous
 62
     7
370
    15
100
AcDbLine
 10
125.2565736049
 20
113.4425406367
 30
0.0
 11
136.8595378572
 21
113.4425406367
 31
0.0
  0
ARC
  5
1AB
330
1F
100
AcDbEntity
  8
0
  6
Continuous
 62
     7
370
    15
100
AcDbCircle
 10
136.8580567986
 20
83.4425404475
 30
0.0
 40
1.94762815686164
100
AcDbArc
 50
270.0
 51
0.0
  0
ARC
  5
1AC
330
1F
100
AcDbEntity
  8
0
  6
Continuous
 62
     7
370
    15
100
AcDbCircle
 10
136.8580567986
 20
83.4425404475
 30
0.0
 40
2.0
100
AcDbArc
 50
270.0
 51
0.0
  0
ARC
  5
1AD
330
1F
100
AcDbEntity
  8
0
  6
Continuous
 62
     7
370
    15
100
AcDbCircle
 10
125.2580567986
 20
83.4425404475
 30
0.0
 40
2.0
100
AcDbArc
 50
180.0
 51
270.0
  0
ARC
  5
1AE
330
1F
100
AcDbEntity
  8
0
  6
Continuous
 62
     7
370
    15
100
AcDbCircle
 10
125.2580567986
 20
83.4425404475
 30
0.0
 40
1.94762815686164
100
AcDbArc
 50
180.0
 51
270.0
  0
LINE
  5
1AF
330
1F
100
AcDbEntity
  8
0
  6
Continuous
 62
     7
370
    15
100
AcDbLine
 10
136.8763873452
 20
111.4425405417
 30
0.0
 11
138.8580573821
 21
111.4425405417
 31
0.0
  0
LINE
  5
1B0
330
1F
100
AcDbEntity
  8
0
  6
Continuous
 62
     7
370
    15
100
AcDbLine
 10
137.0580567145
 20
111.390168548
 30
0.0
 11
136.8580570543
 21
111.390168548
 31
0.0
  0
LINE
  5
1B1
330
1F
100
AcDbEntity
  8
0
  6
Continuous
 62
     7
370
    15
100
AcDbLine
 10
125.2580562705
 20
111.390168548
 30
0.0
 11
125.0580566102
 21
111.390168548
 31
0.0
  0
LINE
  5
1B2
330
1F
100
AcDbEntity
  8
0
  6
Continuous
 62
     7
370
    15
100
AcDbLine
 10
123.2580559426
 20
111.4425405417
 30
0.0
 11
125.2397278422
 21
111.4425405417
 31
0.0
  0
LINE
  5
1B3
330
1F
100
AcDbEntity
  8
0
  6
Continuous
 62
     7
370
    15
100
AcDbLine
 10
130.8080570871
 20
96.6718499571
 30
0.0
 11
130.7687776261
 21
96.6718499571
 31
0.0
  0
LINE
  5
1B4
330
1F
100
AcDbEntity
  8
0
  6
Continuous
 62
     7
370
    15
100
AcDbLine
 10
130.8080570871
 20
96.474379769
 30
0.0
 11
130.8080570871
 21
96.6718499571
 31
0.0
  0
LINE
  5
1B5
330
1F
100
AcDbEntity
  8
0
  6
Continuous
 62
     7
370
    15
100
AcDbLine
 10
130.8080570871
 20
96.474379769
 30
0.0
 11
130.7687776261
 21
96.474379769
 31
0.0
  0
LINE
  5
1B6
330
1F
100
AcDbEntity
  8
0
  6
Continuous
 62
     7
370
    15
100
AcDbLine
 10
130.7687776261
 20
96.474379769
 30
0.0
 11
130.7687776261
 21
96.6718499571
 31
0.0
  0
ARC
  5
1B7
330
1F
100
AcDbEntity
  8
0
  6
Continuous
 62
     7
370
    15
100
AcDbCircle
 10
128.5151635798
 20
107.9425404475
 30
0.0
 40
0.5392788823537842
100
AcDbArc
 50
90.0
 51
225.0
  0
LINE
  5
1B8
330
1F
100
AcDbEntity
  8
0
  6
Continuous
 62
     7
370
    15
100
AcDbLine
 10
130.0424149358
 20
105.6526340567
 30
0.0
 11
128.1338350946
 21
107.5612127338
 31
0.0
  0
ARC
  5
1B9
330
1F
100
AcDbEntity
  8
0
  6
Continuous
 62
     7
370
    15
100
AcDbCircle
 10
129.8580567986
 20
105.4682763788
 30
0.0
 40
0.2607211176462266
100
AcDbArc
 50
0.0
 51
45.0
  0
LINE
  5
1BA
330
1F
100
AcDbEntity
  8
0
  6
Continuous
 62
     7
370
    15
100
AcDbLine
 10
130.118777799
 20
104.9172855005
 30
0.0
 11
130.118777799
 21
105.4682764247
 31
0.0
  0
ARC
  5
1BB
330
1F
100
AcDbEntity
  8
0
  6
Continuous
 62
     7
370
    15
100
AcDbCircle
 10
129.8580567986
 20
104.9172853189
 30
0.0
 40
0.2607211176462123
100
AcDbArc
 50
307.7997224354
 51
0.0
  0
ARC
  5
1BC
330
1F
100
AcDbEntity
  8
0
  6
Continuous
 62
     7
370
    15
100
AcDbCircle
 10
130.8080567986
 20
103.6925404475
 30
0.0
 40
1.289278882353791
100
AcDbArc
 50
127.7997224354
 51
228.8879095608
  0
ARC
  5
1BD
330
1F
100
AcDbEntity
  8
0
  6
Continuous
 62
     7
370
    15
100
AcDbCircle
 10
128.4080567986
 20
100.9425404475
 30
0.0
 40
2.360721117646194
100
AcDbArc
 50
311.1120904392
 51
48.8879095608
  0
ARC
  5
1BE
330
1F
100
AcDbEntity
  8
0
  6
Continuous
 62
     7
370
    15
100
AcDbCircle
 10
130.8080567986
 20
98.1925404475
 30
0.0
 40
1.289278882353802
100
AcDbArc
 50
131.1120904392
 51
258.8400631278
  0
ARC
  5
1BF
330
1F
100
AcDbEntity
  8
0
  6
Continuous
 62
     7
370
    15
100
AcDbCircle
 10
130.5080567986
 20
96.6718498149
 30
0.0
 40
0.2607211176462176
100
AcDbArc
 50
0.0
 51
78.8400631278
  0
ARC
  5
1C0
330
1F
100
AcDbEntity
  8
0
  6
Continuous
 62
     7
370
    15
100
AcDbCircle
 10
130.5080567986
 20
96.4743798559
 30
0.0
 40
0.2607211176462309
100
AcDbArc
 50
290.0
 51
0.0
  0
LINE
  5
1C1
330
1F
100
AcDbEntity
  8
0
  6
Continuous
 62
     7
370
    15
100
AcDbLine
 10
129.9341170215
 20
95.9880291507
 30
0.0
 11
130.5972280079
 21
96.2293823272
 31
0.0
  0
ARC
  5
1C2
330
1F
100
AcDbEntity
  8
0
  6
Continuous
 62
     7
370
    15
100
AcDbCircle
 10
129.7765418566
 20
96.4209657456
 30
0.0
 40
0.4607211176462292
100
AcDbArc
 50
239.7895201773
 51
290.0
  0
ARC
  5
1C3
330
1F
100
AcDbEntity
  8
0
  6
Continuous
 62
     7
370
    15
100
AcDbCircle
 10
130.8080567986
 20
98.1925404475
 30
0.0
 40
2.510721117646236
100
AcDbArc
 50
131.1120904392
 51
239.7895201773
  0
ARC
  5
1C4
330
1F
100
AcDbEntity
  8
0
  6
Continuous
 62
     7
370
    15
100
AcDbCircle
 10
128.4080567986
 20
100.9425404475
 30
0.0
 40
1.13927888235376
100
AcDbArc
 50
311.1120904392
 51
48.8879095608
  0
ARC
  5
1C5
330
1F
100
AcDbEntity
  8
0
  6
Continuous
 62
     7
370
    15
100
AcDbCircle
 10
130.8080567986
 20
103.6925404475
 30
0.0
 40
2.510721117646225
100
AcDbArc
 50
152.4795916534
 51
228.8879095608
  0
ARC
  5
1C6
330
1F
100
AcDbEntity
  8
0
  6
Continuous
 62
     7
370
    15
100
AcDbCircle
 10
128.1031755673
 20
105.1018372666
 30
0.0
 40
0.539278882353792
100
AcDbArc
 50
332.4795916534
 51
45.0
  0
LINE
  5
1C7
330
1F
100
AcDbEntity
  8
0
  6
Continuous
 62
     7
370
    15
100
AcDbLine
 10
126.6979629272
 20
107.2697050427
 30
0.0
 11
128.4845041209
 21
105.4831650131
 31
0.0
  0
ARC
  5
1C8
330
1F
100
AcDbEntity
  8
0
  6
Continuous
 62
     7
370
    15
100
AcDbCircle
 10
126.4580567986
 20
107.0297987477
 30
0.0
 40
0.3392788823537956
100
AcDbArc
 50
45.0
 51
180.0
  0
LINE
  5
1C9
330
1F
100
AcDbEntity
  8
0
  6
Continuous
 62
     7
370
    15
100
AcDbLine
 10
129.9861388379
 20
102.7507595741
 30
0.0
 11
129.9603114003
 21
102.7211658679
 31
0.0
  0
ARC
  5
1CA
330
1F
100
AcDbEntity
  8
0
  6
Continuous
 62
     7
370
    15
100
AcDbCircle
 10
128.4080567986
 20
100.9425404475
 30
0.0
 40
2.399999999999986
100
AcDbArc
 50
311.1120904392
 51
48.8879095608
  0
LINE
  5
1CB
330
1F
100
AcDbEntity
  8
0
  6
Continuous
 62
     7
370
    15
100
AcDbLine
 10
129.9861388379
 20
99.1343208611
 30
0.0
 11
129.9603114003
 21
99.1639145673
 31
0.0
  0
LINE
  5
1CC
330
1F
100
AcDbEntity
  8
0
  6
Continuous
 62
     7
370
    15
100
AcDbLine
 10
132.9847684228
 20
100.1137732551
 30
0.0
 11
132.9589428478
 21
100.084179549
 31
0.0
  0
ARC
  5
1CD
330
1F
100
AcDbEntity
  8
0
  6
Continuous
 62
     7
370
    15
100
AcDbCircle
 10
131.3080567986
 20
98.1925404475
 30
0.0
 40
2.550000000000017
100
AcDbArc
 50
332.4795916534
 51
48.8879095608
  0
LINE
  5
1CE
330
1F
100
AcDbEntity
  8
0
  6
Continuous
 62
     7
370
    15
100
AcDbLine
 10
133.5695142025
 20
97.0142758474
 30
0.0
 11
133.5346808755
 21
97.0324254617
 31
0.0
  0
ARC
  5
1CF
330
1F
100
AcDbEntity
  8
0
  6
Continuous
 62
     7
370
    15
100
AcDbCircle
 10
131.3080567986
 20
98.1925404475
 30
0.0
 40
2.510721117646236
100
AcDbArc
 50
332.4795916534
 51
48.8879095608
  0
LINE
  5
1D0
330
1F
100
AcDbEntity
  8
0
  6
Continuous
 62
     7
370
    15
100
AcDbLine
 10
130.5661218339
 20
96.9661767617
 30
0.0
 11
130.5585185164
 21
96.9276404962
 31
0.0
  0
ARC
  5
1D1
330
1F
100
AcDbEntity
  8
0
  6
Continuous
 62
     7
370
    15
100
AcDbCircle
 10
130.5080567986
 20
96.6718498149
 30
0.0
 40
0.2999999999999829
100
AcDbArc
 50
0.0
 51
78.8400631278
  0
LINE
  5
1D2
330
1F
100
AcDbEntity
  8
0
  6
Continuous
 62
     7
370
    15
100
AcDbLine
 10
132.4527764791
 20
95.797821416
 30
0.0
 11
132.4805503809
 21
95.8255953178
 31
0.0
  0
LINE
  5
1D3
330
1F
100
AcDbEntity
  8
0
  6
Continuous
 62
     7
370
    15
100
AcDbLine
 10
132.4805503809
 20
95.8255953178
 30
0.0
 11
133.9822782302
 21
94.3238683999
 31
0.0
  0
LINE
  5
1D4
330
1F
100
AcDbEntity
  8
0
  6
Continuous
 62
     7
370
    15
100
AcDbLine
 10
133.9545043284
 20
94.2960935668
 30
0.0
 11
133.9822782302
 21
94.3238683999
 31
0.0
  0
LINE
  5
1D5
330
1F
100
AcDbEntity
  8
0
  6
Continuous
 62
     7
370
    15
100
AcDbLine
 10
132.4527764791
 20
95.797821416
 30
0.0
 11
133.9545043284
 21
94.2960935668
 31
0.0
  0
LINE
  5
1D6
330
1F
100
AcDbEntity
  8
0
  6
Continuous
 62
     7
370
    15
100
AcDbLine
 10
130.0419269228
 20
104.6802378282
 30
0.0
 11
130.0178540969
 21
104.7112746187
 31
0.0
  0
ARC
  5
1D7
330
1F
100
AcDbEntity
  8
0
  6
Continuous
 62
     7
370
    15
100
AcDbCircle
 10
130.8080567986
 20
103.6925404475
 30
0.0
 40
1.25000000000001
100
AcDbArc
 50
127.7997224354
 51
228.8879095608
  0
LINE
  5
1D8
330
1F
100
AcDbEntity
  8
0
  6
Continuous
 62
     7
370
    15
100
AcDbLine
 10
132.9847684228
 20
101.7713076458
 30
0.0
 11
132.9589428478
 21
101.8009013519
 31
0.0
  0
ARC
  5
1D9
330
1F
100
AcDbEntity
  8
0
  6
Continuous
 62
     7
370
    15
100
AcDbCircle
 10
133.7080567986
 20
100.9425404475
 30
0.0
 40
1.099999999999998
100
AcDbArc
 50
131.1120904392
 51
228.8879095608
  0
ARC
  5
1DA
330
1F
100
AcDbEntity
  8
0
  6
Continuous
 62
     7
370
    15
100
AcDbCircle
 10
133.7080567986
 20
100.9425404475
 30
0.0
 40
1.139278882353779
100
AcDbArc
 50
131.1120904392
 51
228.8879095608
  0
ARC
  5
1DB
330
1F
100
AcDbEntity
  8
0
  6
Continuous
 62
     7
370
    15
100
AcDbCircle
 10
134.01293803
 20
96.7832436284
 30
0.0
 40
0.500000000000004
100
AcDbArc
 50
152.4795916534
 51
225.0
  0
LINE
  5
1DC
330
1F
100
AcDbEntity
  8
0
  6
Continuous
 62
     7
370
    15
100
AcDbLine
 10
133.6593849683
 20
96.4296902553
 30
0.0
 11
133.6316110664
 21
96.4019154221
 31
0.0
  0
ARC
  5
1DD
330
1F
100
AcDbEntity
  8
0
  6
Continuous
 62
     7
370
    15
100
AcDbCircle
 10
134.01293803
 20
96.7832436284
 30
0.0
 40
0.539278882353782
100
AcDbArc
 50
152.4795916534
 51
225.0
  0
ARC
  5
1DE
330
1F
100
AcDbEntity
  8
0
  6
Continuous
 62
     7
370
    15
100
AcDbCircle
 10
135.6580567986
 20
94.8552821473
 30
0.0
 40
0.3392788823537923
100
AcDbArc
 50
225.0
 51
0.0
  0
LINE
  5
1DF
330
1F
100
AcDbEntity
  8
0
  6
Continuous
 62
     7
370
    15
100
AcDbLine
 10
135.4181503975
 20
94.615376091
 30
0.0
 11
135.4459242993
 21
94.6431499929
 31
0.0
  0
ARC
  5
1E0
330
1F
100
AcDbEntity
  8
0
  6
Continuous
 62
     7
370
    15
100
AcDbCircle
 10
135.6580567986
 20
94.8552821473
 30
0.0
 40
0.3000000000000114
100
AcDbArc
 50
225.0
 51
0.0
  0
ARC
  5
1E1
330
1F
100
AcDbEntity
  8
0
  6
Continuous
 62
     7
370
    15
100
AcDbCircle
 10
132.0992225352
 20
95.4442679297
 30
0.0
 40
0.500000000000012
100
AcDbArc
 50
45.0
 51
70.0
  0
LINE
  5
1E2
330
1F
100
AcDbEntity
  8
0
  6
Continuous
 62
     7
370
    15
100
AcDbLine
 10
132.2702335292
 20
95.9141138032
 30
0.0
 11
132.283666926
 21
95.9510239795
 31
0.0
  0
ARC
  5
1E3
330
1F
100
AcDbEntity
  8
0
  6
Continuous
 62
     7
370
    15
100
AcDbCircle
 10
132.0992225352
 20
95.4442679297
 30
0.0
 40
0.5392788823537912
100
AcDbArc
 50
45.0
 51
70.0
  0
ARC
  5
1E4
330
1F
100
AcDbEntity
  8
0
  6
Continuous
 62
     7
370
    15
100
AcDbCircle
 10
130.5080567986
 20
96.4743798559
 30
0.0
 40
0.3000000000000101
100
AcDbArc
 50
290.0
 51
0.0
  0
LINE
  5
1E5
330
1F
100
AcDbEntity
  8
0
  6
Continuous
 62
     7
370
    15
100
AcDbLine
 10
130.6106632674
 20
96.192472151
 30
0.0
 11
130.5972280079
 21
96.2293823272
 31
0.0
  0
LINE
  5
1E6
330
1F
100
AcDbEntity
  8
0
  6
Continuous
 62
     7
370
    15
100
AcDbLine
 10
128.161610859
 20
107.5889871013
 30
0.0
 11
128.1338350946
 21
107.5612127338
 31
0.0
  0
ARC
  5
1E7
330
1F
100
AcDbEntity
  8
0
  6
Continuous
 62
     7
370
    15
100
AcDbCircle
 10
128.5151635798
 20
107.9425404475
 30
0.0
 40
0.500000000000004
100
AcDbArc
 50
90.0
 51
225.0
  0
LINE
  5
1E8
330
1F
100
AcDbEntity
  8
0
  6
Continuous
 62
     7
370
    15
100
AcDbLine
 10
128.4567283565
 20
105.4553906456
 30
0.0
 11
128.4845041209
 21
105.4831650131
 31
0.0
  0
LINE
  5
1E9
330
1F
100
AcDbEntity
  8
0
  6
Continuous
 62
     7
370
    15
100
AcDbLine
 10
126.6701871627
 20
107.2419306752
 30
0.0
 11
128.4567283565
 21
105.4553906456
 31
0.0
  0
LINE
  5
1EA
330
1F
100
AcDbEntity
  8
0
  6
Continuous
 62
     7
370
    15
100
AcDbLine
 10
126.6979629272
 20
107.2697050427
 30
0.0
 11
126.6701871627
 21
107.2419306752
 31
0.0
  0
LINE
  5
1EB
330
1F
100
AcDbEntity
  8
0
  6
Continuous
 62
     7
370
    15
100
AcDbLine
 10
135.4459242993
 20
94.6431499929
 30
0.0
 11
133.6593849683
 21
96.4296902553
 31
0.0
  0
LINE
  5
1EC
330
1F
100
AcDbEntity
  8
0
  6
Continuous
 62
     7
370
    15
100
AcDbLine
 10
135.4181503975
 20
94.615376091
 30
0.0
 11
133.6316110664
 21
96.4019154221
 31
0.0
  0
LINE
  5
1ED
330
1F
100
AcDbEntity
  8
0
  6
Continuous
 62
     7
370
    15
100
AcDbLine
 10
131.7152341926
 20
105.9497187402
 30
0.0
 11
131.7430099571
 21
105.9219443728
 31
0.0
  0
ARC
  5
1EE
330
1F
100
AcDbEntity
  8
0
  6
Continuous
 62
     7
370
    15
100
AcDbCircle
 10
132.0687883952
 20
105.5961652629
 30
0.0
 40
0.4999999999999948
100
AcDbArc
 50
68.2172312696
 51
135.0
  0
LINE
  5
1EF
330
1F
100
AcDbEntity
  8
0
  6
Continuous
 62
     7
370
    15
100
AcDbLine
 10
132.2543321276
 20
106.0604639374
 30
0.0
 11
132.2397569293
 21
106.0239896201
 31
0.0
  0
ARC
  5
1F0
330
1F
100
AcDbEntity
  8
0
  6
Continuous
 62
     7
370
    15
100
AcDbCircle
 10
132.0687883952
 20
105.5961652629
 30
0.0
 40
0.4607211176462161
100
AcDbArc
 50
68.2172312696
 51
135.0
  0
ARC
  5
1F1
330
1F
100
AcDbEntity
  8
0
  6
Continuous
 62
     7
370
    15
100
AcDbCircle
 10
131.3080567986
 20
103.6925404475
 30
0.0
 40
2.550000000000017
100
AcDbArc
 50
311.1120904392
 51
68.2172312696
  0
ARC
  5
1F2
330
1F
100
AcDbEntity
  8
0
  6
Continuous
 62
     7
370
    15
100
AcDbCircle
 10
131.3080567986
 20
103.6925404475
 30
0.0
 40
2.510721117646225
100
AcDbArc
 50
311.1120904392
 51
68.2172312696
  0
LINE
  5
1F3
330
1F
100
AcDbEntity
  8
0
  6
Continuous
 62
     7
370
    15
100
AcDbLine
 10
129.1313449019
 20
101.7713076458
 30
0.0
 11
129.1571723395
 21
101.8009013519
 31
0.0
  0
ARC
  5
1F4
330
1F
100
AcDbEntity
  8
0
  6
Continuous
 62
     7
370
    15
100
AcDbCircle
 10
130.8080567986
 20
103.6925404475
 30
0.0
 40
2.550000000000015
100
AcDbArc
 50
152.4795916534
 51
228.8879095608
  0
LINE
  5
1F5
330
1F
100
AcDbEntity
  8
0
  6
Continuous
 62
     7
370
    15
100
AcDbLine
 10
128.5465991223
 20
104.8708050535
 30
0.0
 11
128.5814324492
 21
104.8526554391
 31
0.0
  0
ARC
  5
1F6
330
1F
100
AcDbEntity
  8
0
  6
Continuous
 62
     7
370
    15
100
AcDbCircle
 10
128.1031755673
 20
105.1018372666
 30
0.0
 40
0.5000000000000141
100
AcDbArc
 50
332.4795916534
 51
45.0
  0
LINE
  5
1F7
330
1F
100
AcDbEntity
  8
0
  6
Continuous
 62
     7
370
    15
100
AcDbLine
 10
130.1580572599
 20
104.9172855005
 30
0.0
 11
130.118777799
 21
104.9172855005
 31
0.0
  0
ARC
  5
1F8
330
1F
100
AcDbEntity
  8
0
  6
Continuous
 62
     7
370
    15
100
AcDbCircle
 10
129.8580567986
 20
104.9172853189
 30
0.0
 40
0.3000000000000044
100
AcDbArc
 50
307.7997224354
 51
0.0
  0
ARC
  5
1F9
330
1F
100
AcDbEntity
  8
0
  6
Continuous
 62
     7
370
    15
100
AcDbCircle
 10
126.4580567986
 20
107.0297987477
 30
0.0
 40
0.3000000000000114
100
AcDbArc
 50
45.0
 51
180.0
  0
LINE
  5
1FA
330
1F
100
AcDbEntity
  8
0
  6
Continuous
 62
     7
370
    15
100
AcDbLine
 10
130.0701888376
 20
105.6804084242
 30
0.0
 11
130.0424149358
 21
105.6526340567
 31
0.0
  0
LINE
  5
1FB
330
1F
100
AcDbEntity
  8
0
  6
Continuous
 62
     7
370
    15
100
AcDbLine
 10
130.0701888376
 20
105.6804084242
 30
0.0
 11
128.161610859
 21
107.5889871013
 31
0.0
  0
LINE
  5
1FC
330
1F
100
AcDbEntity
  8
0
  6
Continuous
 62
     7
370
    15
100
AcDbLine
 10
129.1313449019
 20
100.1137732551
 30
0.0
 11
129.1571723395
 21
100.084179549
 31
0.0
  0
ARC
  5
1FD
330
1F
100
AcDbEntity
  8
0
  6
Continuous
 62
     7
370
    15
100
AcDbCircle
 10
128.4080567986
 20
100.9425404475
 30
0.0
 40
1.099999999999998
100
AcDbArc
 50
311.1120904392
 51
48.8879095608
  0
LINE
  5
1FE
330
1F
100
AcDbEntity
  8
0
  6
Continuous
 62
     7
370
    15
100
AcDbLine
 10
130.1580572599
 20
105.4682764247
 30
0.0
 11
130.118777799
 21
105.4682764247
 31
0.0
  0
LINE
  5
1FF
330
1F
100
AcDbEntity
  8
0
  6
Continuous
 62
     7
370
    15
100
AcDbLine
 10
130.1580572599
 20
104.9172855005
 30
0.0
 11
130.1580572599
 21
105.4682764247
 31
0.0
  0
LINE
  5
200
330
1F
100
AcDbEntity
  8
0
  6
Continuous
 62
     7
370
    15
100
AcDbLine
 10
131.3080562377
 20
105.4182762769
 30
0.0
 11
131.3473356986
 21
105.4182762769
 31
0.0
  0
ARC
  5
201
330
1F
100
AcDbEntity
  8
0
  6
Continuous
 62
     7
370
    15
100
AcDbCircle
 10
131.6080567986
 20
105.4182763788
 30
0.0
 40
0.3000000000000114
100
AcDbArc
 50
135.0
 51
180.0
  0
LINE
  5
202
330
1F
100
AcDbEntity
  8
0
  6
Continuous
 62
     7
370
    15
100
AcDbLine
 10
131.39592466
 20
105.6304085091
 30
0.0
 11
131.4236985618
 21
105.6026341416
 31
0.0
  0
ARC
  5
203
330
1F
100
AcDbEntity
  8
0
  6
Continuous
 62
     7
370
    15
100
AcDbCircle
 10
131.6080567986
 20
105.4182763788
 30
0.0
 40
0.2607211176462272
100
AcDbArc
 50
135.0
 51
180.0
  0
LINE
  5
204
330
1F
100
AcDbEntity
  8
0
  6
Continuous
 62
     7
370
    15
100
AcDbLine
 10
131.7152341926
 20
105.9497187402
 30
0.0
 11
131.39592466
 21
105.6304085091
 31
0.0
  0
LINE
  5
205
330
1F
100
AcDbEntity
  8
0
  6
Continuous
 62
     7
370
    15
100
AcDbLine
 10
131.7430099571
 20
105.9219443728
 30
0.0
 11
131.4236985618
 21
105.6026341416
 31
0.0
  0
ARC
  5
206
330
1F
100
AcDbEntity
  8
0
  6
Continuous
 62
     7
370
    15
100
AcDbCircle
 10
133.6009500174
 20
93.9425404475
 30
0.0
 40
0.5392788823537842
100
AcDbArc
 50
270.0
 51
45.0
  0
ARC
  5
207
330
1F
100
AcDbEntity
  8
0
  6
Continuous
 62
     7
370
    15
100
AcDbCircle
 10
133.6009500174
 20
93.9425404475
 30
0.0
 40
0.5
100
AcDbArc
 50
270.0
 51
45.0
  0
LINE
  5
208
330
1F
100
AcDbEntity
  8
0
  6
Continuous
 62
     7
370
    15
100
AcDbLine
 10
131.5054500574
 20
96.192472151
 30
0.0
 11
131.5188853168
 21
96.2293823272
 31
0.0
  0
ARC
  5
209
330
1F
100
AcDbEntity
  8
0
  6
Continuous
 62
     7
370
    15
100
AcDbCircle
 10
131.6080567986
 20
96.4743798559
 30
0.0
 40
0.3000000000000198
100
AcDbArc
 50
180.0
 51
250.0
  0
LINE
  5
20A
330
1F
100
AcDbEntity
  8
0
  6
Continuous
 62
     7
370
    15
100
AcDbLine
 10
131.3080562377
 20
96.474379769
 30
0.0
 11
131.3473356986
 21
96.474379769
 31
0.0
  0
ARC
  5
20B
330
1F
100
AcDbEntity
  8
0
  6
Continuous
 62
     7
370
    15
100
AcDbCircle
 10
131.6080567986
 20
96.4743798559
 30
0.0
 40
0.2607211176462406
100
AcDbArc
 50
180.0
 51
250.0
  0
LINE
  5
20C
330
1F
100
AcDbEntity
  8
0
  6
Continuous
 62
     7
370
    15
100
AcDbLine
 10
131.3080562377
 20
96.6718499571
 30
0.0
 11
131.3080562377
 21
96.474379769
 31
0.0
  0
LINE
  5
20D
330
1F
100
AcDbEntity
  8
0
  6
Continuous
 62
     7
370
    15
100
AcDbLine
 10
131.3080562377
 20
96.6718499571
 30
0.0
 11
131.3473356986
 21
96.6718499571
 31
0.0
  0
LINE
  5
20E
330
1F
100
AcDbEntity
  8
0
  6
Continuous
 62
     7
370
    15
100
AcDbLine
 10
131.3473356986
 20
96.6718499571
 30
0.0
 11
131.3473356986
 21
96.474379769
 31
0.0
  0
LINE
  5
20F
330
1F
100
AcDbEntity
  8
0
  6
Continuous
 62
     7
370
    15
100
AcDbLine
 10
129.947552281
 20
95.9511189744
 30
0.0
 11
129.9341170215
 21
95.9880291507
 31
0.0
  0
ARC
  5
210
330
1F
100
AcDbEntity
  8
0
  6
Continuous
 62
     7
370
    15
100
AcDbCircle
 10
129.7765418566
 20
96.4209657456
 30
0.0
 40
0.5000000000000083
100
AcDbArc
 50
239.7895201773
 51
290.0
  0
LINE
  5
211
330
1F
100
AcDbEntity
  8
0
  6
Continuous
 62
     7
370
    15
100
AcDbLine
 10
129.5249534869
 20
95.9888747916
 30
0.0
 11
129.5447180146
 21
96.0228187055
 31
0.0
  0
LINE
  5
212
330
1F
100
AcDbEntity
  8
0
  6
Continuous
 62
     7
370
    15
100
AcDbLine
 10
131.5499914908
 20
104.9189036735
 30
0.0
 11
131.5575948083
 21
104.957439939
 31
0.0
  0
ARC
  5
213
330
1F
100
AcDbEntity
  8
0
  6
Continuous
 62
     7
370
    15
100
AcDbCircle
 10
131.6080567986
 20
105.2132310801
 30
0.0
 40
0.3000000000000114
100
AcDbArc
 50
180.0
 51
258.8400631278
  0
LINE
  5
214
330
1F
100
AcDbEntity
  8
0
  6
Continuous
 62
     7
370
    15
100
AcDbLine
 10
131.3080562377
 20
105.2132309437
 30
0.0
 11
131.3473356986
 21
105.2132309437
 31
0.0
  0
ARC
  5
215
330
1F
100
AcDbEntity
  8
0
  6
Continuous
 62
     7
370
    15
100
AcDbCircle
 10
131.6080567986
 20
105.2132310801
 30
0.0
 40
0.2607211176462316
100
AcDbArc
 50
180.0
 51
258.8400631278
  0
LINE
  5
216
330
1F
100
AcDbEntity
  8
0
  6
Continuous
 62
     7
370
    15
100
AcDbLine
 10
131.5054500574
 20
96.192472151
 30
0.0
 11
132.2702335292
 21
95.9141138032
 31
0.0
  0
LINE
  5
217
330
1F
100
AcDbEntity
  8
0
  6
Continuous
 62
     7
370
    15
100
AcDbLine
 10
131.5188853168
 20
96.2293823272
 30
0.0
 11
132.283666926
 21
95.9510239795
 31
0.0
  0
ARC
  5
218
330
1F
100
AcDbEntity
  8
0
  6
Continuous
 62
     7
370
    15
100
AcDbCircle
 10
129.8580567986
 20
105.4682763788
 30
0.0
 40
0.3000000000000044
100
AcDbArc
 50
0.0
 51
45.0
  0
LINE
  5
219
330
1F
100
AcDbEntity
  8
0
  6
Continuous
 62
     7
370
    15
100
AcDbLine
 10
131.3080562377
 20
105.4182762769
 30
0.0
 11
131.3080562377
 21
105.2132309437
 31
0.0
  0
LINE
  5
21A
330
1F
100
AcDbEntity
  8
0
  6
Continuous
 62
     7
370
    15
100
AcDbLine
 10
131.3473356986
 20
105.4182762769
 30
0.0
 11
131.3473356986
 21
105.2132309437
 31
0.0
  0
ARC
  5
21B
330
1F
100
AcDbEntity
  8
0
  6
Continuous
 62
     7
370
    15
100
AcDbCircle
 10
131.6080567986
 20
96.6718498149
 30
0.0
 40
0.3000000000000114
100
AcDbArc
 50
101.1599368722
 51
180.0
  0
LINE
  5
21C
330
1F
100
AcDbEntity
  8
0
  6
Continuous
 62
     7
370
    15
100
AcDbLine
 10
131.5499914908
 20
96.9661767617
 30
0.0
 11
131.5575948083
 21
96.9276404962
 31
0.0
  0
ARC
  5
21D
330
1F
100
AcDbEntity
  8
0
  6
Continuous
 62
     7
370
    15
100
AcDbCircle
 10
131.6080567986
 20
96.6718498149
 30
0.0
 40
0.2607211176462272
100
AcDbArc
 50
101.1599368722
 51
180.0
  0
LINE
  5
21E
330
1F
100
AcDbEntity
  8
0
  6
Continuous
 62
     7
370
    15
100
AcDbLine
 10
132.1299744868
 20
99.1343208611
 30
0.0
 11
132.1558019245
 21
99.1639145673
 31
0.0
  0
ARC
  5
21F
330
1F
100
AcDbEntity
  8
0
  6
Continuous
 62
     7
370
    15
100
AcDbCircle
 10
133.7080567986
 20
100.9425404475
 30
0.0
 40
2.400000000000004
100
AcDbArc
 50
131.1120904392
 51
228.8879095608
  0
LINE
  5
220
330
1F
100
AcDbEntity
  8
0
  6
Continuous
 62
     7
370
    15
100
AcDbLine
 10
132.1299744868
 20
102.7507595741
 30
0.0
 11
132.1558019245
 21
102.7211658679
 31
0.0
  0
ARC
  5
221
330
1F
100
AcDbEntity
  8
0
  6
Continuous
 62
     7
370
    15
100
AcDbCircle
 10
133.7080567986
 20
100.9425404475
 30
0.0
 40
2.360721117646213
100
AcDbArc
 50
131.1120904392
 51
228.8879095608
  0
ARC
  5
222
330
1F
100
AcDbEntity
  8
0
  6
Continuous
 62
     7
370
    15
100
AcDbCircle
 10
130.8080567986
 20
98.1925404475
 30
0.0
 40
2.549999999999998
100
AcDbArc
 50
131.1120904392
 51
239.7895201773
  0
ARC
  5
223
330
1F
100
AcDbEntity
  8
0
  6
Continuous
 62
     7
370
    15
100
AcDbCircle
 10
131.3080567986
 20
98.1925404475
 30
0.0
 40
1.289278882353802
100
AcDbArc
 50
281.1599368722
 51
48.8879095608
  0
ARC
  5
224
330
1F
100
AcDbEntity
  8
0
  6
Continuous
 62
     7
370
    15
100
AcDbCircle
 10
131.3080567986
 20
103.6925404475
 30
0.0
 40
1.289278882353791
100
AcDbArc
 50
311.1120904392
 51
78.8400631278
  0
LINE
  5
225
330
1F
100
AcDbEntity
  8
0
  6
Continuous
 62
     7
370
    15
100
AcDbLine
 10
129.947552281
 20
95.9511189744
 30
0.0
 11
130.6106632674
 21
96.192472151
 31
0.0
  0
ARC
  5
226
330
1F
100
AcDbEntity
  8
0
  6
Continuous
 62
     7
370
    15
100
AcDbCircle
 10
131.3080567986
 20
103.6925404475
 30
0.0
 40
1.25000000000001
100
AcDbArc
 50
311.1120904392
 51
78.8400631278
  0
LINE
  5
227
330
1F
100
AcDbEntity
  8
0
  6
Continuous
 62
     7
370
    15
100
AcDbLine
 10
125.0580566102
 20
110.2484561293
 30
0.0
 11
121.0580559546
 21
110.2484561293
 31
0.0
  0
ELLIPSE
  5
228
330
1F
100
AcDbEntity
  8
0
  6
Continuous
 62
     7
370
    15
100
AcDbEllipse
 10
121.0685330295
 20
110.2484561191
 30
0.0
 11
0.0
 21
0.3000000000000114
 31
0.0
210
0.0
220
0.0
230
1.0
 40
0.0349207695
 41
0.7853981633978673
 42
1.570796326794944
  0
LINE
  5
229
330
1F
100
AcDbEntity
  8
0
  6
Continuous
 62
     7
370
    15
100
AcDbLine
 10
121.0611255938
 20
110.4605881287
 30
0.0
 11
125.0580566102
 21
110.4605881287
 31
0.0
  0
LINE
  5
22A
330
1F
100
AcDbEntity
  8
0
  6
Continuous
 62
     7
370
    15
100
AcDbLine
 10
125.0580566102
 20
110.4605881287
 30
0.0
 11
125.0580566102
 21
110.2484561293
 31
0.0
  0
LINE
  5
22B
330
1F
100
AcDbEntity
  8
0
  6
Continuous
 62
     7
370
    15
100
AcDbLine
 10
141.0580573702
 20
110.2484561293
 30
0.0
 11
137.0580567145
 21
110.2484561293
 31
0.0
  0
LINE
  5
22C
330
1F
100
AcDbEntity
  8
0
  6
Continuous
 62
     7
370
    15
100
AcDbLine
 10
137.0580567145
 20
110.4605881287
 30
0.0
 11
141.054987731
 21
110.4605881287
 31
0.0
  0
ELLIPSE
  5
22D
330
1F
100
AcDbEntity
  8
0
  6
Continuous
 62
     7
370
    15
100
AcDbEllipse
 10
141.0475805678
 20
110.2484561191
 30
0.0
 11
0.0
 21
0.3000000000000114
 31
0.0
210
0.0
220
0.0
230
1.0
 40
0.0349207695
 41
4.712388980384643
 42
5.497787143782882
  0
LINE
  5
22E
330
1F
100
AcDbEntity
  8
0
  6
Continuous
 62
     7
370
    15
100
AcDbLine
 10
137.0580567145
 20
110.2484561293
 30
0.0
 11
137.0580567145
 21
110.4605881287
 31
0.0
  0
ELLIPSE
  5
22F
330
1F
100
AcDbEntity
  8
0
  6
Continuous
 62
     7
370
    15
100
AcDbEllipse
 10
140.5577520265
 20
86.9428452197
 30
0.0
 11
-0.3539842722995843
 21
0.3539842722995843
 31
0.0
210
0.0
220
0.0
230
0.9999999999999998
 40
0.998782766
 41
2.356803477778016
 42
3.926381829401584
  0
LINE
  5
230
330
1F
100
AcDbEntity
  8
0
  6
Continuous
 62
     7
370
    15
100
AcDbLine
 10
139.0580570423
 20
86.4425408677
 30
0.0
 11
140.5583618307
 21
86.4425408677
 31
0.0
  0
LINE
  5
231
330
1F
100
AcDbEntity
  8
0
  6
Continuous
 62
     7
370
    15
100
AcDbLine
 10
139.0580570423
 20
86.4425408677
 30
0.0
 11
139.0580570423
 21
88.4425411955
 31
0.0
  0
LINE
  5
232
330
1F
100
AcDbEntity
  8
0
  6
Continuous
 62
     7
370
    15
100
AcDbLine
 10
139.0580570423
 20
88.4425411955
 30
0.0
 11
137.0580567145
 21
88.4425411955
 31
0.0
  0
LINE
  5
233
330
1F
100
AcDbEntity
  8
0
  6
Continuous
 62
     7
370
    15
100
AcDbLine
 10
137.0580567145
 20
94.9425403983
 30
0.0
 11
139.0580570423
 21
94.9425403983
 31
0.0
  0
LINE
  5
234
330
1F
100
AcDbEntity
  8
0
  6
Continuous
 62
     7
370
    15
100
AcDbLine
 10
139.0580570423
 20
94.9425403983
 30
0.0
 11
139.0580570423
 21
102.4425402306
 31
0.0
  0
LINE
  5
235
330
1F
100
AcDbEntity
  8
0
  6
Continuous
 62
     7
370
    15
100
AcDbLine
 10
139.0580570423
 20
102.4425402306
 30
0.0
 11
137.0580567145
 21
102.4425402306
 31
0.0
  0
LINE
  5
236
330
1F
100
AcDbEntity
  8
0
  6
Continuous
 62
     7
370
    15
100
AcDbLine
 10
137.0580567145
 20
88.4425411955
 30
0.0
 11
137.0580567145
 21
94.9425403983
 31
0.0
  0
LINE
  5
237
330
1F
100
AcDbEntity
  8
0
  6
Continuous
 62
     7
370
    15
100
AcDbLine
 10
141.0580573702
 20
86.9422364071
 30
0.0
 11
141.0580573702
 21
110.2484561293
 31
0.0
  0
LINE
  5
238
330
1F
100
AcDbEntity
  8
0
  6
Continuous
 62
     7
370
    15
100
AcDbLine
 10
137.0580567145
 20
102.4425402306
 30
0.0
 11
137.0580567145
 21
110.2484561293
 31
0.0
  0
LINE
  5
239
330
1F
100
AcDbEntity
  8
0
  6
Continuous
 62
     7
370
    15
100
AcDbLine
 10
123.0580562824
 20
102.4425402306
 30
0.0
 11
123.0580562824
 21
94.9425403983
 31
0.0
  0
LINE
  5
23A
330
1F
100
AcDbEntity
  8
0
  6
Continuous
 62
     7
370
    15
100
AcDbLine
 10
125.0580566102
 20
88.4425411955
 30
0.0
 11
125.0580566102
 21
94.9425403983
 31
0.0
  0
LINE
  5
23B
330
1F
100
AcDbEntity
  8
0
  6
Continuous
 62
     7
370
    15
100
AcDbLine
 10
123.0580562824
 20
88.4425411955
 30
0.0
 11
123.0580562824
 21
86.4425408677
 31
0.0
  0
LINE
  5
23C
330
1F
100
AcDbEntity
  8
0
  6
Continuous
 62
     7
370
    15
100
AcDbLine
 10
121.557751494
 20
86.4425408677
 30
0.0
 11
123.0580562824
 21
86.4425408677
 31
0.0
  0
ELLIPSE
  5
23D
330
1F
100
AcDbEntity
  8
0
  6
Continuous
 62
     7
370
    15
100
AcDbEllipse
 10
121.5583615708
 20
86.9428452197
 30
0.0
 11
0.3539842722995984
 21
0.3539842722995842
 31
0.0
210
0.0
220
0.0
230
0.9999999999999998
 40
0.998782766
 41
2.356803477777996
 42
3.926381829401701
  0
LINE
  5
23E
330
1F
100
AcDbEntity
  8
0
  6
Continuous
 62
     7
370
    15
100
AcDbLine
 10
125.0580566102
 20
88.4425411955
 30
0.0
 11
123.0580562824
 21
88.4425411955
 31
0.0
  0
LINE
  5
23F
330
1F
100
AcDbEntity
  8
0
  6
Continuous
 62
     7
370
    15
100
AcDbLine
 10
125.0580566102
 20
102.4425402306
 30
0.0
 11
123.0580562824
 21
102.4425402306
 31
0.0
  0
LINE
  5
240
330
1F
100
AcDbEntity
  8
0
  6
Continuous
 62
     7
370
    15
100
AcDbLine
 10
123.0580562824
 20
94.9425403983
 30
0.0
 11
125.0580566102
 21
94.9425403983
 31
0.0
  0
LINE
  5
241
330
1F
100
AcDbEntity
  8
0
  6
Continuous
 62
     7
370
    15
100
AcDbLine
 10
121.0580559546
 20
110.2484561293
 30
0.0
 11
121.0580559546
 21
86.9422364071
 31
0.0
  0
LINE
  5
242
330
1F
100
AcDbEntity
  8
0
  6
Continuous
 62
     7
370
    15
100
AcDbLine
 10
125.0580566102
 20
102.4425402306
 30
0.0
 11
125.0580566102
 21
110.2484561293
 31
0.0
  0
LINE
  5
243
330
1F
100
AcDbEntity
  8
0
  6
Continuous
 62
     7
370
    15
100
AcDbLine
 10
132.104798975
 20
146.7425408796
 30
0.0
 11
138.5580560291
 21
146.7425408796
 31
0.0
  0
LINE
  5
244
330
1F
100
AcDbEntity
  8
0
  6
Continuous
 62
     7
370
    15
100
AcDbLine
 10
123.5580572957
 20
146.7425408796
 30
0.0
 11
130.0113143498
 21
146.7425408796
 31
0.0
  0
ELLIPSE
  5
245
330
1F
100
AcDbEntity
  8
0
  6
Continuous
 62
     7
370
    15
100
AcDbEllipse
 10
121.5583615708
 20
155.9422356754
 30
0.0
 11
0.3539842722995984
 21
-0.3539842722996127
 31
0.0
210
0.0
220
0.0
230
0.9999999999999998
 40
0.998782766
 41
2.356803477777939
 42
3.926381829401758
  0
ELLIPSE
  5
246
330
1F
100
AcDbEntity
  8
0
  6
Continuous
 62
     7
370
    15
100
AcDbEllipse
 10
140.5577520265
 20
155.9422356754
 30
0.0
 11
-0.3539842722995843
 21
-0.3539842722996128
 31
0.0
210
0.0
220
0.0
230
1.0
 40
0.998782766
 41
2.356803477777832
 42
3.926381829401574
  0
LINE
  5
247
330
1F
100
AcDbEntity
  8
0
  6
Continuous
 62
     7
370
    15
100
AcDbLine
 10
140.5583618307
 20
156.4425411657
 30
0.0
 11
121.557751494
 21
156.4425411657
 31
0.0
  0
LINE
  5
248
330
1F
100
AcDbEntity
  8
0
  6
Continuous
 62
     7
370
    15
100
AcDbLine
 10
121.0580559546
 20
146.7425408796
 30
0.0
 11
123.5580572957
 21
146.7425408796
 31
0.0
  0
LINE
  5
249
330
1F
100
AcDbEntity
  8
0
  6
Continuous
 62
     7
370
    15
100
AcDbLine
 10
132.104798975
 20
146.7425408796
 30
0.0
 11
130.0113143498
 21
146.7425408796
 31
0.0
  0
LINE
  5
24A
330
1F
100
AcDbEntity
  8
0
  6
Continuous
 62
     7
370
    15
100
AcDbLine
 10
138.5580560291
 20
146.7425408796
 30
0.0
 11
141.0580573702
 21
146.7425408796
 31
0.0
  0
LINE
  5
24B
330
1F
100
AcDbEntity
  8
0
  6
Continuous
 62
     7
370
    15
100
AcDbLine
 10
121.0580559546
 20
155.9428456262
 30
0.0
 11
121.0580559546
 21
146.7425408796
 31
0.0
  0
LINE
  5
24C
330
1F
100
AcDbEntity
  8
0
  6
Continuous
 62
     7
370
    15
100
AcDbLine
 10
141.0580573702
 20
146.7425408796
 30
0.0
 11
141.0580573702
 21
155.9428456262
 31
0.0
  0
LINE
  5
24D
330
1F
100
AcDbEntity
  8
0
  6
Continuous
 62
     7
370
    15
100
AcDbLine
 10
132.0442834967
 20
144.7425405518
 30
0.0
 11
132.104798975
 21
146.7425408796
 31
0.0
  0
LINE
  5
24E
330
1F
100
AcDbEntity
  8
0
  6
Continuous
 62
     7
370
    15
100
AcDbLine
 10
132.0442834967
 20
144.7425405518
 30
0.0
 11
131.9672277295
 21
144.7425405518
 31
0.0
  0
LINE
  5
24F
330
1F
100
AcDbEntity
  8
0
  6
Continuous
 62
     7
370
    15
100
AcDbLine
 10
131.9580560648
 20
146.7425408796
 30
0.0
 11
131.9672277295
 21
144.7425405518
 31
0.0
  0
LINE
  5
250
330
1F
100
AcDbEntity
  8
0
  6
Continuous
 62
     7
370
    15
100
AcDbLine
 10
130.071829828
 20
144.7425405518
 30
0.0
 11
130.1488874578
 21
144.7425405518
 31
0.0
  0
LINE
  5
251
330
1F
100
AcDbEntity
  8
0
  6
Continuous
 62
     7
370
    15
100
AcDbLine
 10
130.0113143498
 20
146.7425408796
 30
0.0
 11
130.071829828
 21
144.7425405518
 31
0.0
  0
LINE
  5
252
330
1F
100
AcDbEntity
  8
0
  6
Continuous
 62
     7
370
    15
100
AcDbLine
 10
130.1488874578
 20
144.7425405518
 30
0.0
 11
130.1580572599
 21
146.7425408796
 31
0.0
  0
LINE
  5
253
330
1F
100
AcDbEntity
  8
0
  6
Continuous
 62
     7
370
    15
100
AcDbLine
 10
132.0442834967
 20
144.7425405518
 30
0.0
 11
138.5580560291
 21
144.7425405518
 31
0.0
  0
LINE
  5
254
330
1F
100
AcDbEntity
  8
0
  6
Continuous
 62
     7
370
    15
100
AcDbLine
 10
138.5580560291
 20
146.7425408796
 30
0.0
 11
138.5580560291
 21
144.7425405518
 31
0.0
  0
LINE
  5
255
330
1F
100
AcDbEntity
  8
0
  6
Continuous
 62
     7
370
    15
100
AcDbLine
 10
123.5580572957
 20
144.7425405518
 30
0.0
 11
130.071829828
 21
144.7425405518
 31
0.0
  0
LINE
  5
256
330
1F
100
AcDbEntity
  8
0
  6
Continuous
 62
     7
370
    15
100
AcDbLine
 10
123.5580572957
 20
146.7425408796
 30
0.0
 11
123.5580572957
 21
144.7425405518
 31
0.0
  0
LINE
  5
257
330
1F
100
AcDbEntity
  8
0
  6
Continuous
 62
     7
370
    15
100
AcDbLine
 10
125.0580566102
 20
111.3047783751
 30
0.0
 11
121.0906038159
 21
111.3047783751
 31
0.0
  0
LINE
  5
258
330
1F
100
AcDbEntity
  8
0
  6
Continuous
 62
     7
370
    15
100
AcDbLine
 10
121.0611255938
 20
110.4605881287
 30
0.0
 11
121.0906038159
 21
111.3047783751
 31
0.0
  0
LINE
  5
259
330
1F
100
AcDbEntity
  8
0
  6
Continuous
 62
     7
370
    15
100
AcDbLine
 10
125.0580566102
 20
111.3047783751
 30
0.0
 11
125.0580566102
 21
110.4605881287
 31
0.0
  0
LINE
  5
25A
330
1F
100
AcDbEntity
  8
0
  6
Continuous
 62
     7
370
    15
100
AcDbLine
 10
141.0255095088
 20
111.3047783751
 30
0.0
 11
137.0580567145
 21
111.3047783751
 31
0.0
  0
LINE
  5
25B
330
1F
100
AcDbEntity
  8
0
  6
Continuous
 62
     7
370
    15
100
AcDbLine
 10
141.0255095088
 20
111.3047783751
 30
0.0
 11
141.054987731
 21
110.4605881287
 31
0.0
  0
LINE
  5
25C
330
1F
100
AcDbEntity
  8
0
  6
Continuous
 62
     7
370
    15
100
AcDbLine
 10
137.0580567145
 20
110.4605881287
 30
0.0
 11
137.0580567145
 21
111.3047783751
 31
0.0
  0
LINE
  5
25D
330
1F
100
AcDbEntity
  8
0
  6
Continuous
 62
     7
370
    15
100
AcDbLine
 10
121.0978308791
 20
111.3926006969
 30
0.0
 11
125.0580566102
 21
111.3926006969
 31
0.0
  0
ELLIPSE
  5
25E
330
1F
100
AcDbEntity
  8
0
  6
Continuous
 62
     7
370
    15
100
AcDbEllipse
 10
121.0980128039
 20
111.0926464051
 30
0.0
 11
0.0
 21
0.3000000000000114
 31
0.0
210
0.0
220
0.0
230
1.0
 40
0.0349207695
 41
0.0174532925196715
 42
0.7853981633975528
  0
LINE
  5
25F
330
1F
100
AcDbEntity
  8
0
  6
Continuous
 62
     7
370
    15
100
AcDbLine
 10
125.0580566102
 20
111.3926006969
 30
0.0
 11
125.0580566102
 21
111.3047783751
 31
0.0
  0
LINE
  5
260
330
1F
100
AcDbEntity
  8
0
  6
Continuous
 62
     7
370
    15
100
AcDbLine
 10
137.0580567145
 20
111.3926006969
 30
0.0
 11
141.0182843083
 21
111.3926006969
 31
0.0
  0
ELLIPSE
  5
261
330
1F
100
AcDbEntity
  8
0
  6
Continuous
 62
     7
370
    15
100
AcDbEllipse
 10
141.0181007934
 20
111.0926464051
 30
0.0
 11
0.0
 21
0.3000000000000114
 31
0.0
210
0.0
220
0.0
230
1.0
 40
0.0349207695
 41
5.497787143781552
 42
6.26573201466165
  0
LINE
  5
262
330
1F
100
AcDbEntity
  8
0
  6
Continuous
 62
     7
370
    15
100
AcDbLine
 10
137.0580567145
 20
111.3047783751
 30
0.0
 11
137.0580567145
 21
111.3926006969
 31
0.0
  0
LINE
  5
263
330
1F
100
AcDbEntity
  8
0
  6
Continuous
 62
     7
370
    15
100
AcDbLine
 10
121.1977394396
 20
111.4425405417
 30
0.0
 11
123.0580562824
 21
111.4425405417
 31
0.0
  0
LINE
  5
264
330
1F
100
AcDbEntity
  8
0
  6
Continuous
 62
     7
370
    15
100
AcDbLine
 10
123.0580562824
 20
111.4028301113
 30
0.0
 11
125.0580566102
 21
111.4028301113
 31
0.0
  0
LINE
  5
265
330
1F
100
AcDbEntity
  8
0
  6
Continuous
 62
     7
370
    15
100
AcDbLine
 10
123.0580562824
 20
111.4425405417
 30
0.0
 11
123.0580562824
 21
111.4028301113
 31
0.0
  0
LINE
  5
266
330
1F
100
AcDbEntity
  8
0
  6
Continuous
 62
     7
370
    15
100
AcDbLine
 10
121.0978308791
 20
111.3926006969
 30
0.0
 11
121.1977394396
 21
111.4425405417
 31
0.0
  0
LINE
  5
267
330
1F
100
AcDbEntity
  8
0
  6
Continuous
 62
     7
370
    15
100
AcDbLine
 10
125.0580566102
 20
111.4028301113
 30
0.0
 11
125.0580566102
 21
111.3926006969
 31
0.0
  0
LINE
  5
268
330
1F
100
AcDbEntity
  8
0
  6
Continuous
 62
     7
370
    15
100
AcDbLine
 10
137.0580567145
 20
111.4028301113
 30
0.0
 11
139.0580570423
 21
111.4028301113
 31
0.0
  0
LINE
  5
269
330
1F
100
AcDbEntity
  8
0
  6
Continuous
 62
     7
370
    15
100
AcDbLine
 10
139.0580570423
 20
111.4425405417
 30
0.0
 11
140.9183738851
 21
111.4425405417
 31
0.0
  0
LINE
  5
26A
330
1F
100
AcDbEntity
  8
0
  6
Continuous
 62
     7
370
    15
100
AcDbLine
 10
139.0580570423
 20
111.4028301113
 30
0.0
 11
139.0580570423
 21
111.4425405417
 31
0.0
  0
LINE
  5
26B
330
1F
100
AcDbEntity
  8
0
  6
Continuous
 62
     7
370
    15
100
AcDbLine
 10
141.0182843083
 20
111.3926006969
 30
0.0
 11
140.9183738851
 21
111.4425405417
 31
0.0
  0
LINE
  5
26C
330
1F
100
AcDbEntity
  8
0
  6
Continuous
 62
     7
370
    15
100
AcDbLine
 10
137.0580567145
 20
111.3926006969
 30
0.0
 11
137.0580567145
 21
111.4028301113
 31
0.0
  0
ARC
  5
26D
330
1F
100
AcDbEntity
  8
0
  6
Continuous
 62
     7
370
    15
100
AcDbCircle
 10
131.3080567986
 20
98.1925404475
 30
0.0
 40
0.9500000000002362
100
AcDbArc
 50
336.8909237508
 51
90.0
  0
LINE
  5
26E
330
1F
100
AcDbEntity
  8
0
  6
Continuous
 62
     7
370
    15
100
AcDbLine
 10
131.3080562377
 20
99.4425402046
 30
0.0
 11
131.3080562377
 21
99.1425407142
 31
0.0
  0
ARC
  5
26F
330
1F
100
AcDbEntity
  8
0
  6
Continuous
 62
     7
370
    15
100
AcDbCircle
 10
131.3080567986
 20
98.1925404475
 30
0.0
 40
1.250000000000014
100
AcDbArc
 50
336.890923751
 51
90.0
  0
LWPOLYLINE
  5
270
330
1F
100
AcDbEntity
  8
0
  6
Continuous
 62
     7
370
    15
100
AcDbPolyline
 90
        9
 70
   128
 43
0.0
 10
132.1818286651
 20
97.8196817473
 10
132.2356591099
 20
97.796710676
 10
132.2874220186
 20
97.7746224985
 10
132.3351262236
 20
97.754266581
 10
132.3769388819
 20
97.7364233718
 10
132.4112543934
 20
97.7217801869
 10
132.4367521429
 20
97.7108995453
 10
132.4524542415
 20
97.7041996107
 10
132.4577553296
 20
97.7019364968
  0
ARC
  5
271
330
1F
100
AcDbEntity
  8
0
  6
Continuous
 62
     7
370
    15
100
AcDbCircle
 10
130.8080567986
 20
98.1925404475
 30
0.0
 40
0.9500000000002362
100
AcDbArc
 50
90.0
 51
203.1090762492
  0
LINE
  5
272
330
1F
100
AcDbEntity
  8
0
  6
Continuous
 62
     7
370
    15
100
AcDbLine
 10
131.3080562377
 20
99.1425407142
 30
0.0
 11
130.8080570871
 21
99.1425407142
 31
0.0
  0
LINE
  5
273
330
1F
100
AcDbEntity
  8
0
  6
Continuous
 62
     7
370
    15
100
AcDbLine
 10
129.9342846596
 20
97.8196817473
 30
0.0
 11
132.1818286651
 21
97.8196817473
 31
0.0
  0
LINE
  5
274
330
1F
100
AcDbEntity
  8
0
  6
Continuous
 62
     7
370
    15
100
AcDbLine
 10
132.1818286651
 20
97.8196817473
 30
0.0
 11
132.1818286651
 21
97.7170760766
 31
0.0
  0
LINE
  5
275
330
1F
100
AcDbEntity
  8
0
  6
Continuous
 62
     7
370
    15
100
AcDbLine
 10
132.1818286651
 20
97.7170760766
 30
0.0
 11
129.9342846596
 21
97.7170760766
 31
0.0
  0
LINE
  5
276
330
1F
100
AcDbEntity
  8
0
  6
Continuous
 62
     7
370
    15
100
AcDbLine
 10
129.9342846596
 20
97.8196817473
 30
0.0
 11
129.9342846596
 21
97.7170760766
 31
0.0
  0
LINE
  5
277
330
1F
100
AcDbEntity
  8
0
  6
Continuous
 62
     7
370
    15
100
AcDbLine
 10
130.8080570871
 20
99.4425402046
 30
0.0
 11
131.3080562377
 21
99.4425402046
 31
0.0
  0
LINE
  5
278
330
1F
100
AcDbEntity
  8
0
  6
Continuous
 62
     7
370
    15
100
AcDbLine
 10
130.8080570871
 20
99.4425402046
 30
0.0
 11
130.8080570871
 21
99.1425407142
 31
0.0
  0
ARC
  5
279
330
1F
100
AcDbEntity
  8
0
  6
Continuous
 62
     7
370
    15
100
AcDbCircle
 10
130.8080567986
 20
98.1925404475
 30
0.0
 40
1.250000000000014
100
AcDbArc
 50
90.0
 51
203.109076249
  0
LWPOLYLINE
  5
27A
330
1F
100
AcDbEntity
  8
0
  6
Continuous
 62
     7
370
    15
100
AcDbPolyline
 90
        9
 70
   128
 43
0.0
 10
129.6583579951
 20
97.7019364968
 10
129.6636590832
 20
97.7041996107
 10
129.6793611818
 20
97.7108995453
 10
129.7048589313
 20
97.7217801869
 10
129.7391744429
 20
97.7364233718
 10
129.7809889638
 20
97.754266581
 10
129.8286931687
 20
97.7746224985
 10
129.8804542148
 20
97.796710676
 10
129.9342846596
 20
97.8196817473
  0
LWPOLYLINE
  5
27B
330
1F
100
AcDbEntity
  8
0
  6
Continuous
 62
     7
370
    15
100
AcDbPolyline
 90
        9
 70
   128
 43
0.0
 10
132.1818286651
 20
97.7170760766
 10
132.2315463894
 20
97.6999900327
 10
132.2796678269
 20
97.6867522136
 10
132.3246432567
 20
97.6777863712
 10
132.3650291288
 20
97.6733802841
 10
132.3995271796
 20
97.673677376
 10
132.4270272726
 20
97.6786674023
 10
132.4466483766
 20
97.6881892443
 10
132.4577553296
 20
97.7019364968
  0
LWPOLYLINE
  5
27C
330
1F
100
AcDbEntity
  8
0
  6
Continuous
 62
     7
370
    15
100
AcDbPolyline
 90
        9
 70
   128
 43
0.0
 10
129.6583579951
 20
97.7019364968
 10
129.6694668108
 20
97.6881892443
 10
129.6890860522
 20
97.6786674023
 10
129.7165861452
 20
97.673677376
 10
129.751084196
 20
97.6733802841
 10
129.7914700681
 20
97.6777863712
 10
129.8364454979
 20
97.6867522136
 10
129.8845669353
 20
97.6999900327
 10
129.9342846596
 20
97.7170760766
  0
ARC
  5
27D
330
1F
100
AcDbEntity
  8
0
  6
Continuous
 62
     7
370
    15
100
AcDbCircle
 10
130.8080567986
 20
98.0899344045
 30
0.0
 40
0.9500000000000104
100
AcDbArc
 50
203.1090762492
 51
270.0
  0
ARC
  5
27E
330
1F
100
AcDbEntity
  8
0
  6
Continuous
 62
     7
370
    15
100
AcDbCircle
 10
131.3080567986
 20
98.0899344045
 30
0.0
 40
0.950000000000027
100
AcDbArc
 50
270.0
 51
336.8909237508
  0
LINE
  5
27F
330
1F
100
AcDbEntity
  8
0
  6
Continuous
 62
     7
370
    15
100
AcDbLine
 10
130.8080570871
 20
97.1399345458
 30
0.0
 11
131.3080562377
 21
97.1399345458
 31
0.0
  0
LINE
  5
280
330
1F
100
AcDbEntity
  8
0
  6
Continuous
 62
     7
370
    15
100
AcDbLine
 10
130.8080570871
 20
97.1399345458
 30
0.0
 11
130.8080570871
 21
96.9425407261
 31
0.0
  0
ARC
  5
281
330
1F
100
AcDbEntity
  8
0
  6
Continuous
 62
     7
370
    15
100
AcDbCircle
 10
130.8080567986
 20
98.1925404475
 30
0.0
 40
1.25
100
AcDbArc
 50
203.109076249
 51
270.0
  0
ARC
  5
282
330
1F
100
AcDbEntity
  8
0
  6
Continuous
 62
     7
370
    15
100
AcDbCircle
 10
131.3080567986
 20
98.1925404475
 30
0.0
 40
1.25
100
AcDbArc
 50
270.0
 51
336.890923751
  0
LINE
  5
283
330
1F
100
AcDbEntity
  8
0
  6
Continuous
 62
     7
370
    15
100
AcDbLine
 10
131.3080562377
 20
97.1399345458
 30
0.0
 11
131.3080562377
 21
96.9425407261
 31
0.0
  0
LINE
  5
284
330
1F
100
AcDbEntity
  8
0
  6
Continuous
 62
     7
370
    15
100
AcDbLine
 10
131.3080562377
 20
96.9425407261
 30
0.0
 11
130.8080570871
 21
96.9425407261
 31
0.0
  0
ARC
  5
285
330
1F
100
AcDbEntity
  8
0
  6
Continuous
 62
     7
370
    15
100
AcDbCircle
 10
139.0580567986
 20
143.2425404475
 30
0.0
 40
0.25
100
AcDbArc
 50
90.0
 51
270.0
  0
LINE
  5
286
330
1F
100
AcDbEntity
  8
0
  6
Continuous
 62
     7
370
    15
100
AcDbLine
 10
139.0580570423
 20
142.9925407306
 30
0.0
 11
139.0580570423
 21
142.4925397173
 31
0.0
  0
ARC
  5
287
330
1F
100
AcDbEntity
  8
0
  6
Continuous
 62
     7
370
    15
100
AcDbCircle
 10
139.0580567986
 20
143.2425404475
 30
0.0
 40
0.75
100
AcDbArc
 50
90.0
 51
270.0
  0
LINE
  5
288
330
1F
100
AcDbEntity
  8
0
  6
Continuous
 62
     7
370
    15
100
AcDbLine
 10
139.0580570423
 20
143.4925417439
 30
0.0
 11
139.0580570423
 21
143.9925390318
 31
0.0
  0
ARC
  5
289
330
1F
100
AcDbEntity
  8
0
  6
Continuous
 62
     7
370
    15
100
AcDbCircle
 10
122.5580567986
 20
143.2425404475
 30
0.0
 40
0.25
100
AcDbArc
 50
90.0
 51
270.0
  0
LINE
  5
28A
330
1F
100
AcDbEntity
  8
0
  6
Continuous
 62
     7
370
    15
100
AcDbLine
 10
122.5580552691
 20
142.4925397173
 30
0.0
 11
122.5580552691
 21
142.9925407306
 31
0.0
  0
ARC
  5
28B
330
1F
100
AcDbEntity
  8
0
  6
Continuous
 62
     7
370
    15
100
AcDbCircle
 10
122.5580567986
 20
143.2425404475
 30
0.0
 40
0.75
100
AcDbArc
 50
90.0
 51
270.0
  0
LINE
  5
28C
330
1F
100
AcDbEntity
  8
0
  6
Continuous
 62
     7
370
    15
100
AcDbLine
 10
122.5580552691
 20
143.4925417439
 30
0.0
 11
122.5580552691
 21
143.9925390318
 31
0.0
  0
LINE
  5
28D
330
1F
100
AcDbEntity
  8
0
  6
Continuous
 62
     7
370
    15
100
AcDbLine
 10
122.5580552691
 20
142.4925397173
 30
0.0
 11
123.0580562824
 21
142.4925397173
 31
0.0
  0
LINE
  5
28E
330
1F
100
AcDbEntity
  8
0
  6
Continuous
 62
     7
370
    15
100
AcDbLine
 10
122.5580552691
 20
142.9925407306
 30
0.0
 11
123.0580562824
 21
142.9925407306
 31
0.0
  0
LINE
  5
28F
330
1F
100
AcDbEntity
  8
0
  6
Continuous
 62
     7
370
    15
100
AcDbLine
 10
123.0580562824
 20
142.4925397173
 30
0.0
 11
123.0580562824
 21
142.9925407306
 31
0.0
  0
ARC
  5
290
330
1F
100
AcDbEntity
  8
0
  6
Continuous
 62
     7
370
    15
100
AcDbCircle
 10
123.0580567986
 20
143.2425404475
 30
0.0
 40
0.25
100
AcDbArc
 50
270.0
 51
90.0
  0
LINE
  5
291
330
1F
100
AcDbEntity
  8
0
  6
Continuous
 62
     7
370
    15
100
AcDbLine
 10
123.0580562824
 20
143.4925417439
 30
0.0
 11
122.5580552691
 21
143.4925417439
 31
0.0
  0
LINE
  5
292
330
1F
100
AcDbEntity
  8
0
  6
Continuous
 62
     7
370
    15
100
AcDbLine
 10
139.558056193
 20
143.4925417439
 30
0.0
 11
139.0580570423
 21
143.4925417439
 31
0.0
  0
LINE
  5
293
330
1F
100
AcDbEntity
  8
0
  6
Continuous
 62
     7
370
    15
100
AcDbLine
 10
139.558056193
 20
143.9925390318
 30
0.0
 11
139.0580570423
 21
143.9925390318
 31
0.0
  0
LINE
  5
294
330
1F
100
AcDbEntity
  8
0
  6
Continuous
 62
     7
370
    15
100
AcDbLine
 10
139.558056193
 20
143.9925390318
 30
0.0
 11
139.558056193
 21
143.4925417439
 31
0.0
  0
LINE
  5
295
330
1F
100
AcDbEntity
  8
0
  6
Continuous
 62
     7
370
    15
100
AcDbLine
 10
139.0580570423
 20
142.9925407306
 30
0.0
 11
139.558056193
 21
142.9925407306
 31
0.0
  0
LINE
  5
296
330
1F
100
AcDbEntity
  8
0
  6
Continuous
 62
     7
370
    15
100
AcDbLine
 10
139.558056193
 20
142.4925397173
 30
0.0
 11
139.558056193
 21
142.9925407306
 31
0.0
  0
LINE
  5
297
330
1F
100
AcDbEntity
  8
0
  6
Continuous
 62
     7
370
    15
100
AcDbLine
 10
139.0580570423
 20
142.4925397173
 30
0.0
 11
139.558056193
 21
142.4925397173
 31
0.0
  0
ARC
  5
298
330
1F
100
AcDbEntity
  8
0
  6
Continuous
 62
     7
370
    15
100
AcDbCircle
 10
139.5580567986
 20
143.2425404475
 30
0.0
 40
0.25
100
AcDbArc
 50
270.0
 51
90.0
  0
ARC
  5
299
330
1F
100
AcDbEntity
  8
0
  6
Continuous
 62
     7
370
    15
100
AcDbCircle
 10
139.5580567986
 20
143.2425404475
 30
0.0
 40
0.75
100
AcDbArc
 50
270.0
 51
90.0
  0
LINE
  5
29A
330
1F
100
AcDbEntity
  8
0
  6
Continuous
 62
     7
370
    15
100
AcDbLine
 10
123.0580562824
 20
143.9925390318
 30
0.0
 11
122.5580552691
 21
143.9925390318
 31
0.0
  0
LINE
  5
29B
330
1F
100
AcDbEntity
  8
0
  6
Continuous
 62
     7
370
    15
100
AcDbLine
 10
123.0580562824
 20
143.4925417439
 30
0.0
 11
123.0580562824
 21
143.9925390318
 31
0.0
  0
ARC
  5
29C
330
1F
100
AcDbEntity
  8
0
  6
Continuous
 62
     7
370
    15
100
AcDbCircle
 10
123.0580567986
 20
143.2425404475
 30
0.0
 40
0.75
100
AcDbArc
 50
270.0
 51
90.0
  0
LINE
  5
29D
330
1F
100
AcDbEntity
  8
0
  6
Continuous
 62
     7
370
    15
100
AcDbLine
 10
139.0580570423
 20
114.5925405458
 30
0.0
 11
139.558056193
 21
114.5925405458
 31
0.0
  0
LINE
  5
29E
330
1F
100
AcDbEntity
  8
0
  6
Continuous
 62
     7
370
    15
100
AcDbLine
 10
139.558056193
 20
114.5925405458
 30
0.0
 11
139.558056193
 21
114.192540294
 31
0.0
  0
LINE
  5
29F
330
1F
100
AcDbEntity
  8
0
  6
Continuous
 62
     7
370
    15
100
AcDbLine
 10
139.0580570423
 20
114.192540294
 30
0.0
 11
139.558056193
 21
114.192540294
 31
0.0
  0
LINE
  5
2A0
330
1F
100
AcDbEntity
  8
0
  6
Continuous
 62
     7
370
    15
100
AcDbLine
 10
139.0580570423
 20
114.192540294
 30
0.0
 11
139.0580570423
 21
114.5925405458
 31
0.0
  0
ARC
  5
2A1
330
1F
100
AcDbEntity
  8
0
  6
Continuous
 62
     7
370
    15
100
AcDbCircle
 10
122.5580567986
 20
114.9425404475
 30
0.0
 40
0.7500000000000284
100
AcDbArc
 50
90.0
 51
270.0
  0
LINE
  5
2A2
330
1F
100
AcDbEntity
  8
0
  6
Continuous
 62
     7
370
    15
100
AcDbLine
 10
122.5580552691
 20
115.6925405398
 30
0.0
 11
122.5580552691
 21
115.292540288
 31
0.0
  0
ARC
  5
2A3
330
1F
100
AcDbEntity
  8
0
  6
Continuous
 62
     7
370
    15
100
AcDbCircle
 10
122.5580567986
 20
114.9425404475
 30
0.0
 40
0.3500000000000085
100
AcDbArc
 50
90.0
 51
270.0
  0
LINE
  5
2A4
330
1F
100
AcDbEntity
  8
0
  6
Continuous
 62
     7
370
    15
100
AcDbLine
 10
122.5580552691
 20
114.192540294
 30
0.0
 11
122.5580552691
 21
114.5925405458
 31
0.0
  0
ARC
  5
2A5
330
1F
100
AcDbEntity
  8
0
  6
Continuous
 62
     7
370
    15
100
AcDbCircle
 10
139.5580567986
 20
114.9425404475
 30
0.0
 40
0.3500000000000085
100
AcDbArc
 50
270.0
 51
90.0
  0
LINE
  5
2A6
330
1F
100
AcDbEntity
  8
0
  6
Continuous
 62
     7
370
    15
100
AcDbLine
 10
139.558056193
 20
115.292540288
 30
0.0
 11
139.558056193
 21
115.6925405398
 31
0.0
  0
ARC
  5
2A7
330
1F
100
AcDbEntity
  8
0
  6
Continuous
 62
     7
370
    15
100
AcDbCircle
 10
139.5580567986
 20
114.9425404475
 30
0.0
 40
0.7500000000000284
100
AcDbArc
 50
270.0
 51
90.0
  0
LINE
  5
2A8
330
1F
100
AcDbEntity
  8
0
  6
Continuous
 62
     7
370
    15
100
AcDbLine
 10
123.0580562824
 20
115.292540288
 30
0.0
 11
122.5580552691
 21
115.292540288
 31
0.0
  0
LINE
  5
2A9
330
1F
100
AcDbEntity
  8
0
  6
Continuous
 62
     7
370
    15
100
AcDbLine
 10
123.0580562824
 20
115.6925405398
 30
0.0
 11
122.5580552691
 21
115.6925405398
 31
0.0
  0
LINE
  5
2AA
330
1F
100
AcDbEntity
  8
0
  6
Continuous
 62
     7
370
    15
100
AcDbLine
 10
123.0580562824
 20
115.292540288
 30
0.0
 11
123.0580562824
 21
115.6925405398
 31
0.0
  0
ARC
  5
2AB
330
1F
100
AcDbEntity
  8
0
  6
Continuous
 62
     7
370
    15
100
AcDbCircle
 10
139.0580567986
 20
114.9425404475
 30
0.0
 40
0.7500000000000142
100
AcDbArc
 50
90.0
 51
270.0
  0
LINE
  5
2AC
330
1F
100
AcDbEntity
  8
0
  6
Continuous
 62
     7
370
    15
100
AcDbLine
 10
139.0580570423
 20
115.6925405398
 30
0.0
 11
139.0580570423
 21
115.292540288
 31
0.0
  0
ARC
  5
2AD
330
1F
100
AcDbEntity
  8
0
  6
Continuous
 62
     7
370
    15
100
AcDbCircle
 10
139.0580567986
 20
114.9425404475
 30
0.0
 40
0.3500000000000085
100
AcDbArc
 50
90.0
 51
270.0
  0
LINE
  5
2AE
330
1F
100
AcDbEntity
  8
0
  6
Continuous
 62
     7
370
    15
100
AcDbLine
 10
139.558056193
 20
115.292540288
 30
0.0
 11
139.0580570423
 21
115.292540288
 31
0.0
  0
LINE
  5
2AF
330
1F
100
AcDbEntity
  8
0
  6
Continuous
 62
     7
370
    15
100
AcDbLine
 10
139.558056193
 20
115.6925405398
 30
0.0
 11
139.0580570423
 21
115.6925405398
 31
0.0
  0
ARC
  5
2B0
330
1F
100
AcDbEntity
  8
0
  6
Continuous
 62
     7
370
    15
100
AcDbCircle
 10
123.0580567986
 20
114.9425404475
 30
0.0
 40
0.3500000000000085
100
AcDbArc
 50
270.0
 51
90.0
  0
ARC
  5
2B1
330
1F
100
AcDbEntity
  8
0
  6
Continuous
 62
     7
370
    15
100
AcDbCircle
 10
123.0580567986
 20
114.9425404475
 30
0.0
 40
0.7500000000000284
100
AcDbArc
 50
270.0
 51
90.0
  0
LINE
  5
2B2
330
1F
100
AcDbEntity
  8
0
  6
Continuous
 62
     7
370
    15
100
AcDbLine
 10
123.0580562824
 20
114.5925405458
 30
0.0
 11
123.0580562824
 21
114.192540294
 31
0.0
  0
LINE
  5
2B3
330
1F
100
AcDbEntity
  8
0
  6
Continuous
 62
     7
370
    15
100
AcDbLine
 10
122.5580552691
 20
114.5925405458
 30
0.0
 11
123.0580562824
 21
114.5925405458
 31
0.0
  0
LINE
  5
2B4
330
1F
100
AcDbEntity
  8
0
  6
Continuous
 62
     7
370
    15
100
AcDbLine
 10
122.5580552691
 20
114.192540294
 30
0.0
 11
123.0580562824
 21
114.192540294
 31
0.0
  0
LINE
  5
2B5
330
1F
100
AcDbEntity
  8
0
  6
Continuous
 62
     7
370
    15
100
AcDbLine
 10
123.2580559426
 20
95.0617683143
 30
0.0
 11
123.0580562824
 21
95.0617683143
 31
0.0
  0
LINE
  5
2B6
330
1F
100
AcDbEntity
  8
0
  6
Continuous
 62
     7
370
    15
100
AcDbLine
 10
123.0580562824
 20
102.3233127803
 30
0.0
 11
123.2580559426
 21
102.3233127803
 31
0.0
  0
LINE
  5
2B7
330
1F
100
AcDbEntity
  8
0
  6
Continuous
 62
     7
370
    15
100
AcDbLine
 10
125.1772845262
 20
111.4425405417
 30
0.0
 11
125.1772845262
 21
111.5617682249
 31
0.0
  0
LINE
  5
2B8
330
1F
100
AcDbEntity
  8
0
  6
Continuous
 62
     7
370
    15
100
AcDbLine
 10
125.1772845262
 20
111.5617682249
 30
0.0
 11
123.0580562824
 21
111.5617682249
 31
0.0
  0
LINE
  5
2B9
330
1F
100
AcDbEntity
  8
0
  6
Continuous
 62
     7
370
    15
100
AcDbLine
 10
123.4951669449
 20
144.6796502009
 30
0.0
 11
123.4951669449
 21
146.7425408796
 31
0.0
  0
LINE
  5
2BA
330
1F
100
AcDbEntity
  8
0
  6
Continuous
 62
     7
370
    15
100
AcDbLine
 10
130.2209457481
 20
144.6796502009
 30
0.0
 11
123.4951669449
 21
144.6796502009
 31
0.0
  0
LINE
  5
2BB
330
1F
100
AcDbEntity
  8
0
  6
Continuous
 62
     7
370
    15
100
AcDbLine
 10
130.2209457481
 20
144.6796502009
 30
0.0
 11
130.2209457481
 21
146.7425408796
 31
0.0
  0
LINE
  5
2BC
330
1F
100
AcDbEntity
  8
0
  6
Continuous
 62
     7
370
    15
100
AcDbLine
 10
131.8951675767
 20
146.7425408796
 30
0.0
 11
131.8951675767
 21
144.6796502009
 31
0.0
  0
LINE
  5
2BD
330
1F
100
AcDbEntity
  8
0
  6
Continuous
 62
     7
370
    15
100
AcDbLine
 10
138.6209463799
 20
144.6796502009
 30
0.0
 11
131.8951675767
 21
144.6796502009
 31
0.0
  0
LINE
  5
2BE
330
1F
100
AcDbEntity
  8
0
  6
Continuous
 62
     7
370
    15
100
AcDbLine
 10
138.6209463799
 20
146.7425408796
 30
0.0
 11
138.6209463799
 21
144.6796502009
 31
0.0
  0
LINE
  5
2BF
330
1F
100
AcDbEntity
  8
0
  6
Continuous
 62
     7
370
    15
100
AcDbLine
 10
139.0580570423
 20
111.5617682249
 30
0.0
 11
136.9388287985
 21
111.5617682249
 31
0.0
  0
LINE
  5
2C0
330
1F
100
AcDbEntity
  8
0
  6
Continuous
 62
     7
370
    15
100
AcDbLine
 10
136.9388287985
 20
111.5617682249
 30
0.0
 11
136.9388287985
 21
111.4425405417
 31
0.0
  0
LINE
  5
2C1
330
1F
100
AcDbEntity
  8
0
  6
Continuous
 62
     7
370
    15
100
AcDbLine
 10
138.8580573821
 20
102.3233127803
 30
0.0
 11
139.0580570423
 21
102.3233127803
 31
0.0
  0
LINE
  5
2C2
330
1F
100
AcDbEntity
  8
0
  6
Continuous
 62
     7
370
    15
100
AcDbLine
 10
139.0580570423
 20
95.0617683143
 30
0.0
 11
138.8580573821
 21
95.0617683143
 31
0.0
  0
LINE
  5
2C3
330
1F
100
AcDbEntity
  8
0
  6
Continuous
 62
     7
370
    15
100
AcDbLine
 10
138.8580573821
 20
88.3233132795
 30
0.0
 11
139.0580570423
 21
88.3233132795
 31
0.0
  0
CIRCLE
  5
2C4
330
1F
100
AcDbEntity
  8
0
  6
Continuous
 62
     7
370
    15
100
AcDbCircle
 10
131.0580567986
 20
129.2425404475
 30
0.0
 40
5.607711865199477
  0
LINE
  5
2C5
330
1F
100
AcDbEntity
  8
0
  6
Continuous
 62
     7
370
    15
100
AcDbLine
 10
123.0580562824
 20
88.3233132795
 30
0.0
 11
123.2580559426
 21
88.3233132795
 31
0.0
  0
LINE
  5
2C6
330
1F
100
AcDbEntity
  8
0
  6
Continuous
 62
     7
370
    15
100
AcDbLine
 10
139.0580570423
 20
86.5822243527
 30
0.0
 11
138.8580573821
 21
86.5822243527
 31
0.0
  0
LINE
  5
2C7
330
1F
100
AcDbEntity
  8
0
  6
Continuous
 62
     7
370
    15
100
AcDbLine
 10
134.2298591608
 20
86.5822243527
 30
0.0
 11
127.8833856904
 21
86.5822243527
 31
0.0
  0
LINE
  5
2C8
330
1F
100
AcDbEntity
  8
0
  6
Continuous
 62
     7
370
    15
100
AcDbLine
 10
123.2580559426
 20
86.5822243527
 30
0.0
 11
123.0580562824
 21
86.5822243527
 31
0.0
  0
LINE
  5
2C9
330
1F
100
AcDbEntity
  8
0
  6
Continuous
 62
     7
370
    15
100
AcDbLine
 10
123.0580562824
 20
111.5617682249
 30
0.0
 11
123.0580562824
 21
111.4425405417
 31
0.0
  0
LINE
  5
2CA
330
1F
100
AcDbEntity
  8
0
  6
Continuous
 62
     7
370
    15
100
AcDbLine
 10
139.0580570423
 20
111.5617682249
 30
0.0
 11
139.0580570423
 21
111.4425405417
 31
0.0
  0
LINE
  5
2CB
330
1F
100
AcDbEntity
  8
0
  6
Continuous
 62
     7
370
    15
100
AcDbLine
 10
121.1977394396
 20
111.4425405417
 30
0.0
 11
121.1977394396
 21
146.7425408796
 31
0.0
  0
LINE
  5
2CC
330
1F
100
AcDbEntity
  8
0
  6
Continuous
 62
     7
370
    15
100
AcDbLine
 10
140.9183738851
 20
111.4425405417
 30
0.0
 11
140.9183738851
 21
146.7425408796
 31
0.0
  0
CIRCLE
  5
2CD
330
1F
100
AcDbEntity
  8
0
  6
Continuous
 62
     7
370
    15
100
AcDbCircle
 10
131.0580567986
 20
129.2425404475
 30
0.0
 40
5.307814667706793
  0
CIRCLE
  5
2CE
330
1F
100
AcDbEntity
  8
0
  6
Continuous
 62
     7
370
    15
100
AcDbCircle
 10
131.0580567986
 20
129.2425404475
 30
0.0
 40
5.25
  0
LINE
  5
2CF
330
1F
100
AcDbEntity
  8
0
  6
Continuous
 62
     8
370
    15
100
AcDbLine
 10
123.3580576354
 20
204.2425381974
 30
0.0
 11
123.3580576354
 21
156.4425411657
 31
0.0
  0
LINE
  5
2D0
330
1F
100
AcDbEntity
  8
0
  6
Continuous
 62
     8
370
    15
100
AcDbLine
 10
123.3580576354
 20
111.5617682249
 30
0.0
 11
123.3580576354
 21
111.4425405417
 31
0.0
  0
LINE
  5
2D1
330
1F
100
AcDbEntity
  8
0
  6
Continuous
 62
     8
370
    15
100
AcDbLine
 10
123.3580576354
 20
82.8180401609
 30
0.0
 11
123.3580576354
 21
54.2425396875
 31
0.0
  0
LINE
  5
2D2
330
1F
100
AcDbEntity
  8
0
  6
Continuous
 62
     8
370
    15
100
AcDbLine
 10
123.53379448
 20
204.2425381974
 30
0.0
 11
123.53379448
 21
156.4425411657
 31
0.0
  0
LINE
  5
2D3
330
1F
100
AcDbEntity
  8
0
  6
Continuous
 62
     8
370
    15
100
AcDbLine
 10
123.53379448
 20
146.7425408796
 30
0.0
 11
123.53379448
 21
144.6796502009
 31
0.0
  0
LINE
  5
2D4
330
1F
100
AcDbEntity
  8
0
  6
Continuous
 62
     8
370
    15
100
AcDbLine
 10
123.53379448
 20
111.5617682249
 30
0.0
 11
123.53379448
 21
111.4425405417
 31
0.0
  0
LINE
  5
2D5
330
1F
100
AcDbEntity
  8
0
  6
Continuous
 62
     8
370
    15
100
AcDbLine
 10
123.53379448
 20
82.4291738704
 30
0.0
 11
123.53379448
 21
54.2425396875
 31
0.0
  0
LINE
  5
2D6
330
1F
100
AcDbEntity
  8
0
  6
Continuous
 62
     8
370
    15
100
AcDbLine
 10
123.7459236854
 20
204.2425381974
 30
0.0
 11
123.7459236854
 21
156.4425411657
 31
0.0
  0
LINE
  5
2D7
330
1F
100
AcDbEntity
  8
0
  6
Continuous
 62
     8
370
    15
100
AcDbLine
 10
123.7459236854
 20
144.7425405518
 30
0.0
 11
123.7459236854
 21
144.6796502009
 31
0.0
  0
LINE
  5
2D8
330
1F
100
AcDbEntity
  8
0
  6
Continuous
 62
     8
370
    15
100
AcDbLine
 10
123.7459236854
 20
111.5617682249
 30
0.0
 11
123.7459236854
 21
111.4425405417
 31
0.0
  0
LINE
  5
2D9
330
1F
100
AcDbEntity
  8
0
  6
Continuous
 62
     8
370
    15
100
AcDbLine
 10
123.7459236854
 20
82.1335497335
 30
0.0
 11
123.7459236854
 21
54.2425396875
 31
0.0
  0
LINE
  5
2DA
330
1F
100
AcDbEntity
  8
0
  6
Continuous
 62
     8
370
    15
100
AcDbLine
 10
138.5823207074
 20
204.2425381974
 30
0.0
 11
138.5823207074
 21
156.4425411657
 31
0.0
  0
LINE
  5
2DB
330
1F
100
AcDbEntity
  8
0
  6
Continuous
 62
     8
370
    15
100
AcDbLine
 10
138.5823207074
 20
146.7425408796
 30
0.0
 11
138.5823207074
 21
144.6796502009
 31
0.0
  0
LINE
  5
2DC
330
1F
100
AcDbEntity
  8
0
  6
Continuous
 62
     8
370
    15
100
AcDbLine
 10
138.5823207074
 20
111.5617682249
 30
0.0
 11
138.5823207074
 21
111.4425405417
 31
0.0
  0
LINE
  5
2DD
330
1F
100
AcDbEntity
  8
0
  6
Continuous
 62
     8
370
    15
100
AcDbLine
 10
138.5823207074
 20
82.4291738704
 30
0.0
 11
138.5823207074
 21
54.2425396875
 31
0.0
  0
LINE
  5
2DE
330
1F
100
AcDbEntity
  8
0
  6
Continuous
 62
     8
370
    15
100
AcDbLine
 10
138.758057552
 20
204.2425381974
 30
0.0
 11
138.758057552
 21
156.4425411657
 31
0.0
  0
LINE
  5
2DF
330
1F
100
AcDbEntity
  8
0
  6
Continuous
 62
     8
370
    15
100
AcDbLine
 10
138.758057552
 20
111.5617682249
 30
0.0
 11
138.758057552
 21
111.4425405417
 31
0.0
  0
LINE
  5
2E0
330
1F
100
AcDbEntity
  8
0
  6
Continuous
 62
     8
370
    15
100
AcDbLine
 10
138.758057552
 20
82.8180401609
 30
0.0
 11
138.758057552
 21
54.2425396875
 31
0.0
  0
LINE
  5
2E1
330
1F
100
AcDbEntity
  8
0
  6
Continuous
 62
     8
370
    15
100
AcDbLine
 10
138.3701896393
 20
204.2425381974
 30
0.0
 11
138.3701896393
 21
156.4425411657
 31
0.0
  0
LINE
  5
2E2
330
1F
100
AcDbEntity
  8
0
  6
Continuous
 62
     8
370
    15
100
AcDbLine
 10
138.3701896393
 20
144.7425405518
 30
0.0
 11
138.3701896393
 21
144.6796502009
 31
0.0
  0
LINE
  5
2E3
330
1F
100
AcDbEntity
  8
0
  6
Continuous
 62
     8
370
    15
100
AcDbLine
 10
138.3701896393
 20
111.5617682249
 30
0.0
 11
138.3701896393
 21
111.4425405417
 31
0.0
  0
LINE
  5
2E4
330
1F
100
AcDbEntity
  8
0
  6
Continuous
 62
     8
370
    15
100
AcDbLine
 10
138.3701896393
 20
82.1335497335
 30
0.0
 11
138.3701896393
 21
54.2425396875
 31
0.0
  0
LINE
  5
2E5
330
1F
100
AcDbEntity
  8
0
  6
Continuous
 62
     8
370
    15
100
AcDbLine
 10
124.4701871747
 20
204.2425381974
 30
0.0
 11
124.4701871747
 21
156.4425411657
 31
0.0
  0
LINE
  5
2E6
330
1F
100
AcDbEntity
  8
0
  6
Continuous
 62
     8
370
    15
100
AcDbLine
 10
124.4701871747
 20
144.7425405518
 30
0.0
 11
124.4701871747
 21
144.6796502009
 31
0.0
  0
LINE
  5
2E7
330
1F
100
AcDbEntity
  8
0
  6
Continuous
 62
     8
370
    15
100
AcDbLine
 10
124.4701871747
 20
111.5617682249
 30
0.0
 11
124.4701871747
 21
111.4425405417
 31
0.0
  0
LINE
  5
2E8
330
1F
100
AcDbEntity
  8
0
  6
Continuous
 62
     8
370
    15
100
AcDbLine
 10
124.4701871747
 20
81.6042623505
 30
0.0
 11
124.4701871747
 21
54.2425396875
 31
0.0
  0
LINE
  5
2E9
330
1F
100
AcDbEntity
  8
0
  6
Continuous
 62
     8
370
    15
100
AcDbLine
 10
137.6459242874
 20
204.2425381974
 30
0.0
 11
137.6459242874
 21
156.4425411657
 31
0.0
  0
LINE
  5
2EA
330
1F
100
AcDbEntity
  8
0
  6
Continuous
 62
     8
370
    15
100
AcDbLine
 10
137.6459242874
 20
144.7425405518
 30
0.0
 11
137.6459242874
 21
144.6796502009
 31
0.0
  0
LINE
  5
2EB
330
1F
100
AcDbEntity
  8
0
  6
Continuous
 62
     8
370
    15
100
AcDbLine
 10
137.6459242874
 20
111.5617682249
 30
0.0
 11
137.6459242874
 21
111.4425405417
 31
0.0
  0
LINE
  5
2EC
330
1F
100
AcDbEntity
  8
0
  6
Continuous
 62
     8
370
    15
100
AcDbLine
 10
137.6459242874
 20
81.6042623505
 30
0.0
 11
137.6459242874
 21
54.2425396875
 31
0.0
  0
LINE
  5
2ED
330
1F
100
AcDbEntity
  8
0
  6
Continuous
 62
     8
370
    15
100
AcDbLine
 10
127.7048437023
 20
204.2425381974
 30
0.0
 11
127.7048437023
 21
156.4425411657
 31
0.0
  0
LINE
  5
2EE
330
1F
100
AcDbEntity
  8
0
  6
Continuous
 62
     8
370
    15
100
AcDbLine
 10
127.7048437023
 20
144.7425405518
 30
0.0
 11
127.7048437023
 21
144.6796502009
 31
0.0
  0
LINE
  5
2EF
330
1F
100
AcDbEntity
  8
0
  6
Continuous
 62
     8
370
    15
100
AcDbLine
 10
127.7048437023
 20
86.2897704378
 30
0.0
 11
127.7048437023
 21
84.4425405398
 31
0.0
  0
LINE
  5
2F0
330
1F
100
AcDbEntity
  8
0
  6
Continuous
 62
     8
370
    15
100
AcDbLine
 10
127.7048437023
 20
81.4425400481
 30
0.0
 11
127.7048437023
 21
54.2425396875
 31
0.0
  0
LINE
  5
2F1
330
1F
100
AcDbEntity
  8
0
  6
Continuous
 62
     8
370
    15
100
AcDbLine
 10
134.4112696224
 20
204.2425381974
 30
0.0
 11
134.4112696224
 21
156.4425411657
 31
0.0
  0
LINE
  5
2F2
330
1F
100
AcDbEntity
  8
0
  6
Continuous
 62
     8
370
    15
100
AcDbLine
 10
134.4112696224
 20
144.7425405518
 30
0.0
 11
134.4112696224
 21
144.6796502009
 31
0.0
  0
LINE
  5
2F3
330
1F
100
AcDbEntity
  8
0
  6
Continuous
 62
     8
370
    15
100
AcDbLine
 10
134.4112696224
 20
86.2979455874
 30
0.0
 11
134.4112696224
 21
84.4425405398
 31
0.0
  0
LINE
  5
2F4
330
1F
100
AcDbEntity
  8
0
  6
Continuous
 62
     8
370
    15
100
AcDbLine
 10
134.4112696224
 20
81.4425400481
 30
0.0
 11
134.4112696224
 21
54.2425396875
 31
0.0
  0
LINE
  5
2F5
330
1F
100
AcDbEntity
  8
0
  6
Continuous
 62
     8
370
    15
100
AcDbLine
 10
127.3512894386
 20
204.2425381974
 30
0.0
 11
127.3512894386
 21
156.4425411657
 31
0.0
  0
LINE
  5
2F6
330
1F
100
AcDbEntity
  8
0
  6
Continuous
 62
     8
370
    15
100
AcDbLine
 10
127.3512894386
 20
144.7425405518
 30
0.0
 11
127.3512894386
 21
144.6796502009
 31
0.0
  0
LINE
  5
2F7
330
1F
100
AcDbEntity
  8
0
  6
Continuous
 62
     8
370
    15
100
AcDbLine
 10
127.3512894386
 20
86.0381717816
 30
0.0
 11
127.3512894386
 21
84.4425405398
 31
0.0
  0
LINE
  5
2F8
330
1F
100
AcDbEntity
  8
0
  6
Continuous
 62
     8
370
    15
100
AcDbLine
 10
127.3512894386
 20
81.4425400481
 30
0.0
 11
127.3512894386
 21
54.2425396875
 31
0.0
  0
LINE
  5
2F9
330
1F
100
AcDbEntity
  8
0
  6
Continuous
 62
     8
370
    15
100
AcDbLine
 10
134.7648238861
 20
204.2425381974
 30
0.0
 11
134.7648238861
 21
156.4425411657
 31
0.0
  0
LINE
  5
2FA
330
1F
100
AcDbEntity
  8
0
  6
Continuous
 62
     8
370
    15
100
AcDbLine
 10
134.7648238861
 20
144.7425405518
 30
0.0
 11
134.7648238861
 21
144.6796502009
 31
0.0
  0
LINE
  5
2FB
330
1F
100
AcDbEntity
  8
0
  6
Continuous
 62
     8
370
    15
100
AcDbLine
 10
134.7648238861
 20
86.0329228476
 30
0.0
 11
134.7648238861
 21
84.4425405398
 31
0.0
  0
LINE
  5
2FC
330
1F
100
AcDbEntity
  8
0
  6
Continuous
 62
     8
370
    15
100
AcDbLine
 10
134.7648238861
 20
81.4425400481
 30
0.0
 11
134.7648238861
 21
54.2425396875
 31
0.0
  0
LINE
  5
2FD
330
1F
100
AcDbEntity
  8
0
  6
Continuous
 62
     8
370
    15
100
AcDbLine
 10
125.0701898807
 20
204.2425381974
 30
0.0
 11
125.0701898807
 21
156.4425411657
 31
0.0
  0
LINE
  5
2FE
330
1F
100
AcDbEntity
  8
0
  6
Continuous
 62
     8
370
    15
100
AcDbLine
 10
125.0701898807
 20
144.7425405518
 30
0.0
 11
125.0701898807
 21
144.6796502009
 31
0.0
  0
LINE
  5
2FF
330
1F
100
AcDbEntity
  8
0
  6
Continuous
 62
     8
370
    15
100
AcDbLine
 10
125.0701898807
 20
111.5617682249
 30
0.0
 11
125.0701898807
 21
111.4425405417
 31
0.0
  0
LINE
  5
300
330
1F
100
AcDbEntity
  8
0
  6
Continuous
 62
     8
370
    15
100
AcDbLine
 10
125.0701898807
 20
81.4513838873
 30
0.0
 11
125.0701898807
 21
54.2425396875
 31
0.0
  0
LINE
  5
301
330
1F
100
AcDbEntity
  8
0
  6
Continuous
 62
     8
370
    15
100
AcDbLine
 10
137.0459253067
 20
204.2425381974
 30
0.0
 11
137.0459253067
 21
156.4425411657
 31
0.0
  0
LINE
  5
302
330
1F
100
AcDbEntity
  8
0
  6
Continuous
 62
     8
370
    15
100
AcDbLine
 10
137.0459253067
 20
144.7425405518
 30
0.0
 11
137.0459253067
 21
144.6796502009
 31
0.0
  0
LINE
  5
303
330
1F
100
AcDbEntity
  8
0
  6
Continuous
 62
     8
370
    15
100
AcDbLine
 10
137.0459253067
 20
111.5617682249
 30
0.0
 11
137.0459253067
 21
111.4425405417
 31
0.0
  0
LINE
  5
304
330
1F
100
AcDbEntity
  8
0
  6
Continuous
 62
     8
370
    15
100
AcDbLine
 10
137.0459253067
 20
81.4513838873
 30
0.0
 11
137.0459253067
 21
54.2425396875
 31
0.0
  0
DIMENSION
  5
305
330
1F
100
AcDbEntity
  8
0
  6
Continuous
 62
     7
370
     0
100
AcDbDimension
  2
*D7
 10
139.0580567986
 20
214.2425404475
 30
0.0
 11
130.888245941
 21
214.2425404475
 31
0.0
 70
   160
 71
     2
 42
-1.0
  3
SLDDIMSTYLE1
100
AcDbAlignedDimension
 13
123.0580567986
 23
204.2425404475
 33
0.0
 14
139.0580567986
 24
204.2425404475
 34
0.0
100
AcDbRotatedDimension
  0
DIMENSION
  5
30F
330
1F
100
AcDbEntity
  8
0
  6
Continuous
 62
     7
370
     0
100
AcDbDimension
  2
*D8
 10
141.0580567986
 20
220.7121943181
 30
0.0
 11
130.888245941
 21
220.7121943181
 31
0.0
 70
   160
 71
     2
 42
-1.0
  3
SLDDIMSTYLE1
100
AcDbAlignedDimension
 13
121.0580567986
 23
155.942845034
 33
0.0
 14
141.0580567986
 24
155.942845034
 34
0.0
100
AcDbRotatedDimension
  0
LINE
  5
319
330
1F
100
AcDbEntity
  8
0
  6
Continuous
 62
     7
370
    15
100
AcDbLine
 10
283.3408929556
 20
184.2425423697
 30
0.0
 11
283.3408929556
 21
174.2425370053
 31
0.0
  0
LINE
  5
31A
330
1F
100
AcDbEntity
  8
0
  6
Continuous
 62
     7
370
    15
100
AcDbLine
 10
283.640892446
 20
184.2425423697
 30
0.0
 11
283.640892446
 21
174.2425370053
 31
0.0
  0
LINE
  5
31B
330
1F
100
AcDbEntity
  8
0
  6
Continuous
 62
     7
370
    15
100
AcDbLine
 10
283.3408929556
 20
174.2425370053
 30
0.0
 11
283.640892446
 21
174.2425370053
 31
0.0
  0
LINE
  5
31C
330
1F
100
AcDbEntity
  8
0
  6
Continuous
 62
     7
370
    15
100
AcDbLine
 10
283.3408929556
 20
184.2425423697
 30
0.0
 11
283.640892446
 21
184.2425423697
 31
0.0
  0
LINE
  5
31D
330
1F
100
AcDbEntity
  8
0
  6
Continuous
 62
     7
370
    15
100
AcDbLine
 10
278.1411830484
 20
184.2425423697
 30
0.0
 11
278.1411830484
 21
174.2425370053
 31
0.0
  0
CIRCLE
  5
31E
330
1F
100
AcDbEntity
  8
0
  6
Continuous
 62
     7
370
    15
100
AcDbCircle
 10
280.7410378657
 20
179.2425404475
 30
0.0
 40
1.650000000000006
  0
LINE
  5
31F
330
1F
100
AcDbEntity
  8
0
  6
Continuous
 62
     7
370
    15
100
AcDbLine
 10
278.1411830484
 20
174.2425370053
 30
0.0
 11
283.3408929556
 21
174.2425370053
 31
0.0
  0
LINE
  5
320
330
1F
100
AcDbEntity
  8
0
  6
Continuous
 62
     7
370
    15
100
AcDbLine
 10
278.1411830484
 20
184.2425423697
 30
0.0
 11
283.3408929556
 21
184.2425423697
 31
0.0
  0
LINE
  5
321
330
1F
100
AcDbEntity
  8
0
  6
Continuous
 62
     7
370
    15
100
AcDbLine
 10
277.841183558
 20
184.2425423697
 30
0.0
 11
277.841183558
 21
174.2425370053
 31
0.0
  0
LINE
  5
322
330
1F
100
AcDbEntity
  8
0
  6
Continuous
 62
     7
370
    15
100
AcDbLine
 10
277.841183558
 20
174.2425370053
 30
0.0
 11
278.1411830484
 21
174.2425370053
 31
0.0
  0
LINE
  5
323
330
1F
100
AcDbEntity
  8
0
  6
Continuous
 62
     7
370
    15
100
AcDbLine
 10
277.841183558
 20
184.2425423697
 30
0.0
 11
278.1411830484
 21
184.2425423697
 31
0.0
  0
LINE
  5
324
330
1F
100
AcDbEntity
  8
0
  6
Continuous
 62
     7
370
    15
100
AcDbLine
 10
283.640892446
 20
174.2425370053
 30
0.0
 11
283.7410375624
 21
174.2425370053
 31
0.0
  0
LINE
  5
325
330
1F
100
AcDbEntity
  8
0
  6
Continuous
 62
     7
370
    15
100
AcDbLine
 10
283.640892446
 20
184.2425423697
 30
0.0
 11
283.7410375624
 21
184.2425423697
 31
0.0
  0
LINE
  5
326
330
1F
100
AcDbEntity
  8
0
  6
Continuous
 62
     7
370
    15
100
AcDbLine
 10
277.7410384416
 20
174.2425370053
 30
0.0
 11
277.841183558
 21
174.2425370053
 31
0.0
  0
LINE
  5
327
330
1F
100
AcDbEntity
  8
0
  6
Continuous
 62
     7
370
    15
100
AcDbLine
 10
277.7410384416
 20
184.2425423697
 30
0.0
 11
277.841183558
 21
184.2425423697
 31
0.0
  0
LINE
  5
328
330
1F
100
AcDbEntity
  8
0
  6
Continuous
 62
     7
370
    15
100
AcDbLine
 10
283.3408929556
 20
84.2425408796
 30
0.0
 11
283.3408929556
 21
74.2425392405
 31
0.0
  0
LINE
  5
329
330
1F
100
AcDbEntity
  8
0
  6
Continuous
 62
     7
370
    15
100
AcDbLine
 10
283.640892446
 20
84.2425408796
 30
0.0
 11
283.640892446
 21
74.2425392405
 31
0.0
  0
LINE
  5
32A
330
1F
100
AcDbEntity
  8
0
  6
Continuous
 62
     7
370
    15
100
AcDbLine
 10
283.3408929556
 20
84.2425408796
 30
0.0
 11
283.640892446
 21
84.2425408796
 31
0.0
  0
LINE
  5
32B
330
1F
100
AcDbEntity
  8
0
  6
Continuous
 62
     7
370
    15
100
AcDbLine
 10
283.3408929556
 20
74.2425392405
 30
0.0
 11
283.640892446
 21
74.2425392405
 31
0.0
  0
LINE
  5
32C
330
1F
100
AcDbEntity
  8
0
  6
Continuous
 62
     7
370
    15
100
AcDbLine
 10
278.1411830484
 20
84.2425408796
 30
0.0
 11
278.1411830484
 21
74.2425392405
 31
0.0
  0
CIRCLE
  5
32D
330
1F
100
AcDbEntity
  8
0
  6
Continuous
 62
     7
370
    15
100
AcDbCircle
 10
280.7410378657
 20
79.2425404475
 30
0.0
 40
1.650000000000006
  0
LINE
  5
32E
330
1F
100
AcDbEntity
  8
0
  6
Continuous
 62
     7
370
    15
100
AcDbLine
 10
278.1411830484
 20
84.2425408796
 30
0.0
 11
283.3408929556
 21
84.2425408796
 31
0.0
  0
LINE
  5
32F
330
1F
100
AcDbEntity
  8
0
  6
Continuous
 62
     7
370
    15
100
AcDbLine
 10
278.1411830484
 20
74.2425392405
 30
0.0
 11
283.3408929556
 21
74.2425392405
 31
0.0
  0
LINE
  5
330
330
1F
100
AcDbEntity
  8
0
  6
Continuous
 62
     7
370
    15
100
AcDbLine
 10
277.841183558
 20
84.2425408796
 30
0.0
 11
277.841183558
 21
74.2425392405
 31
0.0
  0
LINE
  5
331
330
1F
100
AcDbEntity
  8
0
  6
Continuous
 62
     7
370
    15
100
AcDbLine
 10
277.841183558
 20
84.2425408796
 30
0.0
 11
278.1411830484
 21
84.2425408796
 31
0.0
  0
LINE
  5
332
330
1F
100
AcDbEntity
  8
0
  6
Continuous
 62
     7
370
    15
100
AcDbLine
 10
277.841183558
 20
74.2425392405
 30
0.0
 11
278.1411830484
 21
74.2425392405
 31
0.0
  0
LINE
  5
333
330
1F
100
AcDbEntity
  8
0
  6
Continuous
 62
     7
370
    15
100
AcDbLine
 10
283.640892446
 20
84.2425408796
 30
0.0
 11
283.7410375624
 21
84.2425408796
 31
0.0
  0
LINE
  5
334
330
1F
100
AcDbEntity
  8
0
  6
Continuous
 62
     7
370
    15
100
AcDbLine
 10
283.640892446
 20
74.2425392405
 30
0.0
 11
283.7410375624
 21
74.2425392405
 31
0.0
  0
LINE
  5
335
330
1F
100
AcDbEntity
  8
0
  6
Continuous
 62
     7
370
    15
100
AcDbLine
 10
277.7410384416
 20
84.2425408796
 30
0.0
 11
277.841183558
 21
84.2425408796
 31
0.0
  0
LINE
  5
336
330
1F
100
AcDbEntity
  8
0
  6
Continuous
 62
     7
370
    15
100
AcDbLine
 10
277.7410384416
 20
74.2425392405
 30
0.0
 11
277.841183558
 21
74.2425392405
 31
0.0
  0
LINE
  5
337
330
1F
100
AcDbEntity
  8
0
  6
Continuous
 62
     7
370
    15
100
AcDbLine
 10
277.7410384416
 20
84.4425405398
 30
0.0
 11
283.7410375624
 21
84.4425405398
 31
0.0
  0
LINE
  5
338
330
1F
100
AcDbEntity
  8
0
  6
Continuous
 62
     7
370
    15
100
AcDbLine
 10
277.7410384416
 20
85.5425405339
 30
0.0
 11
283.7410375624
 21
85.5425405339
 31
0.0
  0
LINE
  5
339
330
1F
100
AcDbEntity
  8
0
  6
Continuous
 62
     7
370
    15
100
AcDbLine
 10
277.7410384416
 20
72.9425395862
 30
0.0
 11
283.7410375624
 21
72.9425395862
 31
0.0
  0
LINE
  5
33A
330
1F
100
AcDbEntity
  8
0
  6
Continuous
 62
     7
370
    15
100
AcDbLine
 10
277.7410384416
 20
74.0425395802
 30
0.0
 11
283.7410375624
 21
74.0425395802
 31
0.0
  0
SPLINE
  5
33B
330
1F
100
AcDbEntity
  8
0
  6
Continuous
 62
     7
370
    15
100
AcDbSpline
210
0.0
220
0.0
230
1.0
 70
     8
 71
     3
 72
     9
 73
     5
 74
     0
 42
0.00000001
 43
0.00000001
 40
0.0
 40
0.0
 40
0.0
 40
0.0
 40
0.6311115944913283
 40
1.0
 40
1.0
 40
1.0
 40
1.0
 10
281.141038253832
 20
74.04253958020556
 30
0.0
 10
281.1381630326158
 20
74.08787725404328
 30
0.0
 10
281.13360722784
 20
74.15971506249657
 30
0.0
 10
281.0948892191138
 20
74.22021975932154
 30
0.0
 10
281.0806065946103
 20
74.24253924045908
 30
0.0
  0
SPLINE
  5
33C
330
1F
100
AcDbEntity
  8
0
  6
Continuous
 62
     7
370
    15
100
AcDbSpline
210
0.0
220
0.0
230
1.0
 70
     8
 71
     3
 72
     9
 73
     5
 74
     0
 42
0.00000001
 43
0.00000001
 40
0.0
 40
0.0
 40
0.0
 40
0.0
 40
0.5354548727303652
 40
1.0
 40
1.0
 40
1.0
 40
1.0
 10
280.3979844003202
 20
74.24253924045908
 30
0.0
 10
280.3801486295068
 20
74.20881140570054
 30
0.0
 10
280.3468390609106
 20
74.14582227911632
 30
0.0
 10
280.3428778919239
 20
74.07530024672029
 30
0.0
 10
280.3410377501727
 20
74.04253958020556
 30
0.0
  0
SPLINE
  5
33D
330
1F
100
AcDbEntity
  8
0
  6
Continuous
 62
     7
370
    15
100
AcDbSpline
210
0.0
220
0.0
230
1.0
 70
     8
 71
     3
 72
    10
 73
     6
 74
     0
 42
0.00000001
 43
0.00000001
 40
0.0
 40
0.0
 40
0.0
 40
0.0
 40
0.1794853128268926
 40
0.8332532491409163
 40
1.0
 40
1.0
 40
1.0
 40
1.0
 10
280.3410377501727
 20
84.44254053984034
 30
0.0
 10
280.3414862831977
 20
84.42998207396487
 30
0.0
 10
280.3435685794843
 20
84.37167990800957
 30
0.0
 10
280.3575622338836
 20
84.2986669398244
 30
0.0
 10
280.3927671357664
 20
84.25202047417302
 30
0.0
 10
280.3999215512754
 20
84.24254087958681
 30
0.0
  0
SPLINE
  5
33E
330
1F
100
AcDbEntity
  8
0
  6
Continuous
 62
     7
370
    15
100
AcDbSpline
210
0.0
220
0.0
230
1.0
 70
     8
 71
     3
 72
    10
 73
     6
 74
     0
 42
0.00000001
 43
0.00000001
 40
0.0
 40
0.0
 40
0.0
 40
0.0
 40
0.3402068750760034
 40
0.9786594120047958
 40
0.9999999999999999
 40
0.9999999999999999
 40
0.9999999999999999
 40
0.9999999999999999
 10
281.0810908823491
 20
84.24254087958681
 30
0.0
 10
281.0941446426808
 20
84.26299108617758
 30
0.0
 10
281.1316958691449
 20
84.32181937162306
 30
0.0
 10
281.1408255697098
 20
84.39468209528326
 30
0.0
 10
281.1410315902296
 20
84.44104108778266
 30
0.0
 10
281.141038253832
 20
84.44254053984034
 30
0.0
  0
LINE
  5
33F
330
1F
100
AcDbEntity
  8
0
  6
Continuous
 62
     7
370
    15
100
AcDbLine
 10
277.7410384416
 20
184.4425383047
 30
0.0
 11
283.7410375624
 21
184.4425383047
 31
0.0
  0
LINE
  5
340
330
1F
100
AcDbEntity
  8
0
  6
Continuous
 62
     7
370
    15
100
AcDbLine
 10
277.7410384416
 20
185.542542024
 30
0.0
 11
283.7410375624
 21
185.542542024
 31
0.0
  0
LINE
  5
341
330
1F
100
AcDbEntity
  8
0
  6
Continuous
 62
     7
370
    15
100
AcDbLine
 10
277.7410384416
 20
172.942537351
 30
0.0
 11
283.7410375624
 21
172.942537351
 31
0.0
  0
LINE
  5
342
330
1F
100
AcDbEntity
  8
0
  6
Continuous
 62
     7
370
    15
100
AcDbLine
 10
277.7410384416
 20
174.0425410703
 30
0.0
 11
283.7410375624
 21
174.0425410703
 31
0.0
  0
SPLINE
  5
343
330
1F
100
AcDbEntity
  8
0
  6
Continuous
 62
     7
370
    15
100
AcDbSpline
210
0.0
220
0.0
230
1.0
 70
     8
 71
     3
 72
     9
 73
     5
 74
     0
 42
0.00000001
 43
0.00000001
 40
0.0
 40
0.0
 40
0.0
 40
0.0
 40
0.6311054880437255
 40
1.0
 40
1.0
 40
1.0
 40
1.0
 10
281.141038253832
 20
174.0425410703217
 30
0.0
 10
281.1381628084305
 20
174.0878774193185
 30
0.0
 10
281.1336066043474
 20
174.1597138236214
 30
0.0
 10
281.0948892238085
 20
174.2202175227305
 30
0.0
 10
281.0806065946103
 20
174.2425370052849
 30
0.0
  0
SPLINE
  5
344
330
1F
100
AcDbEntity
  8
0
  6
Continuous
 62
     7
370
    15
100
AcDbSpline
210
0.0
220
0.0
230
1.0
 70
     8
 71
     3
 72
     9
 73
     5
 74
     0
 42
0.00000001
 43
0.00000001
 40
0.0
 40
0.0
 40
0.0
 40
0.0
 40
0.5354476413411108
 40
1.0
 40
1.0
 40
1.0
 40
1.0
 10
280.3979844003202
 20
174.2425370052849
 30
0.0
 10
280.3801486319392
 20
174.2088104459784
 30
0.0
 10
280.3468386180294
 20
174.1458228507356
 30
0.0
 10
280.3428777710018
 20
174.0753017937018
 30
0.0
 10
280.3410377501727
 20
174.0425410703217
 30
0.0
  0
SPLINE
  5
345
330
1F
100
AcDbEntity
  8
0
  6
Continuous
 62
     7
370
    15
100
AcDbSpline
210
0.0
220
0.0
230
1.0
 70
     8
 71
     3
 72
    10
 73
     6
 74
     0
 42
0.00000001
 43
0.00000001
 40
0.0
 40
0.0
 40
0.0
 40
0.0
 40
0.1794711213623102
 40
0.8332646977540619
 40
1.0
 40
1.0
 40
1.0
 40
1.0
 10
280.3410377501727
 20
184.4425383046662
 30
0.0
 10
280.3414863669464
 20
184.4299811146824
 30
0.0
 10
280.3435692453363
 20
184.371679461263
 30
0.0
 10
280.3575590401687
 20
184.2986648976434
 30
0.0
 10
280.39276710748
 20
184.2520206905416
 30
0.0
 10
280.3999215512754
 20
184.2425423697029
 30
0.0
  0
SPLINE
  5
346
330
1F
100
AcDbEntity
  8
0
  6
Continuous
 62
     7
370
    15
100
AcDbSpline
210
0.0
220
0.0
230
1.0
 70
     8
 71
     3
 72
    10
 73
     6
 74
     0
 42
0.00000001
 43
0.00000001
 40
0.0
 40
0.0
 40
0.0
 40
0.0
 40
0.3401895130870405
 40
0.9786591177830813
 40
1.0
 40
1.0
 40
1.0
 40
1.0
 10
281.0810908823491
 20
184.2425423697029
 30
0.0
 10
281.0941446914961
 20
184.2629906571372
 30
0.0
 10
281.1316979635755
 20
184.3218164062291
 30
0.0
 10
281.1408255515601
 20
184.3946792877502
 30
0.0
 10
281.1410315897418
 20
184.4410388528713
 30
0.0
 10
281.141038253832
 20
184.4425383046662
 30
0.0
  0
LINE
  5
347
330
1F
100
AcDbEntity
  8
0
  6
Continuous
 62
     7
370
    15
100
AcDbLine
 10
283.640892446
 20
124.2425399855
 30
0.0
 11
283.640892446
 21
134.242539762
 31
0.0
  0
LINE
  5
348
330
1F
100
AcDbEntity
  8
0
  6
Continuous
 62
     7
370
    15
100
AcDbLine
 10
283.3408929556
 20
124.2425399855
 30
0.0
 11
283.3408929556
 21
134.242539762
 31
0.0
  0
LINE
  5
349
330
1F
100
AcDbEntity
  8
0
  6
Continuous
 62
     7
370
    15
100
AcDbLine
 10
283.640892446
 20
134.242539762
 30
0.0
 11
283.3408929556
 21
134.242539762
 31
0.0
  0
LINE
  5
34A
330
1F
100
AcDbEntity
  8
0
  6
Continuous
 62
     7
370
    15
100
AcDbLine
 10
283.640892446
 20
124.2425399855
 30
0.0
 11
283.3408929556
 21
124.2425399855
 31
0.0
  0
LINE
  5
34B
330
1F
100
AcDbEntity
  8
0
  6
Continuous
 62
     7
370
    15
100
AcDbLine
 10
278.1411830484
 20
124.2425399855
 30
0.0
 11
278.1411830484
 21
134.242539762
 31
0.0
  0
CIRCLE
  5
34C
330
1F
100
AcDbEntity
  8
0
  6
Continuous
 62
     7
370
    15
100
AcDbCircle
 10
280.7410378657
 20
129.2425404475
 30
0.0
 40
1.649999999999977
  0
LINE
  5
34D
330
1F
100
AcDbEntity
  8
0
  6
Continuous
 62
     7
370
    15
100
AcDbLine
 10
283.3408929556
 20
134.242539762
 30
0.0
 11
278.1411830484
 21
134.242539762
 31
0.0
  0
LINE
  5
34E
330
1F
100
AcDbEntity
  8
0
  6
Continuous
 62
     7
370
    15
100
AcDbLine
 10
283.3408929556
 20
124.2425399855
 30
0.0
 11
278.1411830484
 21
124.2425399855
 31
0.0
  0
LINE
  5
34F
330
1F
100
AcDbEntity
  8
0
  6
Continuous
 62
     7
370
    15
100
AcDbLine
 10
277.841183558
 20
124.2425399855
 30
0.0
 11
277.841183558
 21
134.242539762
 31
0.0
  0
LINE
  5
350
330
1F
100
AcDbEntity
  8
0
  6
Continuous
 62
     7
370
    15
100
AcDbLine
 10
278.1411830484
 20
134.242539762
 30
0.0
 11
277.841183558
 21
134.242539762
 31
0.0
  0
LINE
  5
351
330
1F
100
AcDbEntity
  8
0
  6
Continuous
 62
     7
370
    15
100
AcDbLine
 10
278.1411830484
 20
124.2425399855
 30
0.0
 11
277.841183558
 21
124.2425399855
 31
0.0
  0
LINE
  5
352
330
1F
100
AcDbEntity
  8
0
  6
Continuous
 62
     7
370
    15
100
AcDbLine
 10
283.7410375624
 20
134.242539762
 30
0.0
 11
283.640892446
 21
134.242539762
 31
0.0
  0
LINE
  5
353
330
1F
100
AcDbEntity
  8
0
  6
Continuous
 62
     7
370
    15
100
AcDbLine
 10
283.7410375624
 20
124.2425399855
 30
0.0
 11
283.640892446
 21
124.2425399855
 31
0.0
  0
LINE
  5
354
330
1F
100
AcDbEntity
  8
0
  6
Continuous
 62
     7
370
    15
100
AcDbLine
 10
277.841183558
 20
134.242539762
 30
0.0
 11
277.7410384416
 21
134.242539762
 31
0.0
  0
LINE
  5
355
330
1F
100
AcDbEntity
  8
0
  6
Continuous
 62
     7
370
    15
100
AcDbLine
 10
277.841183558
 20
124.2425399855
 30
0.0
 11
277.7410384416
 21
124.2425399855
 31
0.0
  0
LINE
  5
356
330
1F
100
AcDbEntity
  8
0
  6
Continuous
 62
     7
370
    15
100
AcDbLine
 10
287.7410363554
 20
204.2425381974
 30
0.0
 11
287.7410363554
 21
54.2425396875
 31
0.0
  0
LINE
  5
357
330
1F
100
AcDbEntity
  8
0
  6
Continuous
 62
     7
370
    15
100
AcDbLine
 10
288.741038382
 20
204.2425381974
 30
0.0
 11
288.741038382
 21
54.2425396875
 31
0.0
  0
LINE
  5
358
330
1F
100
AcDbEntity
  8
0
  6
Continuous
 62
     7
370
    15
100
AcDbLine
 10
287.7410363554
 20
54.2425396875
 30
0.0
 11
288.741038382
 21
54.2425396875
 31
0.0
  0
LINE
  5
359
330
1F
100
AcDbEntity
  8
0
  6
Continuous
 62
     7
370
    15
100
AcDbLine
 10
287.7410363554
 20
204.2425381974
 30
0.0
 11
288.741038382
 21
204.2425381974
 31
0.0
  0
LINE
  5
35A
330
1F
100
AcDbEntity
  8
0
  6
Continuous
 62
     7
370
    15
100
AcDbLine
 10
284.0410370528
 20
204.2425381974
 30
0.0
 11
284.0410370528
 21
54.2425396875
 31
0.0
  0
LINE
  5
35B
330
1F
100
AcDbEntity
  8
0
  6
Continuous
 62
     7
370
    15
100
AcDbLine
 10
284.0410370528
 20
54.2425396875
 30
0.0
 11
287.7410363554
 21
54.2425396875
 31
0.0
  0
LINE
  5
35C
330
1F
100
AcDbEntity
  8
0
  6
Continuous
 62
     7
370
    15
100
AcDbLine
 10
284.0410370528
 20
204.2425381974
 30
0.0
 11
287.7410363554
 21
204.2425381974
 31
0.0
  0
LINE
  5
35D
330
1F
100
AcDbEntity
  8
0
  6
Continuous
 62
     7
370
    15
100
AcDbLine
 10
283.7410375624
 20
204.2425381974
 30
0.0
 11
283.7410375624
 21
54.2425396875
 31
0.0
  0
LINE
  5
35E
330
1F
100
AcDbEntity
  8
0
  6
Continuous
 62
     7
370
    15
100
AcDbLine
 10
283.7410375624
 20
54.2425396875
 30
0.0
 11
284.0410370528
 21
54.2425396875
 31
0.0
  0
LINE
  5
35F
330
1F
100
AcDbEntity
  8
0
  6
Continuous
 62
     7
370
    15
100
AcDbLine
 10
283.7410375624
 20
204.2425381974
 30
0.0
 11
284.0410370528
 21
204.2425381974
 31
0.0
  0
LINE
  5
360
330
1F
100
AcDbEntity
  8
0
  6
Continuous
 62
     7
370
    15
100
AcDbLine
 10
277.4410370886
 20
204.2425381974
 30
0.0
 11
277.4410370886
 21
54.2425396875
 31
0.0
  0
LINE
  5
361
330
1F
100
AcDbEntity
  8
0
  6
Continuous
 62
     7
370
    15
100
AcDbLine
 10
277.7410384416
 20
204.2425381974
 30
0.0
 11
277.7410384416
 21
54.2425396875
 31
0.0
  0
LINE
  5
362
330
1F
100
AcDbEntity
  8
0
  6
Continuous
 62
     7
370
    15
100
AcDbLine
 10
277.4410370886
 20
54.2425396875
 30
0.0
 11
277.7410384416
 21
54.2425396875
 31
0.0
  0
LINE
  5
363
330
1F
100
AcDbEntity
  8
0
  6
Continuous
 62
     7
370
    15
100
AcDbLine
 10
277.4410370886
 20
204.2425381974
 30
0.0
 11
277.7410384416
 21
204.2425381974
 31
0.0
  0
LINE
  5
364
330
1F
100
AcDbEntity
  8
0
  6
Continuous
 62
     7
370
    15
100
AcDbLine
 10
273.7410377859
 20
204.2425381974
 30
0.0
 11
273.7410377859
 21
54.2425396875
 31
0.0
  0
LINE
  5
365
330
1F
100
AcDbEntity
  8
0
  6
Continuous
 62
     7
370
    15
100
AcDbLine
 10
273.7410377859
 20
54.2425396875
 30
0.0
 11
277.4410370886
 21
54.2425396875
 31
0.0
  0
LINE
  5
366
330
1F
100
AcDbEntity
  8
0
  6
Continuous
 62
     7
370
    15
100
AcDbLine
 10
273.7410377859
 20
204.2425381974
 30
0.0
 11
277.4410370886
 21
204.2425381974
 31
0.0
  0
LINE
  5
367
330
1F
100
AcDbEntity
  8
0
  6
Continuous
 62
     7
370
    15
100
AcDbLine
 10
272.741037622
 20
204.2425381974
 30
0.0
 11
272.741037622
 21
54.2425396875
 31
0.0
  0
LINE
  5
368
330
1F
100
AcDbEntity
  8
0
  6
Continuous
 62
     7
370
    15
100
AcDbLine
 10
272.741037622
 20
54.2425396875
 30
0.0
 11
273.7410377859
 21
54.2425396875
 31
0.0
  0
LINE
  5
369
330
1F
100
AcDbEntity
  8
0
  6
Continuous
 62
     7
370
    15
100
AcDbLine
 10
272.741037622
 20
204.2425381974
 30
0.0
 11
273.7410377859
 21
204.2425381974
 31
0.0
  0
LINE
  5
36A
330
1F
100
AcDbEntity
  8
0
  6
Continuous
 62
     7
370
    15
100
AcDbLine
 10
283.5557732879
 20
54.2425396875
 30
0.0
 11
283.7410375624
 21
54.2425396875
 31
0.0
  0
LINE
  5
36B
330
1F
100
AcDbEntity
  8
0
  6
Continuous
 62
     7
370
    15
100
AcDbLine
 10
283.5557732879
 20
204.2425381974
 30
0.0
 11
283.7410375624
 21
204.2425381974
 31
0.0
  0
LINE
  5
36C
330
1F
100
AcDbEntity
  8
0
  6
Continuous
 62
     7
370
    15
100
AcDbLine
 10
277.7410384416
 20
54.2425396875
 30
0.0
 11
277.9263027161
 21
54.2425396875
 31
0.0
  0
LINE
  5
36D
330
1F
100
AcDbEntity
  8
0
  6
Continuous
 62
     7
370
    15
100
AcDbLine
 10
277.7410384416
 20
204.2425381974
 30
0.0
 11
277.9263027161
 21
204.2425381974
 31
0.0
  0
LINE
  5
36E
330
1F
100
AcDbEntity
  8
0
  6
Continuous
 62
     7
370
    15
100
AcDbLine
 10
281.1653010695
 20
54.2425396875
 30
0.0
 11
283.5557732879
 21
54.2425396875
 31
0.0
  0
LINE
  5
36F
330
1F
100
AcDbEntity
  8
0
  6
Continuous
 62
     7
370
    15
100
AcDbLine
 10
281.1653010695
 20
204.2425381974
 30
0.0
 11
283.5557732879
 21
204.2425381974
 31
0.0
  0
LINE
  5
370
330
1F
100
AcDbEntity
  8
0
  6
Continuous
 62
     7
370
    15
100
AcDbLine
 10
280.9531700014
 20
204.2425381974
 30
0.0
 11
281.1653010695
 21
204.2425381974
 31
0.0
  0
LINE
  5
371
330
1F
100
AcDbEntity
  8
0
  6
Continuous
 62
     7
370
    15
100
AcDbLine
 10
280.3167730718
 20
204.2425381974
 30
0.0
 11
280.5289060026
 21
204.2425381974
 31
0.0
  0
LINE
  5
372
330
1F
100
AcDbEntity
  8
0
  6
Continuous
 62
     7
370
    15
100
AcDbLine
 10
277.9263027161
 20
54.2425396875
 30
0.0
 11
280.3167730718
 21
54.2425396875
 31
0.0
  0
LINE
  5
373
330
1F
100
AcDbEntity
  8
0
  6
Continuous
 62
     7
370
    15
100
AcDbLine
 10
277.9263027161
 20
204.2425381974
 30
0.0
 11
280.3167730718
 21
204.2425381974
 31
0.0
  0
LINE
  5
374
330
1F
100
AcDbEntity
  8
0
  6
Continuous
 62
     7
370
    15
100
AcDbLine
 10
280.9531700014
 20
54.2425396875
 30
0.0
 11
281.1653010695
 21
54.2425396875
 31
0.0
  0
LINE
  5
375
330
1F
100
AcDbEntity
  8
0
  6
Continuous
 62
     7
370
    15
100
AcDbLine
 10
280.3167730718
 20
54.2425396875
 30
0.0
 11
280.5289060026
 21
54.2425396875
 31
0.0
  0
LINE
  5
376
330
1F
100
AcDbEntity
  8
0
  6
Continuous
 62
     7
370
    15
100
AcDbLine
 10
280.7410370707
 20
204.2425381974
 30
0.0
 11
280.7410370707
 21
185.542542024
 31
0.0
  0
LINE
  5
377
330
1F
100
AcDbEntity
  8
0
  6
Continuous
 62
     7
370
    15
100
AcDbLine
 10
280.7410370707
 20
180.8925378159
 30
0.0
 11
280.7410370707
 21
177.5925415591
 31
0.0
  0
LINE
  5
378
330
1F
100
AcDbEntity
  8
0
  6
Continuous
 62
     7
370
    15
100
AcDbLine
 10
280.7410370707
 20
172.942537351
 30
0.0
 11
280.7410370707
 21
134.242539762
 31
0.0
  0
LINE
  5
379
330
1F
100
AcDbEntity
  8
0
  6
Continuous
 62
     7
370
    15
100
AcDbLine
 10
280.7410370707
 20
204.2425381974
 30
0.0
 11
280.9531700014
 21
204.2425381974
 31
0.0
  0
LINE
  5
37A
330
1F
100
AcDbEntity
  8
0
  6
Continuous
 62
     7
370
    15
100
AcDbLine
 10
280.5289060026
 20
204.2425381974
 30
0.0
 11
280.7410370707
 21
204.2425381974
 31
0.0
  0
LINE
  5
37B
330
1F
100
AcDbEntity
  8
0
  6
Continuous
 62
     7
370
    15
100
AcDbLine
 10
280.7410370707
 20
124.2425399855
 30
0.0
 11
280.7410370707
 21
85.5425405339
 31
0.0
  0
LINE
  5
37C
330
1F
100
AcDbEntity
  8
0
  6
Continuous
 62
     7
370
    15
100
AcDbLine
 10
280.7410370707
 20
80.8925400511
 30
0.0
 11
280.7410370707
 21
77.592540069
 31
0.0
  0
LINE
  5
37D
330
1F
100
AcDbEntity
  8
0
  6
Continuous
 62
     7
370
    15
100
AcDbLine
 10
280.7410370707
 20
72.9425395862
 30
0.0
 11
280.7410370707
 21
54.2425396875
 31
0.0
  0
LINE
  5
37E
330
1F
100
AcDbEntity
  8
0
  6
Continuous
 62
     7
370
    15
100
AcDbLine
 10
280.7410370707
 20
54.2425396875
 30
0.0
 11
280.9531700014
 21
54.2425396875
 31
0.0
  0
LINE
  5
37F
330
1F
100
AcDbEntity
  8
0
  6
Continuous
 62
     7
370
    15
100
AcDbLine
 10
280.5289060026
 20
54.2425396875
 30
0.0
 11
280.7410370707
 21
54.2425396875
 31
0.0
  0
LINE
  5
380
330
1F
100
AcDbEntity
  8
0
  6
Continuous
 62
     7
370
    15
100
AcDbLine
 10
289.9619762003
 20
156.1631741956
 30
0.0
 11
290.2413431703
 21
156.4425411657
 31
0.0
  0
LINE
  5
381
330
1F
100
AcDbEntity
  8
0
  6
Continuous
 62
     7
370
    15
100
AcDbLine
 10
289.8475911617
 20
156.1631741956
 30
0.0
 11
289.9619762003
 21
156.1631741956
 31
0.0
  0
LINE
  5
382
330
1F
100
AcDbEntity
  8
0
  6
Continuous
 62
     7
370
    15
100
AcDbLine
 10
289.2602246403
 20
156.1387288407
 30
0.0
 11
289.8475911617
 21
156.1631741956
 31
0.0
  0
LINE
  5
383
330
1F
100
AcDbEntity
  8
0
  6
Continuous
 62
     7
370
    15
100
AcDbLine
 10
289.0032578408
 20
156.1387288407
 30
0.0
 11
289.2602246403
 21
156.1387288407
 31
0.0
  0
LINE
  5
384
330
1F
100
AcDbEntity
  8
0
  6
Continuous
 62
     7
370
    15
100
AcDbLine
 10
288.9910388886
 20
156.1631741956
 30
0.0
 11
289.0032578408
 21
156.1387288407
 31
0.0
  0
LINE
  5
385
330
1F
100
AcDbEntity
  8
0
  6
Continuous
 62
     7
370
    15
100
AcDbLine
 10
272.4910371154
 20
156.1631741956
 30
0.0
 11
272.741037622
 21
156.1631741956
 31
0.0
  0
LINE
  5
386
330
1F
100
AcDbEntity
  8
0
  6
Continuous
 62
     7
370
    15
100
AcDbLine
 10
288.741038382
 20
156.1631741956
 30
0.0
 11
288.9910388886
 21
156.1631741956
 31
0.0
  0
LINE
  5
387
330
1F
100
AcDbEntity
  8
0
  6
Continuous
 62
     7
370
    15
100
AcDbLine
 10
272.4788200258
 20
156.1387288407
 30
0.0
 11
272.4910371154
 21
156.1631741956
 31
0.0
  0
LINE
  5
388
330
1F
100
AcDbEntity
  8
0
  6
Continuous
 62
     7
370
    15
100
AcDbLine
 10
272.2218532264
 20
156.1387288407
 30
0.0
 11
272.4788200258
 21
156.1387288407
 31
0.0
  0
LINE
  5
389
330
1F
100
AcDbEntity
  8
0
  6
Continuous
 62
     7
370
    15
100
AcDbLine
 10
271.6344829797
 20
156.1631741956
 30
0.0
 11
272.2218532264
 21
156.1387288407
 31
0.0
  0
LINE
  5
38A
330
1F
100
AcDbEntity
  8
0
  6
Continuous
 62
     7
370
    15
100
AcDbLine
 10
271.5200998037
 20
156.1631741956
 30
0.0
 11
271.6344829797
 21
156.1631741956
 31
0.0
  0
LINE
  5
38B
330
1F
100
AcDbEntity
  8
0
  6
Continuous
 62
     7
370
    15
100
AcDbLine
 10
271.2407328337
 20
156.4425411657
 30
0.0
 11
271.5200998037
 21
156.1631741956
 31
0.0
  0
LINE
  5
38C
330
1F
100
AcDbEntity
  8
0
  6
Continuous
 62
     7
370
    15
100
AcDbLine
 10
271.2407328337
 20
156.4425411657
 30
0.0
 11
272.741037622
 21
156.4425411657
 31
0.0
  0
LINE
  5
38D
330
1F
100
AcDbEntity
  8
0
  6
Continuous
 62
     7
370
    15
100
AcDbLine
 10
288.741038382
 20
156.4425411657
 30
0.0
 11
290.2413431703
 21
156.4425411657
 31
0.0
  0
LINE
  5
38E
330
1F
100
AcDbEntity
  8
0
  6
Continuous
 62
     7
370
    15
100
AcDbLine
 10
289.8475911617
 20
102.0425404445
 30
0.0
 11
289.8475911617
 21
156.1631741956
 31
0.0
  0
LINE
  5
38F
330
1F
100
AcDbEntity
  8
0
  6
Continuous
 62
     7
370
    15
100
AcDbLine
 10
289.2602246403
 20
102.0425404445
 30
0.0
 11
289.2602246403
 21
156.1387288407
 31
0.0
  0
LINE
  5
390
330
1F
100
AcDbEntity
  8
0
  6
Continuous
 62
     7
370
    15
100
AcDbLine
 10
289.2602246403
 20
102.0425404445
 30
0.0
 11
289.8475911617
 21
102.0425404445
 31
0.0
  0
LINE
  5
391
330
1F
100
AcDbEntity
  8
0
  6
Continuous
 62
     7
370
    15
100
AcDbLine
 10
289.0032578408
 20
102.0425404445
 30
0.0
 11
289.0032578408
 21
156.1387288407
 31
0.0
  0
LINE
  5
392
330
1F
100
AcDbEntity
  8
0
  6
Continuous
 62
     7
370
    15
100
AcDbLine
 10
289.0032578408
 20
102.0425404445
 30
0.0
 11
289.2602246403
 21
102.0425404445
 31
0.0
  0
LINE
  5
393
330
1F
100
AcDbEntity
  8
0
  6
Continuous
 62
     7
370
    15
100
AcDbLine
 10
288.9910388886
 20
102.0425404445
 30
0.0
 11
288.9910388886
 21
156.1631741956
 31
0.0
  0
LINE
  5
394
330
1F
100
AcDbEntity
  8
0
  6
Continuous
 62
     7
370
    15
100
AcDbLine
 10
288.9910388886
 20
102.0425404445
 30
0.0
 11
289.0032578408
 21
102.0425404445
 31
0.0
  0
LINE
  5
395
330
1F
100
AcDbEntity
  8
0
  6
Continuous
 62
     7
370
    15
100
AcDbLine
 10
272.4910371154
 20
102.0425404445
 30
0.0
 11
272.4910371154
 21
156.1631741956
 31
0.0
  0
LINE
  5
396
330
1F
100
AcDbEntity
  8
0
  6
Continuous
 62
     7
370
    15
100
AcDbLine
 10
272.4788200258
 20
102.0425404445
 30
0.0
 11
272.4910371154
 21
102.0425404445
 31
0.0
  0
LINE
  5
397
330
1F
100
AcDbEntity
  8
0
  6
Continuous
 62
     7
370
    15
100
AcDbLine
 10
272.4788200258
 20
102.0425404445
 30
0.0
 11
272.4788200258
 21
156.1387288407
 31
0.0
  0
LINE
  5
398
330
1F
100
AcDbEntity
  8
0
  6
Continuous
 62
     7
370
    15
100
AcDbLine
 10
272.2218532264
 20
102.0425404445
 30
0.0
 11
272.2218532264
 21
156.1387288407
 31
0.0
  0
LINE
  5
399
330
1F
100
AcDbEntity
  8
0
  6
Continuous
 62
     7
370
    15
100
AcDbLine
 10
272.2218532264
 20
102.0425404445
 30
0.0
 11
272.4788200258
 21
102.0425404445
 31
0.0
  0
LINE
  5
39A
330
1F
100
AcDbEntity
  8
0
  6
Continuous
 62
     7
370
    15
100
AcDbLine
 10
271.6344829797
 20
102.0425404445
 30
0.0
 11
271.6344829797
 21
156.1631741956
 31
0.0
  0
LINE
  5
39B
330
1F
100
AcDbEntity
  8
0
  6
Continuous
 62
     7
370
    15
100
AcDbLine
 10
271.6344829797
 20
102.0425404445
 30
0.0
 11
272.2218532264
 21
102.0425404445
 31
0.0
  0
LINE
  5
39C
330
1F
100
AcDbEntity
  8
0
  6
Continuous
 62
     7
370
    15
100
AcDbLine
 10
290.4616717397
 20
87.2216015146
 30
0.0
 11
290.7410387098
 21
86.9422364071
 31
0.0
  0
LINE
  5
39D
330
1F
100
AcDbEntity
  8
0
  6
Continuous
 62
     7
370
    15
100
AcDbLine
 10
290.4616717397
 20
155.6634786562
 30
0.0
 11
290.4616717397
 21
87.2216015146
 31
0.0
  0
LINE
  5
39E
330
1F
100
AcDbEntity
  8
0
  6
Continuous
 62
     7
370
    15
100
AcDbLine
 10
290.7410387098
 20
155.9428456262
 30
0.0
 11
290.4616717397
 21
155.6634786562
 31
0.0
  0
LINE
  5
39F
330
1F
100
AcDbEntity
  8
0
  6
Continuous
 62
     7
370
    15
100
AcDbLine
 10
290.7410387098
 20
155.9428456262
 30
0.0
 11
290.7410387098
 21
146.7425408796
 31
0.0
  0
LINE
  5
3A0
330
1F
100
AcDbEntity
  8
0
  6
Continuous
 62
     7
370
    15
100
AcDbLine
 10
290.6013552248
 20
146.7425408796
 30
0.0
 11
290.7410387098
 21
146.7425408796
 31
0.0
  0
LINE
  5
3A1
330
1F
100
AcDbEntity
  8
0
  6
Continuous
 62
     7
370
    15
100
AcDbLine
 10
290.6013552248
 20
111.4425405417
 30
0.0
 11
290.6013552248
 21
146.7425408796
 31
0.0
  0
LINE
  5
3A2
330
1F
100
AcDbEntity
  8
0
  6
Continuous
 62
     7
370
    15
100
AcDbLine
 10
290.7012637853
 20
111.3926006969
 30
0.0
 11
290.6013552248
 21
111.4425405417
 31
0.0
  0
ELLIPSE
  5
3A3
330
1F
100
AcDbEntity
  8
0
  6
Continuous
 62
     7
370
    15
100
AcDbEllipse
 10
290.7010818605
 20
111.0926464051
 30
0.0
 11
0.0
 21
0.3000000000000114
 31
0.0
210
0.0
220
0.0
230
1.0
 40
0.0349207695
 41
5.497787143782908
 42
6.265732014658977
  0
LINE
  5
3A4
330
1F
100
AcDbEntity
  8
0
  6
Continuous
 62
     7
370
    15
100
AcDbLine
 10
290.7379690706
 20
110.4605881287
 30
0.0
 11
290.7084908485
 21
111.3047783751
 31
0.0
  0
ELLIPSE
  5
3A5
330
1F
100
AcDbEntity
  8
0
  6
Continuous
 62
     7
370
    15
100
AcDbEllipse
 10
290.7305616349
 20
110.2484561191
 30
0.0
 11
0.0
 21
0.3000000000000114
 31
0.0
210
0.0
220
0.0
230
1.0
 40
0.0349207695
 41
4.712388980384643
 42
5.497787143782882
  0
LINE
  5
3A6
330
1F
100
AcDbEntity
  8
0
  6
Continuous
 62
     7
370
    15
100
AcDbLine
 10
290.7410387098
 20
110.2484561293
 30
0.0
 11
290.7410387098
 21
86.9422364071
 31
0.0
  0
LINE
  5
3A7
330
1F
100
AcDbEntity
  8
0
  6
Continuous
 62
     7
370
    15
100
AcDbLine
 10
290.2413431703
 20
86.4425408677
 30
0.0
 11
289.9619762003
 21
86.7219059751
 31
0.0
  0
ELLIPSE
  5
3A8
330
1F
100
AcDbEntity
  8
0
  6
Continuous
 62
     7
370
    15
100
AcDbEllipse
 10
289.9613669377
 20
87.2222113756
 30
0.0
 11
-0.3539842722996127
 21
0.3539842722995984
 31
0.0
210
0.0
220
0.0
230
0.9999999999999998
 40
0.998782766
 41
2.356803477777889
 42
3.926381829401671
  0
ELLIPSE
  5
3A9
330
1F
100
AcDbEntity
  8
0
  6
Continuous
 62
     7
370
    15
100
AcDbEllipse
 10
290.2407330936
 20
86.9428452197
 30
0.0
 11
-0.3539842722996128
 21
0.3539842722995843
 31
0.0
210
0.0
220
0.0
230
1.0
 40
0.998782766
 41
2.356803477777829
 42
3.926381829401635
  0
ELLIPSE
  5
3AA
330
1F
100
AcDbEntity
  8
0
  6
Continuous
 62
     7
370
    15
100
AcDbEllipse
 10
289.9613669377
 20
155.6628695194
 30
0.0
 11
-0.3539842722996127
 21
-0.3539842722995559
 31
0.0
210
0.0
220
0.0
230
0.9999999999999998
 40
0.998782766
 41
2.356803477778009
 42
3.926381829401751
  0
ELLIPSE
  5
3AB
330
1F
100
AcDbEntity
  8
0
  6
Continuous
 62
     7
370
    15
100
AcDbEllipse
 10
290.2407330936
 20
155.9422356754
 30
0.0
 11
-0.3539842722996127
 21
-0.3539842722996127
 31
0.0
210
0.0
220
0.0
230
0.9999999999999998
 40
0.998782766
 41
2.356803477777852
 42
3.926381829401691
  0
ELLIPSE
  5
3AC
330
1F
100
AcDbEntity
  8
0
  6
Continuous
 62
     7
370
    15
100
AcDbEllipse
 10
271.5207087938
 20
155.6628695194
 30
0.0
 11
0.3539842722995559
 21
-0.3539842722995559
 31
0.0
210
0.0
220
0.0
230
0.9999999999999998
 40
0.998782766
 41
2.356803477778083
 42
3.926381829401631
  0
LINE
  5
3AD
330
1F
100
AcDbEntity
  8
0
  6
Continuous
 62
     7
370
    15
100
AcDbLine
 10
289.9619762003
 20
86.7219059751
 30
0.0
 11
288.741038382
 21
86.7219059751
 31
0.0
  0
LINE
  5
3AE
330
1F
100
AcDbEntity
  8
0
  6
Continuous
 62
     7
370
    15
100
AcDbLine
 10
272.741037622
 20
86.7219059751
 30
0.0
 11
271.5200998037
 21
86.7219059751
 31
0.0
  0
ELLIPSE
  5
3AF
330
1F
100
AcDbEntity
  8
0
  6
Continuous
 62
     7
370
    15
100
AcDbEllipse
 10
271.5207087938
 20
87.2222113756
 30
0.0
 11
0.3539842722995559
 21
0.3539842722995985
 31
0.0
210
0.0
220
0.0
230
1.0
 40
0.998782766
 41
2.356803477777909
 42
3.926381829401457
  0
LINE
  5
3B0
330
1F
100
AcDbEntity
  8
0
  6
Continuous
 62
     7
370
    15
100
AcDbLine
 10
271.0204042643
 20
87.2216015146
 30
0.0
 11
271.0204042643
 21
155.6634786562
 31
0.0
  0
LINE
  5
3B1
330
1F
100
AcDbEntity
  8
0
  6
Continuous
 62
     7
370
    15
100
AcDbLine
 10
290.2413431703
 20
86.4425408677
 30
0.0
 11
288.741038382
 21
86.4425408677
 31
0.0
  0
LINE
  5
3B2
330
1F
100
AcDbEntity
  8
0
  6
Continuous
 62
     7
370
    15
100
AcDbLine
 10
272.741037622
 20
86.4425408677
 30
0.0
 11
271.2407328337
 21
86.4425408677
 31
0.0
  0
LINE
  5
3B3
330
1F
100
AcDbEntity
  8
0
  6
Continuous
 62
     7
370
    15
100
AcDbLine
 10
271.5200998037
 20
86.7219059751
 30
0.0
 11
271.2407328337
 21
86.4425408677
 31
0.0
  0
LINE
  5
3B4
330
1F
100
AcDbEntity
  8
0
  6
Continuous
 62
     7
370
    15
100
AcDbLine
 10
270.7410372942
 20
86.9422364071
 30
0.0
 11
271.0204042643
 21
87.2216015146
 31
0.0
  0
ELLIPSE
  5
3B5
330
1F
100
AcDbEntity
  8
0
  6
Continuous
 62
     7
370
    15
100
AcDbEllipse
 10
271.2413426379
 20
86.9428452197
 30
0.0
 11
0.3539842722996128
 21
0.3539842722995843
 31
0.0
210
0.0
220
0.0
230
1.0
 40
0.998782766
 41
2.356803477778036
 42
3.926381829401588
  0
LINE
  5
3B6
330
1F
100
AcDbEntity
  8
0
  6
Continuous
 62
     7
370
    15
100
AcDbLine
 10
271.0204042643
 20
155.6634786562
 30
0.0
 11
270.7410372942
 21
155.9428456262
 31
0.0
  0
ELLIPSE
  5
3B7
330
1F
100
AcDbEntity
  8
0
  6
Continuous
 62
     7
370
    15
100
AcDbEllipse
 10
271.2413426379
 20
155.9422356754
 30
0.0
 11
0.3539842722996127
 21
-0.3539842722996127
 31
0.0
210
0.0
220
0.0
230
0.9999999999999998
 40
0.998782766
 41
2.356803477778023
 42
3.926381829401748
  0
ELLIPSE
  5
3B8
330
1F
100
AcDbEntity
  8
0
  6
Continuous
 62
     7
370
    15
100
AcDbEllipse
 10
270.780993871
 20
111.0926464051
 30
0.0
 11
0.0
 21
0.3000000000000114
 31
0.0
210
0.0
220
0.0
230
1.0
 40
0.0349207695
 41
0.0174532925209094
 42
0.7853981633979983
  0
LINE
  5
3B9
330
1F
100
AcDbEntity
  8
0
  6
Continuous
 62
     7
370
    15
100
AcDbLine
 10
270.7808103561
 20
111.3926006969
 30
0.0
 11
270.8807207792
 21
111.4425405417
 31
0.0
  0
LINE
  5
3BA
330
1F
100
AcDbEntity
  8
0
  6
Continuous
 62
     7
370
    15
100
AcDbLine
 10
270.8807207792
 20
111.4425405417
 30
0.0
 11
270.8807207792
 21
146.7425408796
 31
0.0
  0
LINE
  5
3BB
330
1F
100
AcDbEntity
  8
0
  6
Continuous
 62
     7
370
    15
100
AcDbLine
 10
270.7410372942
 20
146.7425408796
 30
0.0
 11
270.7410372942
 21
155.9428456262
 31
0.0
  0
LINE
  5
3BC
330
1F
100
AcDbEntity
  8
0
  6
Continuous
 62
     7
370
    15
100
AcDbLine
 10
270.7410372942
 20
86.9422364071
 30
0.0
 11
270.7410372942
 21
110.2484561293
 31
0.0
  0
ELLIPSE
  5
3BD
330
1F
100
AcDbEntity
  8
0
  6
Continuous
 62
     7
370
    15
100
AcDbEllipse
 10
270.7515140966
 20
110.2484561191
 30
0.0
 11
0.0
 21
0.3000000000000114
 31
0.0
210
0.0
220
0.0
230
1.0
 40
0.0349207695
 41
0.785398163396908
 42
1.570796326794944
  0
LINE
  5
3BE
330
1F
100
AcDbEntity
  8
0
  6
Continuous
 62
     7
370
    15
100
AcDbLine
 10
270.7735851555
 20
111.3047783751
 30
0.0
 11
270.7441069334
 21
110.4605881287
 31
0.0
  0
LINE
  5
3BF
330
1F
100
AcDbEntity
  8
0
  6
Continuous
 62
     7
370
    15
100
AcDbLine
 10
270.8807207792
 20
146.7425408796
 30
0.0
 11
270.7410372942
 21
146.7425408796
 31
0.0
  0
LINE
  5
3C0
330
1F
100
AcDbEntity
  8
0
  6
Continuous
 62
     8
370
    15
100
AcDbLine
 10
283.5557732879
 20
204.2425381974
 30
0.0
 11
283.5557732879
 21
185.542542024
 31
0.0
  0
LINE
  5
3C1
330
1F
100
AcDbEntity
  8
0
  6
Continuous
 62
     8
370
    15
100
AcDbLine
 10
283.5557732879
 20
184.4425383047
 30
0.0
 11
283.5557732879
 21
184.2425423697
 31
0.0
  0
LINE
  5
3C2
330
1F
100
AcDbEntity
  8
0
  6
Continuous
 62
     8
370
    15
100
AcDbLine
 10
283.5557732879
 20
174.2425370053
 30
0.0
 11
283.5557732879
 21
174.0425410703
 31
0.0
  0
LINE
  5
3C3
330
1F
100
AcDbEntity
  8
0
  6
Continuous
 62
     8
370
    15
100
AcDbLine
 10
283.5557732879
 20
172.942537351
 30
0.0
 11
283.5557732879
 21
134.242539762
 31
0.0
  0
LINE
  5
3C4
330
1F
100
AcDbEntity
  8
0
  6
Continuous
 62
     8
370
    15
100
AcDbLine
 10
283.5557732879
 20
124.2425399855
 30
0.0
 11
283.5557732879
 21
85.5425405339
 31
0.0
  0
LINE
  5
3C5
330
1F
100
AcDbEntity
  8
0
  6
Continuous
 62
     8
370
    15
100
AcDbLine
 10
283.5557732879
 20
84.4425405398
 30
0.0
 11
283.5557732879
 21
84.2425408796
 31
0.0
  0
LINE
  5
3C6
330
1F
100
AcDbEntity
  8
0
  6
Continuous
 62
     8
370
    15
100
AcDbLine
 10
283.5557732879
 20
74.2425392405
 30
0.0
 11
283.5557732879
 21
74.0425395802
 31
0.0
  0
LINE
  5
3C7
330
1F
100
AcDbEntity
  8
0
  6
Continuous
 62
     8
370
    15
100
AcDbLine
 10
283.5557732879
 20
72.9425395862
 30
0.0
 11
283.5557732879
 21
54.2425396875
 31
0.0
  0
LINE
  5
3C8
330
1F
100
AcDbEntity
  8
0
  6
Continuous
 62
     8
370
    15
100
AcDbLine
 10
277.9263027161
 20
204.2425381974
 30
0.0
 11
277.9263027161
 21
185.542542024
 31
0.0
  0
LINE
  5
3C9
330
1F
100
AcDbEntity
  8
0
  6
Continuous
 62
     8
370
    15
100
AcDbLine
 10
277.9263027161
 20
184.4425383047
 30
0.0
 11
277.9263027161
 21
184.2425423697
 31
0.0
  0
LINE
  5
3CA
330
1F
100
AcDbEntity
  8
0
  6
Continuous
 62
     8
370
    15
100
AcDbLine
 10
277.9263027161
 20
174.2425370053
 30
0.0
 11
277.9263027161
 21
174.0425410703
 31
0.0
  0
LINE
  5
3CB
330
1F
100
AcDbEntity
  8
0
  6
Continuous
 62
     8
370
    15
100
AcDbLine
 10
277.9263027161
 20
172.942537351
 30
0.0
 11
277.9263027161
 21
134.242539762
 31
0.0
  0
LINE
  5
3CC
330
1F
100
AcDbEntity
  8
0
  6
Continuous
 62
     8
370
    15
100
AcDbLine
 10
277.9263027161
 20
124.2425399855
 30
0.0
 11
277.9263027161
 21
85.5425405339
 31
0.0
  0
LINE
  5
3CD
330
1F
100
AcDbEntity
  8
0
  6
Continuous
 62
     8
370
    15
100
AcDbLine
 10
277.9263027161
 20
84.4425405398
 30
0.0
 11
277.9263027161
 21
84.2425408796
 31
0.0
  0
LINE
  5
3CE
330
1F
100
AcDbEntity
  8
0
  6
Continuous
 62
     8
370
    15
100
AcDbLine
 10
277.9263027161
 20
74.2425392405
 30
0.0
 11
277.9263027161
 21
74.0425395802
 31
0.0
  0
LINE
  5
3CF
330
1F
100
AcDbEntity
  8
0
  6
Continuous
 62
     8
370
    15
100
AcDbLine
 10
277.9263027161
 20
72.9425395862
 30
0.0
 11
277.9263027161
 21
54.2425396875
 31
0.0
  0
LINE
  5
3D0
330
1F
100
AcDbEntity
  8
0
  6
Continuous
 62
     8
370
    15
100
AcDbLine
 10
281.1653010695
 20
124.2425399855
 30
0.0
 11
281.1653010695
 21
85.5425405339
 31
0.0
  0
LINE
  5
3D1
330
1F
100
AcDbEntity
  8
0
  6
Continuous
 62
     8
370
    15
100
AcDbLine
 10
281.1653010695
 20
84.4425405398
 30
0.0
 11
281.1653010695
 21
84.2425408796
 31
0.0
  0
LINE
  5
3D2
330
1F
100
AcDbEntity
  8
0
  6
Continuous
 62
     8
370
    15
100
AcDbLine
 10
281.1653010695
 20
80.837063028
 30
0.0
 11
281.1653010695
 21
77.6480170921
 31
0.0
  0
LINE
  5
3D3
330
1F
100
AcDbEntity
  8
0
  6
Continuous
 62
     8
370
    15
100
AcDbLine
 10
281.1653010695
 20
74.2425392405
 30
0.0
 11
281.1653010695
 21
74.0425395802
 31
0.0
  0
LINE
  5
3D4
330
1F
100
AcDbEntity
  8
0
  6
Continuous
 62
     8
370
    15
100
AcDbLine
 10
281.1653010695
 20
72.9425395862
 30
0.0
 11
281.1653010695
 21
54.2425396875
 31
0.0
  0
LINE
  5
3D5
330
1F
100
AcDbEntity
  8
0
  6
Continuous
 62
     8
370
    15
100
AcDbLine
 10
281.1653010695
 20
204.2425381974
 30
0.0
 11
281.1653010695
 21
185.542542024
 31
0.0
  0
LINE
  5
3D6
330
1F
100
AcDbEntity
  8
0
  6
Continuous
 62
     8
370
    15
100
AcDbLine
 10
281.1653010695
 20
184.4425383047
 30
0.0
 11
281.1653010695
 21
184.2425423697
 31
0.0
  0
LINE
  5
3D7
330
1F
100
AcDbEntity
  8
0
  6
Continuous
 62
     8
370
    15
100
AcDbLine
 10
281.1653010695
 20
180.8370607928
 30
0.0
 11
281.1653010695
 21
177.6480185822
 31
0.0
  0
LINE
  5
3D8
330
1F
100
AcDbEntity
  8
0
  6
Continuous
 62
     8
370
    15
100
AcDbLine
 10
281.1653010695
 20
174.2425370053
 30
0.0
 11
281.1653010695
 21
174.0425410703
 31
0.0
  0
LINE
  5
3D9
330
1F
100
AcDbEntity
  8
0
  6
Continuous
 62
     8
370
    15
100
AcDbLine
 10
281.1653010695
 20
172.942537351
 30
0.0
 11
281.1653010695
 21
134.242539762
 31
0.0
  0
LINE
  5
3DA
330
1F
100
AcDbEntity
  8
0
  6
Continuous
 62
     8
370
    15
100
AcDbLine
 10
280.9531700014
 20
204.2425381974
 30
0.0
 11
280.9531700014
 21
185.542542024
 31
0.0
  0
LINE
  5
3DB
330
1F
100
AcDbEntity
  8
0
  6
Continuous
 62
     8
370
    15
100
AcDbLine
 10
280.9531700014
 20
180.8788436488
 30
0.0
 11
280.9531700014
 21
177.6062357262
 31
0.0
  0
LINE
  5
3DC
330
1F
100
AcDbEntity
  8
0
  6
Continuous
 62
     8
370
    15
100
AcDbLine
 10
280.9531700014
 20
172.942537351
 30
0.0
 11
280.9531700014
 21
134.242539762
 31
0.0
  0
LINE
  5
3DD
330
1F
100
AcDbEntity
  8
0
  6
Continuous
 62
     8
370
    15
100
AcDbLine
 10
280.5289060026
 20
204.2425381974
 30
0.0
 11
280.5289060026
 21
185.542542024
 31
0.0
  0
LINE
  5
3DE
330
1F
100
AcDbEntity
  8
0
  6
Continuous
 62
     8
370
    15
100
AcDbLine
 10
280.5289060026
 20
180.8788436488
 30
0.0
 11
280.5289060026
 21
177.6062357262
 31
0.0
  0
LINE
  5
3DF
330
1F
100
AcDbEntity
  8
0
  6
Continuous
 62
     8
370
    15
100
AcDbLine
 10
280.5289060026
 20
172.942537351
 30
0.0
 11
280.5289060026
 21
134.242539762
 31
0.0
  0
LINE
  5
3E0
330
1F
100
AcDbEntity
  8
0
  6
Continuous
 62
     8
370
    15
100
AcDbLine
 10
280.3167730718
 20
204.2425381974
 30
0.0
 11
280.3167730718
 21
185.542542024
 31
0.0
  0
LINE
  5
3E1
330
1F
100
AcDbEntity
  8
0
  6
Continuous
 62
     8
370
    15
100
AcDbLine
 10
280.3167730718
 20
184.4425383047
 30
0.0
 11
280.3167730718
 21
184.2425423697
 31
0.0
  0
LINE
  5
3E2
330
1F
100
AcDbEntity
  8
0
  6
Continuous
 62
     8
370
    15
100
AcDbLine
 10
280.3167730718
 20
180.8370607928
 30
0.0
 11
280.3167730718
 21
177.6480185822
 31
0.0
  0
LINE
  5
3E3
330
1F
100
AcDbEntity
  8
0
  6
Continuous
 62
     8
370
    15
100
AcDbLine
 10
280.3167730718
 20
174.2425370053
 30
0.0
 11
280.3167730718
 21
174.0425410703
 31
0.0
  0
LINE
  5
3E4
330
1F
100
AcDbEntity
  8
0
  6
Continuous
 62
     8
370
    15
100
AcDbLine
 10
280.3167730718
 20
172.942537351
 30
0.0
 11
280.3167730718
 21
134.242539762
 31
0.0
  0
LINE
  5
3E5
330
1F
100
AcDbEntity
  8
0
  6
Continuous
 62
     8
370
    15
100
AcDbLine
 10
280.3167730718
 20
124.2425399855
 30
0.0
 11
280.3167730718
 21
85.5425405339
 31
0.0
  0
LINE
  5
3E6
330
1F
100
AcDbEntity
  8
0
  6
Continuous
 62
     8
370
    15
100
AcDbLine
 10
280.3167730718
 20
84.4425405398
 30
0.0
 11
280.3167730718
 21
84.2425408796
 31
0.0
  0
LINE
  5
3E7
330
1F
100
AcDbEntity
  8
0
  6
Continuous
 62
     8
370
    15
100
AcDbLine
 10
280.3167730718
 20
80.837063028
 30
0.0
 11
280.3167730718
 21
77.6480170921
 31
0.0
  0
LINE
  5
3E8
330
1F
100
AcDbEntity
  8
0
  6
Continuous
 62
     8
370
    15
100
AcDbLine
 10
280.3167730718
 20
74.2425392405
 30
0.0
 11
280.3167730718
 21
74.0425395802
 31
0.0
  0
LINE
  5
3E9
330
1F
100
AcDbEntity
  8
0
  6
Continuous
 62
     8
370
    15
100
AcDbLine
 10
280.3167730718
 20
72.9425395862
 30
0.0
 11
280.3167730718
 21
54.2425396875
 31
0.0
  0
LINE
  5
3EA
330
1F
100
AcDbEntity
  8
0
  6
Continuous
 62
     8
370
    15
100
AcDbLine
 10
280.9531700014
 20
124.2425399855
 30
0.0
 11
280.9531700014
 21
85.5425405339
 31
0.0
  0
LINE
  5
3EB
330
1F
100
AcDbEntity
  8
0
  6
Continuous
 62
     8
370
    15
100
AcDbLine
 10
280.9531700014
 20
80.8788477466
 30
0.0
 11
280.9531700014
 21
77.6062342361
 31
0.0
  0
LINE
  5
3EC
330
1F
100
AcDbEntity
  8
0
  6
Continuous
 62
     8
370
    15
100
AcDbLine
 10
280.9531700014
 20
72.9425395862
 30
0.0
 11
280.9531700014
 21
54.2425396875
 31
0.0
  0
LINE
  5
3ED
330
1F
100
AcDbEntity
  8
0
  6
Continuous
 62
     8
370
    15
100
AcDbLine
 10
280.5289060026
 20
124.2425399855
 30
0.0
 11
280.5289060026
 21
85.5425405339
 31
0.0
  0
LINE
  5
3EE
330
1F
100
AcDbEntity
  8
0
  6
Continuous
 62
     8
370
    15
100
AcDbLine
 10
280.5289060026
 20
80.8788477466
 30
0.0
 11
280.5289060026
 21
77.6062342361
 31
0.0
  0
LINE
  5
3EF
330
1F
100
AcDbEntity
  8
0
  6
Continuous
 62
     8
370
    15
100
AcDbLine
 10
280.5289060026
 20
72.9425395862
 30
0.0
 11
280.5289060026
 21
54.2425396875
 31
0.0
  0
DIMENSION
  5
3F0
330
1F
100
AcDbEntity
  8
0
  6
Continuous
 62
     7
370
     0
100
AcDbDimension
  2
*D9
 10
260.7410378657
 20
129.2425404475
 30
0.0
 11
260.7410378657
 21
166.8341104251
 31
0.0
 70
   160
 71
     2
 42
-1.0
  3
SLDDIMSTYLE1
100
AcDbAlignedDimension
 13
273.7410378657
 23
204.2425404475
 33
0.0
 14
276.5910378657
 24
129.2425404475
 34
0.0
 50
90.0
100
AcDbRotatedDimension
  0
INSERT
  5
401
330
1F
100
AcDbEntity
  8
0
  6
Continuous
 62
     7
370
     0
100
AcDbBlockReference
  2
SW_RADIAL_DIMENSION_0
 10
301.9636797021
 20
213.2516034891
 30
0.0
  0
INSERT
  5
40D
330
1F
100
AcDbEntity
  8
0
  6
Continuous
 62
     7
370
     0
100
AcDbBlockReference
  2
SW_CENTERMARKSYMBOL_0
 10
280.7410378657
 20
129.2425404475
 30
0.0
  0
LINE
  5
40E
330
1F
100
AcDbEntity
  8
0
  6
Continuous
 62
     7
370
    15
100
AcDbLine
 10
209.1619883571
 20
260.9200967975
 30
0.0
 11
209.1619883571
 21
260.7809851445
 31
0.0
  0
LINE
  5
40F
330
1F
100
AcDbEntity
  8
0
  6
Continuous
 62
     7
370
    15
100
AcDbLine
 10
209.1619883571
 20
269.0592060364
 30
0.0
 11
209.1619883571
 21
268.9200962461
 31
0.0
  0
LINE
  5
410
330
1F
100
AcDbEntity
  8
0
  6
Continuous
 62
     7
370
    15
100
AcDbLine
 10
206.361877746
 20
262.9200971253
 30
0.0
 11
206.4618778089
 21
262.9200971253
 31
0.0
  0
LINE
  5
411
330
1F
100
AcDbEntity
  8
0
  6
Continuous
 62
     7
370
    15
100
AcDbLine
 10
206.4618778089
 20
266.9200959183
 30
0.0
 11
206.361877746
 21
266.9200959183
 31
0.0
  0
LINE
  5
412
330
1F
100
AcDbEntity
  8
0
  6
Continuous
 62
     7
370
    15
100
AcDbLine
 10
204.9618777959
 20
257.8700954593
 30
0.0
 11
205.7618778339
 21
258.670095963
 31
0.0
  0
LINE
  5
413
330
1F
100
AcDbEntity
  8
0
  6
Continuous
 62
     7
370
    15
100
AcDbLine
 10
205.7618778339
 20
271.1700970806
 30
0.0
 11
204.9618777959
 21
271.9700957216
 31
0.0
  0
LINE
  5
414
330
1F
100
AcDbEntity
  8
0
  6
Continuous
 62
     7
370
    15
100
AcDbLine
 10
205.7618778339
 20
258.670095963
 30
0.0
 11
206.361877746
 21
258.6805696167
 31
0.0
  0
LINE
  5
415
330
1F
100
AcDbEntity
  8
0
  6
Continuous
 62
     7
370
    15
100
AcDbLine
 10
206.361877746
 20
271.1596215643
 30
0.0
 11
205.7618778339
 21
271.1700970806
 31
0.0
  0
ARC
  5
416
330
1F
100
AcDbEntity
  8
0
  6
Continuous
 62
     7
370
    15
100
AcDbCircle
 10
212.4618769869
 20
262.3202416352
 30
0.0
 40
0.3000000100000193
100
AcDbArc
 50
270.0
 51
0.0
  0
LINE
  5
417
330
1F
100
AcDbEntity
  8
0
  6
Continuous
 62
     7
370
    15
100
AcDbLine
 10
212.361878031
 20
262.0202420778
 30
0.0
 11
212.4618769298
 21
262.0202420778
 31
0.0
  0
ARC
  5
418
330
1F
100
AcDbEntity
  8
0
  6
Continuous
 62
     7
370
    15
100
AcDbCircle
 10
212.3618778069
 20
261.6202416152
 30
0.0
 40
0.4000000099999852
100
AcDbArc
 50
90.0
 51
180.0
  0
LINE
  5
419
330
1F
100
AcDbEntity
  8
0
  6
Continuous
 62
     7
370
    15
100
AcDbLine
 10
209.4296431309
 20
261.3426657892
 30
0.0
 11
209.7041207739
 21
261.1505320795
 31
0.0
  0
ARC
  5
41A
330
1F
100
AcDbEntity
  8
0
  6
Continuous
 62
     7
370
    15
100
AcDbCircle
 10
210.4618758388
 20
262.8172833664
 30
0.0
 40
1.799999999999995
100
AcDbArc
 50
180.0
 51
235.0079593175
  0
ARC
  5
41B
330
1F
100
AcDbEntity
  8
0
  6
Continuous
 62
     7
370
    15
100
AcDbCircle
 10
210.4618758388
 20
267.0229094047
 30
0.0
 40
1.799999999999983
100
AcDbArc
 50
124.9920406825
 51
180.0
  0
LINE
  5
41C
330
1F
100
AcDbEntity
  8
0
  6
Continuous
 62
     7
370
    15
100
AcDbLine
 10
209.7041207739
 20
268.6896609641
 30
0.0
 11
209.4296431309
 21
268.4975253917
 31
0.0
  0
LINE
  5
41D
330
1F
100
AcDbEntity
  8
0
  6
Continuous
 62
     7
370
    15
100
AcDbLine
 10
212.4618769298
 20
267.8199509658
 30
0.0
 11
212.361878031
 21
267.8199509658
 31
0.0
  0
ARC
  5
41E
330
1F
100
AcDbEntity
  8
0
  6
Continuous
 62
     7
370
    15
100
AcDbCircle
 10
212.4618769869
 20
267.5199511359
 30
0.0
 40
0.3000000100000193
100
AcDbArc
 50
0.0
 51
90.0
  0
LINE
  5
41F
330
1F
100
AcDbEntity
  8
0
  6
Continuous
 62
     7
370
    15
100
AcDbLine
 10
208.661875818
 20
267.0229102052
 30
0.0
 11
208.661875818
 21
262.8172828383
 31
0.0
  0
LINE
  5
420
330
1F
100
AcDbEntity
  8
0
  6
Continuous
 62
     7
370
    15
100
AcDbLine
 10
212.7618768858
 20
262.3202415682
 30
0.0
 11
212.7618768858
 21
267.5199514754
 31
0.0
  0
ARC
  5
421
330
1F
100
AcDbEntity
  8
0
  6
Continuous
 62
     7
370
    15
100
AcDbCircle
 10
212.3618778069
 20
268.2199511559
 30
0.0
 40
0.4000000099999852
100
AcDbArc
 50
180.0
 51
270.0
  0
LINE
  5
422
330
1F
100
AcDbEntity
  8
0
  6
Continuous
 62
     7
370
    15
100
AcDbLine
 10
209.8148374493
 20
269.7120557107
 30
0.0
 11
209.9618778006
 21
269.7120557107
 31
0.0
  0
SPLINE
  5
423
330
1F
100
AcDbEntity
  8
0
  6
Continuous
 62
     7
370
    15
100
AcDbSpline
210
0.0
220
0.0
230
1.0
 70
     8
 71
     3
 72
    13
 73
     9
 74
     0
 42
0.00000001
 43
0.00000001
 40
0.0
 40
0.0
 40
0.0
 40
0.0
 40
0.2749558015381254
 40
0.4983864941231602
 40
0.6684107697845489
 40
0.8070629020274495
 40
0.946204968950782
 40
1.0
 40
1.0
 40
1.0
 40
1.0
 10
209.9701818218807
 20
269.7200948871383
 30
0.0
 10
210.0900352723557
 20
269.8390077965233
 30
0.0
 10
210.3072823377264
 20
270.0545500316129
 30
0.0
 10
210.561005352558
 20
270.3415343555134
 30
0.0
 10
210.7144983345082
 20
270.5426452741531
 30
0.0
 10
210.7849644374444
 20
270.667854559469
 30
0.0
 10
210.7865223783886
 20
270.7157899018223
 30
0.0
 10
210.7638219575422
 20
270.7191578554617
 30
0.0
 10
210.7574925897996
 20
270.7200969136962
 30
0.0
  0
LINE
  5
424
330
1F
100
AcDbEntity
  8
0
  6
Continuous
 62
     7
370
    15
100
AcDbLine
 10
209.9618778006
 20
269.7120557107
 30
0.0
 11
209.9701818219
 21
269.7200948871
 31
0.0
  0
LINE
  5
425
330
1F
100
AcDbEntity
  8
0
  6
Continuous
 62
     7
370
    15
100
AcDbLine
 10
209.9618778006
 20
260.1281373329
 30
0.0
 11
209.9618778006
 21
269.7120557107
 31
0.0
  0
LINE
  5
426
330
1F
100
AcDbEntity
  8
0
  6
Continuous
 62
     7
370
    15
100
AcDbLine
 10
209.8148374493
 20
260.1281373329
 30
0.0
 11
209.9618778006
 21
260.1281373329
 31
0.0
  0
SPLINE
  5
427
330
1F
100
AcDbEntity
  8
0
  6
Continuous
 62
     7
370
    15
100
AcDbSpline
210
0.0
220
0.0
230
1.0
 70
     8
 71
     3
 72
    10
 73
     6
 74
     0
 42
0.00000001
 43
0.00000001
 40
0.0
 40
0.0
 40
0.0
 40
0.0
 40
0.1883771901342765
 40
0.8483810929692093
 40
1.0
 40
1.0
 40
1.0
 40
1.0
 10
209.7041207738573
 20
265.3200967736253
 30
0.0
 10
209.701387068566
 20
265.319613454772
 30
0.0
 10
209.6890754724472
 20
265.317436765669
 30
0.0
 10
209.6741685241978
 20
265.303624244179
 30
0.0
 10
209.6650387904878
 20
265.269396958909
 30
0.0
 10
209.6633332688714
 20
265.2630029745111
 30
0.0
  0
SPLINE
  5
428
330
1F
100
AcDbEntity
  8
0
  6
Continuous
 62
     7
370
    15
100
AcDbSpline
210
0.0
220
0.0
230
1.0
 70
     8
 71
     3
 72
    10
 73
     6
 74
     0
 42
0.00000001
 43
0.00000001
 40
0.0
 40
0.0
 40
0.0
 40
0.0
 40
0.3376451109548387
 40
0.9848455829344143
 40
1.0
 40
1.0
 40
1.0
 40
1.0
 10
209.6634075418467
 20
264.5785628385553
 30
0.0
 10
209.6674493314118
 20
264.5658780088672
 30
0.0
 10
209.6792384510262
 20
264.52887881035
 30
0.0
 10
209.694214812778
 20
264.5202471246666
 30
0.0
 10
209.7038991989442
 20
264.5200996442593
 30
0.0
 10
209.7041207738573
 20
264.5200962699661
 30
0.0
  0
LINE
  5
429
330
1F
100
AcDbEntity
  8
0
  6
Continuous
 62
     7
370
    15
100
AcDbLine
 10
209.7041207739
 20
268.9200962461
 30
0.0
 11
209.7041207739
 21
265.3200967736
 31
0.0
  0
LINE
  5
42A
330
1F
100
AcDbEntity
  8
0
  6
Continuous
 62
     7
370
    15
100
AcDbLine
 10
209.1619883571
 20
268.9200962461
 30
0.0
 11
209.7041207739
 21
268.9200962461
 31
0.0
  0
LINE
  5
42B
330
1F
100
AcDbEntity
  8
0
  6
Continuous
 62
     7
370
    15
100
AcDbLine
 10
209.1619883571
 20
260.9200967975
 30
0.0
 11
209.7041207739
 21
260.9200967975
 31
0.0
  0
LINE
  5
42C
330
1F
100
AcDbEntity
  8
0
  6
Continuous
 62
     7
370
    15
100
AcDbLine
 10
209.7041207739
 20
264.52009627
 30
0.0
 11
209.7041207739
 21
260.9200967975
 31
0.0
  0
LINE
  5
42D
330
1F
100
AcDbEntity
  8
0
  6
Continuous
 62
     7
370
    15
100
AcDbLine
 10
211.9618777791
 20
269.7200948871
 30
0.0
 11
209.9701818219
 21
269.7200948871
 31
0.0
  0
LINE
  5
42E
330
1F
100
AcDbEntity
  8
0
  6
Continuous
 62
     7
370
    15
100
AcDbLine
 10
210.822877721
 20
270.7200969137
 30
0.0
 11
211.944720489
 21
270.7200969137
 31
0.0
  0
LINE
  5
42F
330
1F
100
AcDbEntity
  8
0
  6
Continuous
 62
     7
370
    15
100
AcDbLine
 10
209.9701818219
 20
260.1200962938
 30
0.0
 11
211.9618777791
 21
260.1200962938
 31
0.0
  0
LINE
  5
430
330
1F
100
AcDbEntity
  8
0
  6
Continuous
 62
     7
370
    15
100
AcDbLine
 10
209.9618778006
 20
260.1281373329
 30
0.0
 11
209.9701818219
 21
260.1200962938
 31
0.0
  0
LINE
  5
431
330
1F
100
AcDbEntity
  8
0
  6
Continuous
 62
     7
370
    15
100
AcDbLine
 10
211.9618777791
 20
261.6200956084
 30
0.0
 11
211.9618777791
 21
268.2200955726
 31
0.0
  0
LINE
  5
432
330
1F
100
AcDbEntity
  8
0
  6
Continuous
 62
     7
370
    15
100
AcDbLine
 10
211.944720489
 20
259.1200961299
 30
0.0
 11
210.822877721
 21
259.1200961299
 31
0.0
  0
SPLINE
  5
433
330
1F
100
AcDbEntity
  8
0
  6
Continuous
 62
     7
370
    15
100
AcDbSpline
210
0.0
220
0.0
230
1.0
 70
     8
 71
     3
 72
    13
 73
     9
 74
     0
 42
0.00000001
 43
0.00000001
 40
0.0
 40
0.0
 40
0.0
 40
0.0
 40
0.1331513816798106
 40
0.2663831735248927
 40
0.3986262310134883
 40
0.5969295281017217
 40
0.8780528921196756
 40
1.0
 40
1.0
 40
1.0
 40
1.0
 10
210.7574925897996
 20
259.1200961298952
 30
0.0
 10
210.7701546850542
 20
259.1257500527298
 30
0.0
 10
210.7954865222071
 20
259.1370613128049
 30
0.0
 10
210.7562346796236
 20
259.2291990599957
 30
0.0
 10
210.6538276844442
 20
259.3816546679035
 30
0.0
 10
210.4484914198012
 20
259.6308412873373
 30
0.0
 10
210.1994575333954
 20
259.8954814034432
 30
0.0
 10
210.0234362480244
 20
260.0679244479083
 30
0.0
 10
209.9701818218807
 20
260.1200962938079
 30
0.0
  0
LINE
  5
434
330
1F
100
AcDbEntity
  8
0
  6
Continuous
 62
     7
370
    15
100
AcDbLine
 10
209.3333158549
 20
260.9200967975
 30
0.0
 11
208.7296450767
 21
261.3426657892
 31
0.0
  0
ARC
  5
435
330
1F
100
AcDbEntity
  8
0
  6
Continuous
 62
     7
370
    15
100
AcDbCircle
 10
209.7618777969
 20
262.8172833664
 30
0.0
 40
1.800000000000011
100
AcDbArc
 50
180.0
 51
235.0079593175
  0
LINE
  5
436
330
1F
100
AcDbEntity
  8
0
  6
Continuous
 62
     7
370
    15
100
AcDbLine
 10
207.9618778002
 20
264.4958315916
 30
0.0
 11
207.9618778002
 21
265.3443595893
 31
0.0
  0
ARC
  5
437
330
1F
100
AcDbEntity
  8
0
  6
Continuous
 62
     7
370
    15
100
AcDbCircle
 10
209.7618777969
 20
267.0229094047
 30
0.0
 40
1.800000000000011
100
AcDbArc
 50
124.9920406825
 51
180.0
  0
LINE
  5
438
330
1F
100
AcDbEntity
  8
0
  6
Continuous
 62
     7
370
    15
100
AcDbLine
 10
208.7296450767
 20
268.4975253917
 30
0.0
 11
209.3333158549
 21
268.9200962461
 31
0.0
  0
LINE
  5
439
330
1F
100
AcDbEntity
  8
0
  6
Continuous
 62
     7
370
    15
100
AcDbLine
 10
205.2618777519
 20
256.9200961418
 30
0.0
 11
212.9618779431
 21
256.9200961418
 31
0.0
  0
ARC
  5
43A
330
1F
100
AcDbEntity
  8
0
  6
Continuous
 62
     7
370
    15
100
AcDbCircle
 10
205.2618777969
 20
257.2200963855
 30
0.0
 40
0.3000000000000114
100
AcDbArc
 50
180.0
 51
270.0
  0
LINE
  5
43B
330
1F
100
AcDbEntity
  8
0
  6
Continuous
 62
     7
370
    15
100
AcDbLine
 10
204.9618777959
 20
257.3958324767
 30
0.0
 11
204.9618777959
 21
257.2200956322
 31
0.0
  0
ARC
  5
43C
330
1F
100
AcDbEntity
  8
0
  6
Continuous
 62
     7
370
    15
100
AcDbCircle
 10
205.2618777969
 20
257.3958323168
 30
0.0
 40
0.3000000000000346
100
AcDbArc
 50
135.0
 51
180.0
  0
LINE
  5
43D
330
1F
100
AcDbEntity
  8
0
  6
Continuous
 62
     7
370
    15
100
AcDbLine
 10
205.7740099402
 20
258.3322288967
 30
0.0
 11
205.0497457525
 21
257.6079635448
 31
0.0
  0
ARC
  5
43E
330
1F
100
AcDbEntity
  8
0
  6
Continuous
 62
     7
370
    15
100
AcDbCircle
 10
205.9861418656
 20
258.1200963855
 30
0.0
 40
0.3000000000000145
100
AcDbArc
 50
90.0
 51
135.0
  0
LINE
  5
43F
330
1F
100
AcDbEntity
  8
0
  6
Continuous
 62
     7
370
    15
100
AcDbLine
 10
208.6772933975
 20
258.4200954564
 30
0.0
 11
205.9861419397
 21
258.4200954564
 31
0.0
  0
ARC
  5
440
330
1F
100
AcDbEntity
  8
0
  6
Continuous
 62
     7
370
    15
100
AcDbCircle
 10
208.6772933846
 20
258.7200963855
 30
0.0
 40
0.3000000000000114
100
AcDbArc
 50
270.0
 51
45.0
  0
LINE
  5
441
330
1F
100
AcDbEntity
  8
0
  6
Continuous
 62
     7
370
    15
100
AcDbLine
 10
206.6083244421
 20
261.213329298
 30
0.0
 11
208.889425397
 21
258.9322278775
 31
0.0
  0
ARC
  5
442
330
1F
100
AcDbEntity
  8
0
  6
Continuous
 62
     7
370
    15
100
AcDbCircle
 10
206.9618777969
 20
261.5668828232
 30
0.0
 40
0.5
100
AcDbArc
 50
180.0
 51
225.0
  0
LINE
  5
443
330
1F
100
AcDbEntity
  8
0
  6
Continuous
 62
     7
370
    15
100
AcDbLine
 10
206.4618778089
 20
268.2733094819
 30
0.0
 11
206.4618778089
 21
261.5668835617
 31
0.0
  0
ARC
  5
444
330
1F
100
AcDbEntity
  8
0
  6
Continuous
 62
     7
370
    15
100
AcDbCircle
 10
206.9618777969
 20
268.2733099479
 30
0.0
 40
0.5
100
AcDbArc
 50
135.0
 51
180.0
  0
LINE
  5
445
330
1F
100
AcDbEntity
  8
0
  6
Continuous
 62
     7
370
    15
100
AcDbLine
 10
208.889425397
 20
270.9079633034
 30
0.0
 11
206.6083244421
 21
268.6268637456
 31
0.0
  0
ARC
  5
446
330
1F
100
AcDbEntity
  8
0
  6
Continuous
 62
     7
370
    15
100
AcDbCircle
 10
208.6772933846
 20
271.1200963855
 30
0.0
 40
0.3000000000000114
100
AcDbArc
 50
315.0
 51
90.0
  0
ARC
  5
447
330
1F
100
AcDbEntity
  8
0
  6
Continuous
 62
     7
370
    15
100
AcDbCircle
 10
213.6618777969
 20
268.2200963855
 30
0.0
 40
0.3000000000000114
100
AcDbArc
 50
270.0
 51
0.0
  0
LINE
  5
448
330
1F
100
AcDbEntity
  8
0
  6
Continuous
 62
     7
370
    15
100
AcDbLine
 10
212.2618777352
 20
267.9200960822
 30
0.0
 11
213.6618776853
 21
267.9200960822
 31
0.0
  0
ARC
  5
449
330
1F
100
AcDbEntity
  8
0
  6
Continuous
 62
     7
370
    15
100
AcDbCircle
 10
212.2618777969
 20
268.2200963855
 30
0.0
 40
0.3000000000000114
100
AcDbArc
 50
180.0
 51
270.0
  0
LINE
  5
44A
330
1F
100
AcDbEntity
  8
0
  6
Continuous
 62
     7
370
    15
100
AcDbLine
 10
211.9618777791
 20
270.6200952209
 30
0.0
 11
211.9618777791
 21
268.2200955726
 31
0.0
  0
LINE
  5
44B
330
1F
100
AcDbEntity
  8
0
  6
Continuous
 62
     7
370
    15
100
AcDbLine
 10
208.0497457627
 20
267.9469647385
 30
0.0
 11
210.9350098903
 21
270.8322281517
 31
0.0
  0
ARC
  5
44C
330
1F
100
AcDbEntity
  8
0
  6
Continuous
 62
     7
370
    15
100
AcDbCircle
 10
208.2618777969
 20
267.7348323168
 30
0.0
 40
0.3000000000000346
100
AcDbArc
 50
135.0
 51
180.0
  0
LINE
  5
44D
330
1F
100
AcDbEntity
  8
0
  6
Continuous
 62
     7
370
    15
100
AcDbLine
 10
207.9618778002
 20
265.3443595893
 30
0.0
 11
207.9618778002
 21
267.7348318077
 31
0.0
  0
ARC
  5
44E
330
1F
100
AcDbEntity
  8
0
  6
Continuous
 62
     7
370
    15
100
AcDbCircle
 10
207.6618777969
 20
265.3443604543
 30
0.0
 40
0.2999999999999944
100
AcDbArc
 50
315.0
 51
0.0
  0
LINE
  5
44F
330
1F
100
AcDbEntity
  8
0
  6
Continuous
 62
     7
370
    15
100
AcDbLine
 10
207.6618778077
 20
264.9200955905
 30
0.0
 11
207.8740098363
 21
265.1322285212
 31
0.0
  0
LINE
  5
450
330
1F
100
AcDbEntity
  8
0
  6
Continuous
 62
     7
370
    15
100
AcDbLine
 10
207.8740098363
 20
264.7079645224
 30
0.0
 11
207.6618778077
 21
264.9200955905
 31
0.0
  0
ARC
  5
451
330
1F
100
AcDbEntity
  8
0
  6
Continuous
 62
     7
370
    15
100
AcDbCircle
 10
207.6618777969
 20
264.4958323168
 30
0.0
 40
0.2999999999999944
100
AcDbArc
 50
0.0
 51
45.0
  0
LINE
  5
452
330
1F
100
AcDbEntity
  8
0
  6
Continuous
 62
     7
370
    15
100
AcDbLine
 10
207.9618778002
 20
262.1053612359
 30
0.0
 11
207.9618778002
 21
264.4958315916
 31
0.0
  0
ARC
  5
453
330
1F
100
AcDbEntity
  8
0
  6
Continuous
 62
     7
370
    15
100
AcDbCircle
 10
208.2618777969
 20
262.1053604543
 30
0.0
 40
0.3000000000000346
100
AcDbArc
 50
180.0
 51
225.0
  0
LINE
  5
454
330
1F
100
AcDbEntity
  8
0
  6
Continuous
 62
     7
370
    15
100
AcDbLine
 10
210.9350098903
 20
259.0079648919
 30
0.0
 11
208.0497457627
 21
261.8932283051
 31
0.0
  0
ARC
  5
455
330
1F
100
AcDbEntity
  8
0
  6
Continuous
 62
     7
370
    15
100
AcDbCircle
 10
211.1471418656
 20
259.2200963855
 30
0.0
 40
0.3000000000000145
100
AcDbArc
 50
225.0
 51
270.0
  0
LINE
  5
456
330
1F
100
AcDbEntity
  8
0
  6
Continuous
 62
     7
370
    15
100
AcDbLine
 10
211.6618778231
 20
258.9200964696
 30
0.0
 11
211.1471418897
 21
258.9200964696
 31
0.0
  0
ARC
  5
457
330
1F
100
AcDbEntity
  8
0
  6
Continuous
 62
     7
370
    15
100
AcDbCircle
 10
211.6618777969
 20
259.2200963855
 30
0.0
 40
0.3000000000000114
100
AcDbArc
 50
270.0
 51
0.0
  0
LINE
  5
458
330
1F
100
AcDbEntity
  8
0
  6
Continuous
 62
     7
370
    15
100
AcDbLine
 10
211.9618777791
 20
261.6200956084
 30
0.0
 11
211.9618777791
 21
259.22009596
 31
0.0
  0
ARC
  5
459
330
1F
100
AcDbEntity
  8
0
  6
Continuous
 62
     7
370
    15
100
AcDbCircle
 10
212.2618777969
 20
261.6200963855
 30
0.0
 40
0.3000000000000114
100
AcDbArc
 50
90.0
 51
180.0
  0
LINE
  5
45A
330
1F
100
AcDbEntity
  8
0
  6
Continuous
 62
     7
370
    15
100
AcDbLine
 10
213.6618776853
 20
261.9200969614
 30
0.0
 11
212.2618777352
 21
261.9200969614
 31
0.0
  0
ARC
  5
45B
330
1F
100
AcDbEntity
  8
0
  6
Continuous
 62
     7
370
    15
100
AcDbCircle
 10
213.6618777969
 20
261.6200963855
 30
0.0
 40
0.3000000000000114
100
AcDbArc
 50
0.0
 51
90.0
  0
LINE
  5
45C
330
1F
100
AcDbEntity
  8
0
  6
Continuous
 62
     7
370
    15
100
AcDbLine
 10
213.9618776413
 20
257.9200963057
 30
0.0
 11
213.9618776413
 21
261.6200956084
 31
0.0
  0
ARC
  5
45D
330
1F
100
AcDbEntity
  8
0
  6
Continuous
 62
     7
370
    15
100
AcDbCircle
 10
212.9618777969
 20
257.9200963855
 30
0.0
 40
1.0
100
AcDbArc
 50
270.0
 51
0.0
  0
LINE
  5
45E
330
1F
100
AcDbEntity
  8
0
  6
Continuous
 62
     7
370
    15
100
AcDbLine
 10
204.9618777959
 20
272.6200955487
 30
0.0
 11
204.9618777959
 21
272.4443587042
 31
0.0
  0
ARC
  5
45F
330
1F
100
AcDbEntity
  8
0
  6
Continuous
 62
     7
370
    15
100
AcDbCircle
 10
205.2618777969
 20
272.6200963855
 30
0.0
 40
0.3000000000000114
100
AcDbArc
 50
90.0
 51
180.0
  0
LINE
  5
460
330
1F
100
AcDbEntity
  8
0
  6
Continuous
 62
     7
370
    15
100
AcDbLine
 10
212.9618779431
 20
272.9200969018
 30
0.0
 11
205.2618777519
 21
272.9200969018
 31
0.0
  0
ARC
  5
461
330
1F
100
AcDbEntity
  8
0
  6
Continuous
 62
     7
370
    15
100
AcDbCircle
 10
212.9618777969
 20
271.9200963855
 30
0.0
 40
1.0
100
AcDbArc
 50
0.0
 51
90.0
  0
LINE
  5
462
330
1F
100
AcDbEntity
  8
0
  6
Continuous
 62
     7
370
    15
100
AcDbLine
 10
213.9618776413
 20
268.2200955726
 30
0.0
 11
213.9618776413
 21
271.9200948752
 31
0.0
  0
LINE
  5
463
330
1F
100
AcDbEntity
  8
0
  6
Continuous
 62
     7
370
    15
100
AcDbLine
 10
205.9861419397
 20
271.4200975872
 30
0.0
 11
208.6772933975
 21
271.4200975872
 31
0.0
  0
ARC
  5
464
330
1F
100
AcDbEntity
  8
0
  6
Continuous
 62
     7
370
    15
100
AcDbCircle
 10
205.9861418656
 20
271.7200963855
 30
0.0
 40
0.3000000000000682
100
AcDbArc
 50
225.0
 51
270.0
  0
LINE
  5
465
330
1F
100
AcDbEntity
  8
0
  6
Continuous
 62
     7
370
    15
100
AcDbLine
 10
205.0497457525
 20
272.2322294987
 30
0.0
 11
205.7740099402
 21
271.5079660095
 31
0.0
  0
ARC
  5
466
330
1F
100
AcDbEntity
  8
0
  6
Continuous
 62
     7
370
    15
100
AcDbCircle
 10
205.2618777969
 20
272.4443604543
 30
0.0
 40
0.3000000000000114
100
AcDbArc
 50
180.0
 51
225.0
  0
ARC
  5
467
330
1F
100
AcDbEntity
  8
0
  6
Continuous
 62
     7
370
    15
100
AcDbCircle
 10
211.6618777969
 20
270.6200963855
 30
0.0
 40
0.3000000000000114
100
AcDbArc
 50
0.0
 51
90.0
  0
LINE
  5
468
330
1F
100
AcDbEntity
  8
0
  6
Continuous
 62
     7
370
    15
100
AcDbLine
 10
211.1471418897
 20
270.9200965739
 30
0.0
 11
211.6618778231
 21
270.9200965739
 31
0.0
  0
ARC
  5
469
330
1F
100
AcDbEntity
  8
0
  6
Continuous
 62
     7
370
    15
100
AcDbCircle
 10
211.1471418656
 20
270.6200963855
 30
0.0
 40
0.3000000000000145
100
AcDbArc
 50
90.0
 51
135.0
  0
LINE
  5
46A
330
1F
100
AcDbEntity
  8
0
  6
Continuous
 62
     7
370
    15
100
AcDbLine
 10
204.9618777959
 20
274.1410347201
 30
0.0
 11
196.9618781144
 21
274.4204016901
 31
0.0
  0
LINE
  5
46B
330
1F
100
AcDbEntity
  8
0
  6
Continuous
 62
     7
370
    15
100
AcDbLine
 10
204.9618777959
 20
274.0266496814
 30
0.0
 11
204.9618777959
 21
274.1410347201
 31
0.0
  0
LINE
  5
46C
330
1F
100
AcDbEntity
  8
0
  6
Continuous
 62
     7
370
    15
100
AcDbLine
 10
205.6618777709
 20
273.4392831601
 30
0.0
 11
204.9618777959
 21
274.0266496814
 31
0.0
  0
LINE
  5
46D
330
1F
100
AcDbEntity
  8
0
  6
Continuous
 62
     7
370
    15
100
AcDbLine
 10
205.6618777709
 20
273.1823163606
 30
0.0
 11
205.6618777709
 21
273.4392831601
 31
0.0
  0
LINE
  5
46E
330
1F
100
AcDbEntity
  8
0
  6
Continuous
 62
     7
370
    15
100
AcDbLine
 10
204.9618777959
 20
273.1700974084
 30
0.0
 11
205.6618777709
 21
273.1823163606
 31
0.0
  0
LINE
  5
46F
330
1F
100
AcDbEntity
  8
0
  6
Continuous
 62
     7
370
    15
100
AcDbLine
 10
204.9618777959
 20
256.6700956352
 30
0.0
 11
204.9618777959
 21
257.2200956322
 31
0.0
  0
LINE
  5
470
330
1F
100
AcDbEntity
  8
0
  6
Continuous
 62
     7
370
    15
100
AcDbLine
 10
204.9618777959
 20
257.3958324767
 30
0.0
 11
204.9618777959
 21
272.4443587042
 31
0.0
  0
LINE
  5
471
330
1F
100
AcDbEntity
  8
0
  6
Continuous
 62
     7
370
    15
100
AcDbLine
 10
204.9618777959
 20
272.6200955487
 30
0.0
 11
204.9618777959
 21
273.1700974084
 31
0.0
  0
LINE
  5
472
330
1F
100
AcDbEntity
  8
0
  6
Continuous
 62
     7
370
    15
100
AcDbLine
 10
205.6618777709
 20
256.6578785456
 30
0.0
 11
204.9618777959
 21
256.6700956352
 31
0.0
  0
LINE
  5
473
330
1F
100
AcDbEntity
  8
0
  6
Continuous
 62
     7
370
    15
100
AcDbLine
 10
205.6618777709
 20
256.4009117461
 30
0.0
 11
205.6618777709
 21
256.6578785456
 31
0.0
  0
LINE
  5
474
330
1F
100
AcDbEntity
  8
0
  6
Continuous
 62
     7
370
    15
100
AcDbLine
 10
204.9618777959
 20
255.8135414995
 30
0.0
 11
205.6618777709
 21
256.4009117461
 31
0.0
  0
LINE
  5
475
330
1F
100
AcDbEntity
  8
0
  6
Continuous
 62
     7
370
    15
100
AcDbLine
 10
204.9618777959
 20
255.6991583235
 30
0.0
 11
204.9618777959
 21
255.8135414995
 31
0.0
  0
LINE
  5
476
330
1F
100
AcDbEntity
  8
0
  6
Continuous
 62
     7
370
    15
100
AcDbLine
 10
196.9618781144
 20
255.4197913535
 30
0.0
 11
204.9618777959
 21
255.6991583235
 31
0.0
  0
LINE
  5
477
330
1F
100
AcDbEntity
  8
0
  6
Continuous
 62
     7
370
    15
100
AcDbLine
 10
196.9618781144
 20
255.4197913535
 30
0.0
 11
196.9618781144
 21
274.4204016901
 31
0.0
  0
LINE
  5
478
330
1F
100
AcDbEntity
  8
0
  6
Continuous
 62
     7
370
    15
100
AcDbLine
 10
196.9618781144
 20
274.9200972296
 30
0.0
 11
204.9618777959
 21
274.6407302595
 31
0.0
  0
LINE
  5
479
330
1F
100
AcDbEntity
  8
0
  6
Continuous
 62
     7
370
    15
100
AcDbLine
 10
204.9618777959
 20
274.6407302595
 30
0.0
 11
204.9618777959
 21
274.1410347201
 31
0.0
  0
LINE
  5
47A
330
1F
100
AcDbEntity
  8
0
  6
Continuous
 62
     7
370
    15
100
AcDbLine
 10
196.9618781144
 20
274.4204016901
 30
0.0
 11
196.9618781144
 21
274.9200972296
 31
0.0
  0
LINE
  5
47B
330
1F
100
AcDbEntity
  8
0
  6
Continuous
 62
     7
370
    15
100
AcDbLine
 10
204.9618777959
 20
255.6991583235
 30
0.0
 11
204.9618777959
 21
255.1994627841
 31
0.0
  0
LINE
  5
47C
330
1F
100
AcDbEntity
  8
0
  6
Continuous
 62
     7
370
    15
100
AcDbLine
 10
204.9618777959
 20
255.1994627841
 30
0.0
 11
196.9618781144
 21
254.920095814
 31
0.0
  0
LINE
  5
47D
330
1F
100
AcDbEntity
  8
0
  6
Continuous
 62
     7
370
    15
100
AcDbLine
 10
196.9618781144
 20
254.920095814
 30
0.0
 11
196.9618781144
 21
255.4197913535
 31
0.0
  0
LINE
  5
47E
330
1F
100
AcDbEntity
  8
0
  6
Continuous
 62
     7
370
    15
100
AcDbLine
 10
205.7618778339
 20
271.1700970806
 30
0.0
 11
205.7618778339
 21
258.670095963
 31
0.0
  0
LINE
  5
47F
330
1F
100
AcDbEntity
  8
0
  6
Continuous
 62
     7
370
    15
100
AcDbLine
 10
206.361877746
 20
271.1596215643
 30
0.0
 11
206.361877746
 21
258.6805696167
 31
0.0
  0
ENDSEC
  0
SECTION
  2
OBJECTS
  0
DICTIONARY
  5
C
330
0
100
AcDbDictionary
281
     1
  3
ACAD_GROUP
350
D
  3
ACAD_LAYOUT
350
1A
  3
ACAD_MLINESTYLE
350
17
  3
ACAD_PLOTSETTINGS
350
19
  3
ACAD_PLOTSTYLENAME
350
E
  0
DICTIONARY
  5
D
102
{ACAD_REACTORS
330
C
102
}
330
C
100
AcDbDictionary
281
     1
  0
DICTIONARY
  5
1A
102
{ACAD_REACTORS
330
C
102
}
330
C
100
AcDbDictionary
281
     1
  3
Layout1
350
1E
  3
Layout2
350
26
  3
Model
350
22
  0
DICTIONARY
  5
17
102
{ACAD_REACTORS
330
C
102
}
330
C
100
AcDbDictionary
281
     1
  3
Standard
350
18
  0
DICTIONARY
  5
19
102
{ACAD_REACTORS
330
C
102
}
330
C
100
AcDbDictionary
281
     1
  0
ACDBDICTIONARYWDFLT
  5
E
102
{ACAD_REACTORS
330
C
102
}
330
C
100
AcDbDictionary
281
     1
  3
Normal
350
F
100
AcDbDictionaryWithDefault
340
F
  0
LAYOUT
  5
1E
102
{ACAD_REACTORS
330
1A
102
}
330
1A
100
AcDbPlotSettings
  1

  2
none_device
  4

  6

 40
0.0
 41
0.0
 42
0.0
 43
0.0
 44
0.0
 45
0.0
 46
0.0
 47
0.0
 48
0.0
 49
0.0
140
0.0
141
0.0
142
1.0
143
1.0
 70
   688
 72
     0
 73
     0
 74
     5
  7

 75
    16
147
1.0
148
0.0
149
0.0
100
AcDbLayout
  1
Layout1
 70
     1
 71
     1
 10
0.0
 20
0.0
 11
420.0
 21
297.0
 12
0.0
 22
0.0
 32
0.0
 14
1.0000000000E+20
 24
1.0000000000E+20
 34
1.0000000000E+20
 15
-1.0000000000E+20
 25
-1.0000000000E+20
 35
-1.0000000000E+20
146
0.0
 13
0.0
 23
0.0
 33
0.0
 16
1.0
 26
0.0
 36
0.0
 17
0.0
 27
1.0
 37
0.0
 76
     0
330
1B
  0
LAYOUT
  5
26
102
{ACAD_REACTORS
330
1A
102
}
330
1A
100
AcDbPlotSettings
  1

  2
none_device
  4

  6

 40
0.0
 41
0.0
 42
0.0
 43
0.0
 44
0.0
 45
0.0
 46
0.0
 47
0.0
 48
0.0
 49
0.0
140
0.0
141
0.0
142
1.0
143
1.0
 70
   688
 72
     0
 73
     0
 74
     5
  7

 75
    16
147
1.0
148
0.0
149
0.0
100
AcDbLayout
  1
Layout2
 70
     1
 71
     2
 10
0.0
 20
0.0
 11
0.0
 21
0.0
 12
0.0
 22
0.0
 32
0.0
 14
0.0
 24
0.0
 34
0.0
 15
0.0
 25
0.0
 35
0.0
146
0.0
 13
0.0
 23
0.0
 33
0.0
 16
1.0
 26
0.0
 36
0.0
 17
0.0
 27
1.0
 37
0.0
 76
     0
330
23
  0
LAYOUT
  5
22
102
{ACAD_REACTORS
330
1A
102
}
330
1A
100
AcDbPlotSettings
  1

  2
none_device
  4

  6

 40
0.0
 41
0.0
 42
0.0
 43
0.0
 44
0.0
 45
0.0
 46
0.0
 47
0.0
 48
0.0
 49
0.0
140
0.0
141
0.0
142
1.0
143
1.0
 70
  1712
 72
     0
 73
     0
 74
     0
  7

 75
     0
147
1.0
148
0.0
149
0.0
100
AcDbLayout
  1
Model
 70
     1
 71
     0
 10
0.0
 20
0.0
 11
420.0
 21
297.0
 12
0.0
 22
0.0
 32
0.0
 14
0.0
 24
0.0
 34
0.0
 15
420.0
 25
297.0
 35
0.0
146
0.0
 13
0.0
 23
0.0
 33
0.0
 16
1.0
 26
0.0
 36
0.0
 17
0.0
 27
1.0
 37
0.0
 76
     0
330
1F
331
29
  0
MLINESTYLE
  5
18
102
{ACAD_REACTORS
330
17
102
}
330
17
100
AcDbMlineStyle
  2
Standard
 70
     0
  3

 62
   256
 51
90.0
 52
90.0
 71
     2
 49
0.5
 62
   256
  6
BYLAYER
 49
-0.5
 62
   256
  6
BYLAYER
  0
ACDBPLACEHOLDER
  5
F
102
{ACAD_REACTORS
330
E
102
}
330
E
  0
ENDSEC
  0
EOF
