  0
SECTION
  2
HEADER
  9
$ACADVER
  1
AC1015
  9
$ACADMAINTVER
 70
     6
  9
$DWGCODEPAGE
  3
DOS932
  9
$INSBASE
 10
0.0
 20
0.0
 30
0.0
  9
$EXTMIN
 10
0.0
 20
0.0
 30
0.0
  9
$EXTMAX
 10
420.0
 20
297.0
 30
0.0
  9
$LIMMIN
 10
0.0
 20
0.0
  9
$LIMMAX
 10
420.0
 20
297.0
  9
$ORTHOMODE
 70
     0
  9
$REGENMODE
 70
     1
  9
$FILLMODE
 70
     1
  9
$QTEXTMODE
 70
     0
  9
$MIRRTEXT
 70
     1
  9
$LTSCALE
 40
1.0
  9
$ATTMODE
 70
     1
  9
$TEXTSIZE
 40
3.5
  9
$TRACEWID
 40
1.0
  9
$TEXTSTYLE
  7
Standard
  9
$CLAYER
  8
0
  9
$CELTYPE
  6
ByLayer
  9
$CECOLOR
 62
   256
  9
$CELTSCALE
 40
1.0
  9
$DISPSILH
 70
     0
  9
$DIMSCALE
 40
1.0
  9
$DIMASZ
 40
3.0
  9
$DIMEXO
 40
1.0
  9
$DIMDLI
 40
3.75
  9
$DIMRND
 40
0.0
  9
$DIMDLE
 40
0.0
  9
$DIMEXE
 40
1.0
  9
$DIMTP
 40
0.0
  9
$DIMTM
 40
0.0
  9
$DIMTXT
 40
3.5
  9
$DIMCEN
 40
2.5
  9
$DIMTSZ
 40
0.0
  9
$DIMTOL
 70
     0
  9
$DIMLIM
 70
     0
  9
$DIMTIH
 70
     1
  9
$DIMTOH
 70
     1
  9
$DIMSE1
 70
     0
  9
$DIMSE2
 70
     0
  9
$DIMTAD
 70
     1
  9
$DIMZIN
 70
     0
  9
$DIMBLK
  1

  9
$DIMASO
 70
     1
  9
$DIMSHO
 70
     1
  9
$DIMPOST
  1

  9
$DIMAPOST
  1

  9
$DIMALT
 70
     0
  9
$DIMALTD
 70
     3
  9
$DIMALTF
 40
0.0393700787
  9
$DIMLFAC
 40
2.0
  9
$DIMTOFL
 70
     1
  9
$DIMTVP
 40
0.0
  9
$DIMTIX
 70
     0
  9
$DIMSOXD
 70
     0
  9
$DIMSAH
 70
     0
  9
$DIMBLK1
  1

  9
$DIMBLK2
  1

  9
$DIMSTYLE
  2
ISO-25
  9
$DIMCLRD
 70
     0
  9
$DIMCLRE
 70
     0
  9
$DIMCLRT
 70
     0
  9
$DIMTFAC
 40
1.0
  9
$DIMGAP
 40
1.524
  9
$DIMJUST
 70
     0
  9
$DIMSD1
 70
     0
  9
$DIMSD2
 70
     0
  9
$DIMTOLJ
 70
     0
  9
$DIMTZIN
 70
     0
  9
$DIMALTZ
 70
     0
  9
$DIMALTTZ
 70
     0
  9
$DIMUPT
 70
     0
  9
$DIMDEC
 70
     1
  9
$DIMTDEC
 70
     1
  9
$DIMALTU
 70
     2
  9
$DIMALTTD
 70
     3
  9
$DIMTXSTY
  7
Standard
  9
$DIMAUNIT
 70
     0
  9
$DIMADEC
 70
     2
  9
$DIMALTRND
 40
0.0
  9
$DIMAZIN
 70
     0
  9
$DIMDSEP
 70
    44
  9
$DIMATFIT
 70
     3
  9
$DIMFRAC
 70
     0
  9
$DIMLDRBLK
  1

  9
$DIMLUNIT
 70
     2
  9
$DIMLWD
 70
    -2
  9
$DIMLWE
 70
    -2
  9
$DIMTMOVE
 70
     0
  9
$LUNITS
 70
     2
  9
$LUPREC
 70
     1
  9
$SKETCHINC
 40
1.0
  9
$FILLETRAD
 40
10.0
  9
$AUNITS
 70
     0
  9
$AUPREC
 70
     2
  9
$MENU
  1
.
  9
$ELEVATION
 40
0.0
  9
$PELEVATION
 40
0.0
  9
$THICKNESS
 40
0.0
  9
$LIMCHECK
 70
     0
  9
$CHAMFERA
 40
10.0
  9
$CHAMFERB
 40
10.0
  9
$CHAMFERC
 40
20.0
  9
$CHAMFERD
 40
0.0
  9
$SKPOLY
 70
     0
  9
$TDCREATE
 40
2456140.425168646
  9
$TDUCREATE
 40
2456140.050168646
  9
$TDUPDATE
 40
2456140.425168657
  9
$TDUUPDATE
 40
2456140.050168657
  9
$TDINDWG
 40
0.0000000116
  9
$TDUSRTIMER
 40
0.0000000116
  9
$USRTIMER
 70
     1
  9
$ANGBASE
 50
0.0
  9
$ANGDIR
 70
     0
  9
$PDMODE
 70
     0
  9
$PDSIZE
 40
-1.0
  9
$PLINEWID
 40
0.0
  9
$SPLFRAME
 70
     0
  9
$SPLINETYPE
 70
     6
  9
$SPLINESEGS
 70
     8
  9
$HANDSEED
  5
480
  9
$SURFTAB1
 70
     6
  9
$SURFTAB2
 70
     6
  9
$SURFTYPE
 70
     6
  9
$SURFU
 70
     6
  9
$SURFV
 70
     6
  9
$UCSBASE
  2

  9
$UCSNAME
  2

  9
$UCSORG
 10
0.0
 20
0.0
 30
0.0
  9
$UCSXDIR
 10
1.0
 20
0.0
 30
0.0
  9
$UCSYDIR
 10
0.0
 20
1.0
 30
0.0
  9
$UCSORTHOREF
  2

  9
$UCSORTHOVIEW
 70
     0
  9
$UCSORGTOP
 10
0.0
 20
0.0
 30
0.0
  9
$UCSORGBOTTOM
 10
0.0
 20
0.0
 30
0.0
  9
$UCSORGLEFT
 10
0.0
 20
0.0
 30
0.0
  9
$UCSORGRIGHT
 10
0.0
 20
0.0
 30
0.0
  9
$UCSORGFRONT
 10
0.0
 20
0.0
 30
0.0
  9
$UCSORGBACK
 10
0.0
 20
0.0
 30
0.0
  9
$PUCSBASE
  2

  9
$PUCSNAME
  2

  9
$PUCSORG
 10
0.0
 20
0.0
 30
0.0
  9
$PUCSXDIR
 10
1.0
 20
0.0
 30
0.0
  9
$PUCSYDIR
 10
0.0
 20
1.0
 30
0.0
  9
$PUCSORTHOREF
  2

  9
$PUCSORTHOVIEW
 70
     0
  9
$PUCSORGTOP
 10
0.0
 20
0.0
 30
0.0
  9
$PUCSORGBOTTOM
 10
0.0
 20
0.0
 30
0.0
  9
$PUCSORGLEFT
 10
0.0
 20
0.0
 30
0.0
  9
$PUCSORGRIGHT
 10
0.0
 20
0.0
 30
0.0
  9
$PUCSORGFRONT
 10
0.0
 20
0.0
 30
0.0
  9
$PUCSORGBACK
 10
0.0
 20
0.0
 30
0.0
  9
$USERI1
 70
     0
  9
$USERI2
 70
     0
  9
$USERI3
 70
     0
  9
$USERI4
 70
     0
  9
$USERI5
 70
     0
  9
$USERR1
 40
0.0
  9
$USERR2
 40
0.0
  9
$USERR3
 40
0.0
  9
$USERR4
 40
0.0
  9
$USERR5
 40
0.0
  9
$WORLDVIEW
 70
     1
  9
$SHADEDGE
 70
     3
  9
$SHADEDIF
 70
    70
  9
$TILEMODE
 70
     1
  9
$MAXACTVP
 70
    64
  9
$PINSBASE
 10
0.0
 20
0.0
 30
0.0
  9
$PLIMCHECK
 70
     0
  9
$PEXTMIN
 10
1.0000000000E+20
 20
1.0000000000E+20
 30
1.0000000000E+20
  9
$PEXTMAX
 10
-1.0000000000E+20
 20
-1.0000000000E+20
 30
-1.0000000000E+20
  9
$PLIMMIN
 10
0.0
 20
0.0
  9
$PLIMMAX
 10
420.0
 20
297.0
  9
$UNITMODE
 70
     0
  9
$VISRETAIN
 70
     1
  9
$PLINEGEN
 70
     0
  9
$PSLTSCALE
 70
     1
  9
$TREEDEPTH
 70
  3020
  9
$CMLSTYLE
  2
Standard
  9
$CMLJUST
 70
     0
  9
$CMLSCALE
 40
20.0
  9
$PROXYGRAPHICS
 70
     1
  9
$MEASUREMENT
 70
     1
  9
$CELWEIGHT
370
    -1
  9
$ENDCAPS
280
     0
  9
$JOINSTYLE
280
     0
  9
$LWDISPLAY
290
     1
  9
$INSUNITS
 70
     4
  9
$HYPERLINKBASE
  1

  9
$STYLESHEET
  1

  9
$XEDIT
290
     1
  9
$CEPSNTYPE
380
     0
  9
$PSTYLEMODE
290
     1
  9
$FINGERPRINTGUID
  2
{9C502E07-AF81-4B08-BBBD-DA7191DC8C49}
  9
$VERSIONGUID
  2
{FAEB1C32-E019-11D5-929B-00C0DF256EC4}
  9
$EXTNAMES
290
     1
  9
$PSVPSCALE
 40
0.0
  9
$OLESTARTUP
290
     0
  0
ENDSEC
  0
SECTION
  2
CLASSES
  0
CLASS
  1
ACDBDICTIONARYWDFLT
  2
AcDbDictionaryWithDefault
  3
ObjectDBX Classes
 90
        0
280
     0
281
     0
  0
CLASS
  1
VISUALSTYLE
  2
AcDbVisualStyle
  3
ObjectDBX Classes
 90
     4095
280
     0
281
     0
  0
CLASS
  1
MATERIAL
  2
AcDbMaterial
  3
ObjectDBX Classes
 90
     1153
280
     0
281
     0
  0
CLASS
  1
ACDBPLACEHOLDER
  2
AcDbPlaceHolder
  3
ObjectDBX Classes
 90
        0
280
     0
281
     0
  0
CLASS
  1
LAYOUT
  2
AcDbLayout
  3
ObjectDBX Classes
 90
        0
280
     0
281
     0
  0
ENDSEC
  0
SECTION
  2
TABLES
  0
TABLE
  2
VPORT
  5
8
330
0
100
AcDbSymbolTable
 70
     1
  0
VPORT
  5
29
330
8
100
AcDbSymbolTableRecord
100
AcDbViewportTableRecord
  2
*Active
 70
     0
 10
0.0
 20
0.0
 11
1.0
 21
1.0
 12
210.0
 22
148.5
 13
0.0
 23
0.0
 14
10.0
 24
10.0
 15
10.0
 25
10.0
 16
0.0
 26
0.0
 36
1.0
 17
0.0
 27
0.0
 37
0.0
 40
297.0
 41
1.4141414141
 42
50.0
 43
0.0
 44
0.0
 50
0.0
 51
0.0
 71
     0
 72
  2000
 73
     1
 74
     3
 75
     0
 76
     0
 77
     0
 78
     0
281
     0
 65
     1
110
0.0
120
0.0
130
0.0
111
1.0
121
0.0
131
0.0
112
0.0
122
1.0
132
0.0
 79
     0
146
0.0
  0
ENDTAB
  0
TABLE
  2
LTYPE
  5
5
330
0
100
AcDbSymbolTable
 70
     6
  0
LTYPE
  5
14
330
5
100
AcDbSymbolTableRecord
100
AcDbLinetypeTableRecord
  2
ByBlock
 70
     0
  3

 72
    65
 73
     0
 40
0.0
  0
LTYPE
  5
15
330
5
100
AcDbSymbolTableRecord
100
AcDbLinetypeTableRecord
  2
ByLayer
 70
     0
  3

 72
    65
 73
     0
 40
0.0
  0
LTYPE
  5
16
330
5
100
AcDbSymbolTableRecord
100
AcDbLinetypeTableRecord
  2
Continuous
 70
     0
  3
Solid line
 72
    65
 73
     0
 40
0.0
  0
LTYPE
  5
3F
330
5
100
AcDbSymbolTableRecord
100
AcDbLinetypeTableRecord
  2
HIDDEN
 70
     0
  3
Hidden __ __ __ __ __ __ __ __ __ __ __ __ __ __
 72
    65
 73
     2
 40
1.905
 49
1.27
 74
     0
 49
-0.635
 74
     0
  0
LTYPE
  5
40
330
5
100
AcDbSymbolTableRecord
100
AcDbLinetypeTableRecord
  2
PHANTOM
 70
     0
  3
Phantom ______  __  __  ______  __  __  ______
 72
    65
 73
     6
 40
12.7
 49
6.35
 74
     0
 49
-1.27
 74
     0
 49
1.27
 74
     0
 49
-1.27
 74
     0
 49
1.27
 74
     0
 49
-1.27
 74
     0
  0
LTYPE
  5
41
330
5
100
AcDbSymbolTableRecord
100
AcDbLinetypeTableRecord
  2
CENTER
 70
     0
  3
Center ____ _ ____ _ ____ _ ____ _ ____ _ ____
 72
    65
 73
     4
 40
10.16
 49
6.35
 74
     0
 49
-1.27
 74
     0
 49
1.27
 74
     0
 49
-1.27
 74
     0
  0
LTYPE
  5
42
330
5
100
AcDbSymbolTableRecord
100
AcDbLinetypeTableRecord
  2
CENTERX2
 70
     0
  3
Center (2x) ________  __  ________  __  _____
 72
    65
 73
     4
 40
20.32
 49
12.7
 74
     0
 49
-2.54
 74
     0
 49
2.54
 74
     0
 49
-2.54
 74
     0
  0
LTYPE
  5
43
330
5
100
AcDbSymbolTableRecord
100
AcDbLinetypeTableRecord
  2
DOT2
 70
     0
  3
Dot (.5x) ........................................
 72
    65
 73
     2
 40
0.635
 49
0.0
 74
     0
 49
-0.635
 74
     0
  0
ENDTAB
  0
TABLE
  2
LAYER
  5
2
330
0
100
AcDbSymbolTable
 70
     1
  0
LAYER
  5
10
330
2
100
AcDbSymbolTableRecord
100
AcDbLayerTableRecord
  2
0
 70
     0
 62
     7
  6
Continuous
370
    -3
390
F
  0
ENDTAB
  0
TABLE
  2
STYLE
  5
3
330
0
100
AcDbSymbolTable
 70
     3
  0
STYLE
  5
11
330
3
100
AcDbSymbolTableRecord
100
AcDbTextStyleTableRecord
  2
Standard
 70
     0
 40
0.0
 41
1.0
 50
0.0
 71
     0
 42
2.5
  3
txt
  4
bigfont
  0
STYLE
  5
44
330
3
100
AcDbSymbolTableRecord
100
AcDbTextStyleTableRecord
  2
SLDTEXTSTYLE0
 70
     0
 40
0.0
 41
0.605
 50
0.0
 71
     0
 42
0.2
  3
TXT
  4
bigfont
  0
STYLE
  5
7F
330
3
100
AcDbSymbolTableRecord
100
AcDbTextStyleTableRecord
  2
SLDTEXTSTYLE1
 70
     0
 40
0.0
 41
0.7
 50
0.0
 71
     0
 42
0.2
  3
TXT
  4
bigfont
  0
ENDTAB
  0
TABLE
  2
VIEW
  5
6
330
0
100
AcDbSymbolTable
 70
     0
  0
ENDTAB
  0
TABLE
  2
UCS
  5
7
330
0
100
AcDbSymbolTable
 70
     0
  0
ENDTAB
  0
TABLE
  2
APPID
  5
9
330
0
100
AcDbSymbolTable
 70
     1
  0
APPID
  5
12
330
9
100
AcDbSymbolTableRecord
100
AcDbRegAppTableRecord
  2
ACAD
 70
     0
  0
ENDTAB
  0
TABLE
  2
DIMSTYLE
  5
A
330
0
100
AcDbSymbolTable
 70
     3
100
AcDbDimStyleTable
  0
DIMSTYLE
105
27
330
A
100
AcDbSymbolTableRecord
100
AcDbDimStyleTableRecord
  2
ISO-25
 70
     0
 41
2.5
 42
0.625
 43
3.75
 44
1.25
 73
     0
 74
     0
 77
     1
 78
     8
140
2.5
141
2.5
143
0.0393700787
147
0.625
171
     3
172
     1
178
     0
271
     2
272
     2
274
     3
278
    44
283
     0
284
     8
340
11
  0
DIMSTYLE
105
80
102
{ACAD_REACTORS
330
7E
330
90
330
9A
330
305
330
30F
330
3F0
102
}
330
A
100
AcDbSymbolTableRecord
100
AcDbDimStyleTableRecord
  2
SLDDIMSTYLE0
 70
     0
 41
3.0
 44
0.0
 45
0.000000001
 73
     0
 74
     0
 77
     3
 78
    12
 79
     3
140
3.5
147
0.875
173
     1
178
     0
271
     1
272
     1
276
     2
284
    12
340
7F
341
81
343
81
344
81
  0
DIMSTYLE
105
A5
102
{ACAD_REACTORS
330
A4
330
B1
102
}
330
A
100
AcDbSymbolTableRecord
100
AcDbDimStyleTableRecord
  2
SLDDIMSTYLE1
 70
     0
 41
3.0
 44
0.0
 45
0.000000001
 73
     0
 74
     0
 77
     3
 78
    12
 79
     3
140
3.5
147
0.875
172
     1
173
     1
178
     0
271
     1
272
     1
276
     2
284
    12
289
     0
340
7F
341
81
343
81
344
81
  0
ENDTAB
  0
TABLE
  2
BLOCK_RECORD
  5
1
330
0
100
AcDbSymbolTable
 70
    12
  0
BLOCK_RECORD
  5
1F
330
1
100
AcDbSymbolTableRecord
100
AcDbBlockTableRecord
  2
*Model_Space
340
22
  0
BLOCK_RECORD
  5
1B
330
1
100
AcDbSymbolTableRecord
100
AcDbBlockTableRecord
  2
*Paper_Space
340
1E
  0
BLOCK_RECORD
  5
23
330
1
100
AcDbSymbolTableRecord
100
AcDbBlockTableRecord
  2
*Paper_Space0
340
26
  0
BLOCK_RECORD
  5
81
330
1
100
AcDbSymbolTableRecord
100
AcDbBlockTableRecord
  2
_OPEN30
340
0
102
{BLKREFS
331
8A
331
8B
331
94
331
95
331
9E
331
9F
331
A9
331
AA
331
B5
331
B6
331
309
331
30A
331
313
331
314
331
3F4
331
3F5
331
3FD
102
}
  0
BLOCK_RECORD
  5
87
330
1
100
AcDbSymbolTableRecord
100
AcDbBlockTableRecord
  2
*D2
340
0
  0
BLOCK_RECORD
  5
91
330
1
100
AcDbSymbolTableRecord
100
AcDbBlockTableRecord
  2
*D3
340
0
  0
BLOCK_RECORD
  5
9B
330
1
100
AcDbSymbolTableRecord
100
AcDbBlockTableRecord
  2
*D4
340
0
  0
BLOCK_RECORD
  5
A6
330
1
100
AcDbSymbolTableRecord
100
AcDbBlockTableRecord
  2
*D5
340
0
  0
BLOCK_RECORD
  5
B2
330
1
100
AcDbSymbolTableRecord
100
AcDbBlockTableRecord
  2
*D6
340
0
  0
BLOCK_RECORD
  5
306
330
1
100
AcDbSymbolTableRecord
100
AcDbBlockTableRecord
  2
*D7
340
0
  0
BLOCK_RECORD
  5
310
330
1
100
AcDbSymbolTableRecord
100
AcDbBlockTableRecord
  2
*D8
340
0
  0
BLOCK_RECORD
  5
3F1
330
1
100
AcDbSymbolTableRecord
100
AcDbBlockTableRecord
  2
*D9
340
0
  0
BLOCK_RECORD
  5
3FA
330
1
100
AcDbSymbolTableRecord
100
AcDbBlockTableRecord
  2
SW_RADIAL_DIMENSION_0
340
0
102
{BLKREFS
331
401
102
}
  0
BLOCK_RECORD
  5
402
330
1
100
AcDbSymbolTableRecord
100
AcDbBlockTableRecord
  2
SW_CENTERMARKSYMBOL_0
340
0
102
{BLKREFS
331
40D
102
}
  0
ENDTAB
  0
ENDSEC
  0
SECTION
  2
BLOCKS
  0
BLOCK
  5
20
330
1F
100
AcDbEntity
  8
0
100
AcDbBlockBegin
  2
*Model_Space
 70
     0
 10
0.0
 20
0.0
 30
0.0
  3
*Model_Space
  1

  0
ENDBLK
  5
21
330
1F
100
AcDbEntity
  8
0
100
AcDbBlockEnd
  0
BLOCK
  5
1C
330
1B
100
AcDbEntity
 67
     1
  8
0
100
AcDbBlockBegin
  2
*Paper_Space
 70
     0
 10
0.0
 20
0.0
 30
0.0
  3
*Paper_Space
  1

  0
ENDBLK
  5
1D
330
1B
100
AcDbEntity
 67
     1
  8
0
100
AcDbBlockEnd
  0
BLOCK
  5
24
330
23
100
AcDbEntity
  8
0
100
AcDbBlockBegin
  2
*Paper_Space0
 70
     0
 10
0.0
 20
0.0
 30
0.0
  3
*Paper_Space0
  1

  0
ENDBLK
  5
25
330
23
100
AcDbEntity
  8
0
100
AcDbBlockEnd
  0
BLOCK
  5
82
330
81
100
AcDbEntity
  8
0
100
AcDbBlockBegin
  2
_OPEN30
 70
     0
 10
0.0
 20
0.0
 30
0.0
  3
_OPEN30
  1

  0
LINE
  5
84
330
81
100
AcDbEntity
  8
0
  6
ByBlock
 62
     0
370
    -2
100
AcDbLine
 10
-1.0
 20
0.267949
 30
0.0
 11
0.0
 21
0.0
 31
0.0
  0
LINE
  5
85
330
81
100
AcDbEntity
  8
0
  6
ByBlock
 62
     0
370
    -2
100
AcDbLine
 10
0.0
 20
0.0
 30
0.0
 11
-1.0
 21
-0.267949
 31
0.0
  0
LINE
  5
86
330
81
100
AcDbEntity
  8
0
  6
ByBlock
 62
     0
370
    -2
100
AcDbLine
 10
0.0
 20
0.0
 30
0.0
 11
-1.0
 21
0.0
 31
0.0
  0
ENDBLK
  5
83
330
81
100
AcDbEntity
  8
0
100
AcDbBlockEnd
  0
BLOCK
  5
88
330
87
100
AcDbEntity
  8
0
100
AcDbBlockBegin
  2
*D2
 70
     1
 10
0.0
 20
0.0
 30
0.0
  3
*D2
  1

  0
INSERT
  5
8A
330
87
100
AcDbEntity
  8
0
  6
Continuous
 62
     7
370
     0
100
AcDbBlockReference
  2
_OPEN30
 10
208.7098433735
 20
237.5665439958
 30
27.9115354978
 41
3.0
 42
3.0
 50
0.0
  0
INSERT
  5
8B
330
87
100
AcDbEntity
  8
0
  6
Continuous
 62
     7
370
     0
100
AcDbBlockReference
  2
_OPEN30
 10
191.7098433735
 20
237.5665439958
 30
27.9115354978
 41
3.0
 42
3.0
 50
180.0
  0
LINE
  5
8C
330
87
100
AcDbEntity
  8
0
  6
Continuous
 62
     7
370
     0
100
AcDbLine
 10
208.7098433735
 20
220.1233046472
 30
0.0
 11
208.7098433735
 21
238.5665439958
 31
0.0
  0
LINE
  5
8D
330
87
100
AcDbEntity
  8
0
  6
Continuous
 62
     7
370
     0
100
AcDbLine
 10
191.7098433735
 20
171.8236092337
 30
0.0
 11
191.7098433735
 21
238.5665439958
 31
0.0
  0
LINE
  5
8E
330
87
100
AcDbEntity
  8
0
  6
Continuous
 62
     7
370
     0
100
AcDbLine
 10
208.7098433735
 20
237.5665439958
 30
0.0
 11
191.7098433735
 21
237.5665439958
 31
0.0
  0
MTEXT
  5
8F
330
87
100
AcDbEntity
  8
0
  6
Continuous
 62
     7
370
     0
100
AcDbMText
 10
194.5943377467
 20
242.0782808522
 30
27.9115354978
 40
3.5
 41
0.0
 71
     1
 72
     1
  1
17
  7
SLDTEXTSTYLE1
 73
     1
 44
1.0
  0
ENDBLK
  5
89
330
87
100
AcDbEntity
  8
0
100
AcDbBlockEnd
  0
BLOCK
  5
92
330
91
100
AcDbEntity
  8
0
100
AcDbBlockBegin
  2
*D3
 70
     1
 10
0.0
 20
0.0
 30
0.0
  3
*D3
  1

  0
INSERT
  5
94
330
91
100
AcDbEntity
  8
0
  6
Continuous
 62
     7
370
     0
100
AcDbBlockReference
  2
_OPEN30
 10
166.7189626569
 20
219.1233046472
 30
27.9115354978
 41
3.0
 42
3.0
 50
90.0
  0
INSERT
  5
95
330
91
100
AcDbEntity
  8
0
  6
Continuous
 62
     7
370
     0
100
AcDbBlockReference
  2
_OPEN30
 10
166.7189626569
 20
69.1233046472
 30
27.9115354978
 41
3.0
 42
3.0
 50
270.0
  0
LINE
  5
96
330
91
100
AcDbEntity
  8
0
  6
Continuous
 62
     7
370
     0
100
AcDbLine
 10
198.7098433735
 20
219.1233046472
 30
0.0
 11
165.7189626569
 21
219.1233046472
 31
0.0
  0
LINE
  5
97
330
91
100
AcDbEntity
  8
0
  6
Continuous
 62
     7
370
     0
100
AcDbLine
 10
202.7252589612
 20
69.1233046472
 30
0.0
 11
165.7189626569
 21
69.1233046472
 31
0.0
  0
LINE
  5
98
330
91
100
AcDbEntity
  8
0
  6
Continuous
 62
     7
370
     0
100
AcDbLine
 10
166.7189626569
 20
219.1233046472
 30
0.0
 11
166.7189626569
 21
69.1233046472
 31
0.0
  0
MTEXT
  5
99
330
91
100
AcDbEntity
  8
0
  6
Continuous
 62
     7
370
     0
100
AcDbMText
 10
162.2072258006
 20
143.0325096948
 30
27.9115354978
 40
3.5
 41
0.0
 71
     1
 72
     1
  1
150
  7
SLDTEXTSTYLE1
 11
-7.044195017643634E-15
 21
1.0
 31
0.0
 73
     1
 44
1.0
  0
ENDBLK
  5
93
330
91
100
AcDbEntity
  8
0
100
AcDbBlockEnd
  0
BLOCK
  5
9C
330
9B
100
AcDbEntity
  8
0
100
AcDbBlockBegin
  2
*D4
 70
     1
 10
0.0
 20
0.0
 30
0.0
  3
*D4
  1

  0
INSERT
  5
9E
330
9B
100
AcDbEntity
  8
0
  6
Continuous
 62
     7
370
     0
100
AcDbBlockReference
  2
_OPEN30
 10
175.7098433735
 20
171.3233046472
 30
27.9115354978
 41
3.0
 42
3.0
 50
90.0
  0
INSERT
  5
9F
330
9B
100
AcDbEntity
  8
0
  6
Continuous
 62
     7
370
     0
100
AcDbBlockReference
  2
_OPEN30
 10
175.7098433735
 20
101.3233046472
 30
27.9115354978
 41
3.0
 42
3.0
 50
270.0
  0
LINE
  5
A0
330
9B
100
AcDbEntity
  8
0
  6
Continuous
 62
     7
370
     0
100
AcDbLine
 10
190.7098433735
 20
171.3233046472
 30
0.0
 11
174.7098433735
 21
171.3233046472
 31
0.0
  0
LINE
  5
A1
330
9B
100
AcDbEntity
  8
0
  6
Continuous
 62
     7
370
     0
100
AcDbLine
 10
190.7098433735
 20
101.3233046472
 30
0.0
 11
174.7098433735
 21
101.3233046472
 31
0.0
  0
LINE
  5
A2
330
9B
100
AcDbEntity
  8
0
  6
Continuous
 62
     7
370
     0
100
AcDbLine
 10
175.7098433735
 20
171.3233046472
 30
0.0
 11
175.7098433735
 21
101.3233046472
 31
0.0
  0
MTEXT
  5
A3
330
9B
100
AcDbEntity
  8
0
  6
Continuous
 62
     7
370
     0
100
AcDbMText
 10
171.1981065171
 20
136.0190599909
 30
27.9115354978
 40
3.5
 41
0.0
 71
     1
 72
     1
  1
70
  7
SLDTEXTSTYLE1
 11
-7.044195017643634E-15
 21
1.0
 31
0.0
 73
     1
 44
1.0
  0
ENDBLK
  5
9D
330
9B
100
AcDbEntity
  8
0
100
AcDbBlockEnd
  0
BLOCK
  5
A7
330
A6
100
AcDbEntity
  8
0
100
AcDbBlockBegin
  2
*D5
 70
     1
 10
0.0
 20
0.0
 30
0.0
  3
*D5
  1

  0
INSERT
  5
A9
330
A6
100
AcDbEntity
  8
0
  6
Continuous
 62
     7
370
     0
100
AcDbBlockReference
  2
_OPEN30
 10
175.7098433735
 20
101.3233046472
 30
27.9115354978
 41
3.0
 42
3.0
 50
270.0
  0
INSERT
  5
AA
330
A6
100
AcDbEntity
  8
0
  6
Continuous
 62
     7
370
     0
100
AcDbBlockReference
  2
_OPEN30
 10
175.7098433735
 20
96.4149553727
 30
27.9115354978
 41
3.0
 42
3.0
 50
90.0
  0
LINE
  5
AB
330
A6
100
AcDbEntity
  8
0
  6
Continuous
 62
     7
370
     0
100
AcDbLine
 10
190.7098433735
 20
101.3233046472
 30
0.0
 11
174.7098433735
 21
101.3233046472
 31
0.0
  0
LINE
  5
AC
330
A6
100
AcDbEntity
  8
0
  6
Continuous
 62
     7
370
     0
100
AcDbLine
 10
191.2098433735
 20
96.4149553727
 30
0.0
 11
174.7098433735
 21
96.4149553727
 31
0.0
  0
LINE
  5
AD
330
A6
100
AcDbEntity
  8
0
  6
Continuous
 62
     7
370
     0
100
AcDbLine
 10
175.7098433735
 20
101.3233046472
 30
0.0
 11
175.7098433735
 21
106.3233046472
 31
0.0
  0
LINE
  5
AE
330
A6
100
AcDbEntity
  8
0
  6
Continuous
 62
     7
370
     0
100
AcDbLine
 10
175.7098433735
 20
101.3233046472
 30
0.0
 11
175.7098433735
 21
96.4149553727
 31
0.0
  0
LINE
  5
AF
330
A6
100
AcDbEntity
  8
0
  6
Continuous
 62
     7
370
     0
100
AcDbLine
 10
175.7098433735
 20
96.4149553727
 30
0.0
 11
175.7098433735
 21
91.4149553727
 31
0.0
  0
MTEXT
  5
B0
330
A6
100
AcDbEntity
  8
0
  6
Continuous
 62
     7
370
     0
100
AcDbMText
 10
171.1981065171
 20
95.3234344477
 30
27.9115354978
 40
3.5
 41
0.0
 71
     1
 72
     1
  1
4.9
  7
SLDTEXTSTYLE1
 11
-7.044195017643634E-15
 21
1.0
 31
0.0
 73
     1
 44
1.0
  0
ENDBLK
  5
A8
330
A6
100
AcDbEntity
  8
0
100
AcDbBlockEnd
  0
BLOCK
  5
B3
330
B2
100
AcDbEntity
  8
0
100
AcDbBlockBegin
  2
*D6
 70
     1
 10
0.0
 20
0.0
 30
0.0
  3
*D6
  1

  0
INSERT
  5
B5
330
B2
100
AcDbEntity
  8
0
  6
Continuous
 62
     7
370
     0
100
AcDbBlockReference
  2
_OPEN30
 10
208.7098433735
 20
229.1233046472
 30
27.9115354978
 41
3.0
 42
3.0
 50
180.0
  0
INSERT
  5
B6
330
B2
100
AcDbEntity
  8
0
  6
Continuous
 62
     7
370
     0
100
AcDbBlockReference
  2
_OPEN30
 10
199.7098433735
 20
229.1233046472
 30
27.9115354978
 41
3.0
 42
3.0
 50
0.0
  0
LINE
  5
B7
330
B2
100
AcDbEntity
  8
0
  6
Continuous
 62
     7
370
     0
100
AcDbLine
 10
208.7098433735
 20
220.1233046472
 30
0.0
 11
208.7098433735
 21
230.1233046472
 31
0.0
  0
LINE
  5
B8
330
B2
100
AcDbEntity
  8
0
  6
Continuous
 62
     7
370
     0
100
AcDbLine
 10
199.7098433735
 20
220.1233046472
 30
0.0
 11
199.7098433735
 21
230.1233046472
 31
0.0
  0
LINE
  5
B9
330
B2
100
AcDbEntity
  8
0
  6
Continuous
 62
     7
370
     0
100
AcDbLine
 10
208.7098433735
 20
229.1233046472
 30
0.0
 11
213.7098433735
 21
229.1233046472
 31
0.0
  0
LINE
  5
BA
330
B2
100
AcDbEntity
  8
0
  6
Continuous
 62
     7
370
     0
100
AcDbLine
 10
208.7098433735
 20
229.1233046472
 30
0.0
 11
199.7098433735
 21
229.1233046472
 31
0.0
  0
LINE
  5
BB
330
B2
100
AcDbEntity
  8
0
  6
Continuous
 62
     7
370
     0
100
AcDbLine
 10
199.7098433735
 20
229.1233046472
 30
0.0
 11
194.7098433735
 21
229.1233046472
 31
0.0
  0
MTEXT
  5
BC
330
B2
100
AcDbEntity
  8
0
  6
Continuous
 62
     7
370
     0
100
AcDbMText
 10
202.0527794724
 20
233.6350415035
 30
27.9115354978
 40
3.5
 41
0.0
 71
     1
 72
     1
  1
9
  7
SLDTEXTSTYLE1
 73
     1
 44
1.0
  0
ENDBLK
  5
B4
330
B2
100
AcDbEntity
  8
0
100
AcDbBlockEnd
  0
BLOCK
  5
307
330
306
100
AcDbEntity
  8
0
100
AcDbBlockBegin
  2
*D7
 70
     1
 10
0.0
 20
0.0
 30
0.0
  3
*D7
  1

  0
INSERT
  5
309
330
306
100
AcDbEntity
  8
0
  6
Continuous
 62
     7
370
     0
100
AcDbBlockReference
  2
_OPEN30
 10
109.4903012048
 20
229.1233046472
 30
-2.4836078794
 41
3.0
 42
3.0
 50
180.0
  0
INSERT
  5
30A
330
306
100
AcDbEntity
  8
0
  6
Continuous
 62
     7
370
     0
100
AcDbBlockReference
  2
_OPEN30
 10
125.4903012048
 20
229.1233046472
 30
-2.4836078794
 41
3.0
 42
3.0
 50
0.0
  0
LINE
  5
30B
330
306
100
AcDbEntity
  8
0
  6
Continuous
 62
     7
370
     0
100
AcDbLine
 10
109.4903012048
 20
220.1233046472
 30
0.0
 11
109.4903012048
 21
230.1233046472
 31
0.0
  0
LINE
  5
30C
330
306
100
AcDbEntity
  8
0
  6
Continuous
 62
     7
370
     0
100
AcDbLine
 10
125.4903012048
 20
220.1233046472
 30
0.0
 11
125.4903012048
 21
230.1233046472
 31
0.0
  0
LINE
  5
30D
330
306
100
AcDbEntity
  8
0
  6
Continuous
 62
     7
370
     0
100
AcDbLine
 10
109.4903012048
 20
229.1233046472
 30
0.0
 11
125.4903012048
 21
229.1233046472
 31
0.0
  0
MTEXT
  5
30E
330
306
100
AcDbEntity
  8
0
  6
Continuous
 62
     7
370
     0
100
AcDbMText
 10
113.8924317651
 20
233.6350415035
 30
-2.4836078794
 40
3.5
 41
0.0
 71
     1
 72
     1
  1
16
  7
SLDTEXTSTYLE1
 73
     1
 44
1.0
  0
ENDBLK
  5
308
330
306
100
AcDbEntity
  8
0
100
AcDbBlockEnd
  0
BLOCK
  5
311
330
310
100
AcDbEntity
  8
0
100
AcDbBlockBegin
  2
*D8
 70
     1
 10
0.0
 20
0.0
 30
0.0
  3
*D8
  1

  0
INSERT
  5
313
330
310
100
AcDbEntity
  8
0
  6
Continuous
 62
     7
370
     0
100
AcDbBlockReference
  2
_OPEN30
 10
107.4903012048
 20
236.0737156639
 30
-2.4836078794
 41
3.0
 42
3.0
 50
180.0
  0
INSERT
  5
314
330
310
100
AcDbEntity
  8
0
  6
Continuous
 62
     7
370
     0
100
AcDbBlockReference
  2
_OPEN30
 10
127.4903012048
 20
236.0737156639
 30
-2.4836078794
 41
3.0
 42
3.0
 50
0.0
  0
LINE
  5
315
330
310
100
AcDbEntity
  8
0
  6
Continuous
 62
     7
370
     0
100
AcDbLine
 10
107.4903012048
 20
171.8236092337
 30
0.0
 11
107.4903012048
 21
237.0737156639
 31
0.0
  0
LINE
  5
316
330
310
100
AcDbEntity
  8
0
  6
Continuous
 62
     7
370
     0
100
AcDbLine
 10
127.4903012048
 20
171.8236092337
 30
0.0
 11
127.4903012048
 21
237.0737156639
 31
0.0
  0
LINE
  5
317
330
310
100
AcDbEntity
  8
0
  6
Continuous
 62
     7
370
     0
100
AcDbLine
 10
107.4903012048
 20
236.0737156639
 30
0.0
 11
127.4903012048
 21
236.0737156639
 31
0.0
  0
MTEXT
  5
318
330
310
100
AcDbEntity
  8
0
  6
Continuous
 62
     7
370
     0
100
AcDbMText
 10
113.8924317651
 20
240.5854525202
 30
-2.4836078794
 40
3.5
 41
0.0
 71
     1
 72
     1
  1
20
  7
SLDTEXTSTYLE1
 73
     1
 44
1.0
  0
ENDBLK
  5
312
330
310
100
AcDbEntity
  8
0
100
AcDbBlockEnd
  0
BLOCK
  5
3F2
330
3F1
100
AcDbEntity
  8
0
100
AcDbBlockBegin
  2
*D9
 70
     1
 10
0.0
 20
0.0
 30
0.0
  3
*D9
  1

  0
INSERT
  5
3F4
330
3F1
100
AcDbEntity
  8
0
  6
Continuous
 62
     7
370
     0
100
AcDbBlockReference
  2
_OPEN30
 10
255.0039561339
 20
219.1233046472
 30
2.6836078794
 41
3.0
 42
3.0
 50
90.0
  0
INSERT
  5
3F5
330
3F1
100
AcDbEntity
  8
0
  6
Continuous
 62
     7
370
     0
100
AcDbBlockReference
  2
_OPEN30
 10
255.0039561339
 20
144.1233046472
 30
2.6836078794
 41
3.0
 42
3.0
 50
270.0
  0
LINE
  5
3F6
330
3F1
100
AcDbEntity
  8
0
  6
Continuous
 62
     7
370
     0
100
AcDbLine
 10
270.115020654
 20
219.1233046472
 30
0.0
 11
254.0039561339
 21
219.1233046472
 31
0.0
  0
LINE
  5
3F7
330
3F1
100
AcDbEntity
  8
0
  6
Continuous
 62
     7
370
     0
100
AcDbLine
 10
272.965020654
 20
144.1233046472
 30
0.0
 11
254.0039561339
 21
144.1233046472
 31
0.0
  0
LINE
  5
3F8
330
3F1
100
AcDbEntity
  8
0
  6
Continuous
 62
     7
370
     0
100
AcDbLine
 10
255.0039561339
 20
219.1233046472
 30
0.0
 11
255.0039561339
 21
144.1233046472
 31
0.0
  0
MTEXT
  5
3F9
330
3F1
100
AcDbEntity
  8
0
  6
Continuous
 62
     7
370
     0
100
AcDbMText
 10
250.4922192776
 20
179.0572178219
 30
2.6836078794
 40
3.5
 41
0.0
 71
     1
 72
     1
  1
75
  7
SLDTEXTSTYLE1
 11
-7.044195017643634E-15
 21
1.0
 31
0.0
 73
     1
 44
1.0
  0
ENDBLK
  5
3F3
330
3F1
100
AcDbEntity
  8
0
100
AcDbBlockEnd
  0
BLOCK
  5
3FB
330
3FA
100
AcDbEntity
  8
0
100
AcDbBlockBegin
  2
SW_RADIAL_DIMENSION_0
 70
     0
 10
0.0
 20
0.0
 30
0.0
  3
SW_RADIAL_DIMENSION_0
  1

  0
INSERT
  5
3FD
330
3FA
100
AcDbEntity
  8
0
  6
Continuous
 62
     0
370
     0
100
AcDbBlockReference
  2
_OPEN30
 10
-16.2218793466
 20
-28.6095263716
 30
2.6836078794
 41
3.0
 42
3.0
 50
242.9092932582
  0
LINE
  5
3FE
330
3FA
100
AcDbEntity
  8
0
  6
Continuous
 62
     0
370
     0
100
AcDbLine
 10
-16.2218793466
 20
-28.6095263716
 30
0.0
 11
-1.5875
 21
0.0000002328
 31
0.0
  0
LINE
  5
3FF
330
3FA
100
AcDbEntity
  8
0
  6
Continuous
 62
     0
370
     0
100
AcDbLine
 10
-1.5875
 20
0.0000002328
 30
0.0
 11
8.9736105874
 21
0.0000002328
 31
0.0
  0
MTEXT
  5
400
330
3FA
100
AcDbEntity
  8
0
  6
Continuous
 62
     0
370
     0
100
AcDbMText
 10
0.0
 20
4.5117370892
 30
2.6836078794
 40
3.5
 41
0.0
 71
     1
 72
     1
  1
2xM3
  7
SLDTEXTSTYLE1
 73
     1
 44
1.0
  0
ENDBLK
  5
3FC
330
3FA
100
AcDbEntity
  8
0
100
AcDbBlockEnd
  0
BLOCK
  5
403
330
402
100
AcDbEntity
  8
0
100
AcDbBlockBegin
  2
SW_CENTERMARKSYMBOL_0
 70
     0
 10
0.0
 20
0.0
 30
0.0
  3
SW_CENTERMARKSYMBOL_0
  1

  0
LINE
  5
405
330
402
100
AcDbEntity
  8
0
  6
Continuous
 62
     0
370
     0
100
AcDbLine
 10
0.0
 20
0.0
 30
0.0
 11
0.0
 21
2.5
 31
0.0
  0
LINE
  5
406
330
402
100
AcDbEntity
  8
0
  6
Continuous
 62
     0
370
     0
100
AcDbLine
 10
0.0
 20
0.0
 30
0.0
 11
-2.5
 21
0.0
 31
0.0
  0
LINE
  5
407
330
402
100
AcDbEntity
  8
0
  6
Continuous
 62
     0
370
     0
100
AcDbLine
 10
0.0
 20
0.0
 30
0.0
 11
0.0
 21
-2.5
 31
0.0
  0
LINE
  5
408
330
402
100
AcDbEntity
  8
0
  6
Continuous
 62
     0
370
     0
100
AcDbLine
 10
0.0
 20
0.0
 30
0.0
 11
2.5
 21
0.0
 31
0.0
  0
LINE
  5
409
330
402
100
AcDbEntity
  8
0
  6
Continuous
 62
     0
370
     0
100
AcDbLine
 10
0.0
 20
2.5
 30
0.0
 11
0.0
 21
4.15
 31
0.0
  0
LINE
  5
40A
330
402
100
AcDbEntity
  8
0
  6
Continuous
 62
     0
370
     0
100
AcDbLine
 10
-2.5
 20
0.0
 30
0.0
 11
-4.15
 21
0.0
 31
0.0
  0
LINE
  5
40B
330
402
100
AcDbEntity
  8
0
  6
Continuous
 62
     0
370
     0
100
AcDbLine
 10
0.0
 20
-2.5
 30
0.0
 11
0.0
 21
-4.15
 31
0.0
  0
LINE
  5
40C
330
402
100
AcDbEntity
  8
0
  6
Continuous
 62
     0
370
     0
100
AcDbLine
 10
2.5
 20
0.0
 30
0.0
 11
4.15
 21
0.0
 31
0.0
  0
ENDBLK
  5
404
330
402
100
AcDbEntity
  8
0
100
AcDbBlockEnd
  0
ENDSEC
  0
SECTION
  2
ENTITIES
  0
MTEXT
  5
45
330
1F
100
AcDbEntity
  8
0
  6
Continuous
 62
     7
370
     0
100
AcDbMText
 10
389.2874983837
 20
15.8507863314
 30
0.0
 40
9.2604166667
 41
0.0
 71
     3
 72
     1
  1
CY7-P173
  7
SLDTEXTSTYLE0
 73
     1
 44
1.0
  0
LINE
  5
46
330
1F
100
AcDbEntity
  8
0
  6
Continuous
 62
     7
370
    15
100
AcDbLine
 10
207.7098435196
 20
219.123302397
 30
0.0
 11
207.7098435196
 21
69.1233038871
 31
0.0
  0
LINE
  5
47
330
1F
100
AcDbEntity
  8
0
  6
Continuous
 62
     7
370
    15
100
AcDbLine
 10
207.7098435196
 20
219.123302397
 30
0.0
 11
208.7098432179
 21
219.123302397
 31
0.0
  0
LINE
  5
48
330
1F
100
AcDbEntity
  8
0
  6
Continuous
 62
     7
370
    15
100
AcDbLine
 10
208.7098432179
 20
219.123302397
 30
0.0
 11
208.7098432179
 21
69.1233038871
 31
0.0
  0
LINE
  5
49
330
1F
100
AcDbEntity
  8
0
  6
Continuous
 62
     7
370
    15
100
AcDbLine
 10
207.7098435196
 20
69.1233038871
 30
0.0
 11
208.7098432179
 21
69.1233038871
 31
0.0
  0
LINE
  5
4A
330
1F
100
AcDbEntity
  8
0
  6
Continuous
 62
     7
370
    15
100
AcDbLine
 10
200.0098433285
 20
219.123302397
 30
0.0
 11
207.7098435196
 21
219.123302397
 31
0.0
  0
LINE
  5
4B
330
1F
100
AcDbEntity
  8
0
  6
Continuous
 62
     7
370
    15
100
AcDbLine
 10
200.0098433285
 20
69.1233038871
 30
0.0
 11
207.7098435196
 21
69.1233038871
 31
0.0
  0
LINE
  5
4C
330
1F
100
AcDbEntity
  8
0
  6
Continuous
 62
     7
370
    15
100
AcDbLine
 10
199.7098433725
 20
219.123302397
 30
0.0
 11
199.7098433725
 21
171.0439383953
 31
0.0
  0
LINE
  5
4D
330
1F
100
AcDbEntity
  8
0
  6
Continuous
 62
     7
370
    15
100
AcDbLine
 10
199.7098433725
 20
101.6026701747
 30
0.0
 11
199.7098433725
 21
69.1233038871
 31
0.0
  0
LINE
  5
4E
330
1F
100
AcDbEntity
  8
0
  6
Continuous
 62
     7
370
    15
100
AcDbLine
 10
199.7098433725
 20
219.123302397
 30
0.0
 11
200.0098433285
 21
219.123302397
 31
0.0
  0
LINE
  5
4F
330
1F
100
AcDbEntity
  8
0
  6
Continuous
 62
     7
370
    15
100
AcDbLine
 10
199.7098433725
 20
69.1233038871
 30
0.0
 11
200.0098433285
 21
69.1233038871
 31
0.0
  0
LINE
  5
50
330
1F
100
AcDbEntity
  8
0
  6
Continuous
 62
     7
370
    15
100
AcDbLine
 10
192.5668988782
 20
101.3532340496
 30
0.0
 11
193.7098430875
 21
101.3233050673
 31
0.0
  0
LINE
  5
51
330
1F
100
AcDbEntity
  8
0
  6
Continuous
 62
     7
370
    15
100
AcDbLine
 10
195.7098434153
 20
98.3233045756
 30
0.0
 11
195.7098434153
 21
101.4629885524
 31
0.0
  0
LINE
  5
52
330
1F
100
AcDbEntity
  8
0
  6
Continuous
 62
     7
370
    15
100
AcDbLine
 10
193.7098430875
 20
98.3233045756
 30
0.0
 11
195.7098434153
 21
98.3233045756
 31
0.0
  0
LINE
  5
53
330
1F
100
AcDbEntity
  8
0
  6
Continuous
 62
     7
370
    15
100
AcDbLine
 10
193.7098430875
 20
98.3233045756
 30
0.0
 11
193.7098430875
 21
101.3233050673
 31
0.0
  0
LINE
  5
54
330
1F
100
AcDbEntity
  8
0
  6
Continuous
 62
     7
370
    15
100
AcDbLine
 10
195.7098434153
 20
96.3233042478
 30
0.0
 11
193.7098430875
 21
96.3756762414
 31
0.0
  0
LINE
  5
55
330
1F
100
AcDbEntity
  8
0
  6
Continuous
 62
     7
370
    15
100
AcDbLine
 10
193.7098430875
 20
96.3756762414
 30
0.0
 11
193.7098430875
 21
98.3233045756
 31
0.0
  0
LINE
  5
56
330
1F
100
AcDbEntity
  8
0
  6
Continuous
 62
     7
370
    15
100
AcDbLine
 10
195.7098434153
 20
98.3233045756
 30
0.0
 11
195.7098434153
 21
96.3233042478
 31
0.0
  0
LINE
  5
57
330
1F
100
AcDbEntity
  8
0
  6
Continuous
 62
     7
370
    15
100
AcDbLine
 10
194.4110311973
 20
126.3006337888
 30
0.0
 11
194.3050280619
 21
128.3233048364
 31
0.0
  0
ARC
  5
58
330
1F
100
AcDbEntity
  8
0
  6
Continuous
 62
     7
370
    15
100
AcDbCircle
 10
192.7098433735
 20
126.1656552527
 30
0.0
 40
0.5000000000000046
100
AcDbArc
 50
145.0
 51
180.0
  0
LINE
  5
59
330
1F
100
AcDbEntity
  8
0
  6
Continuous
 62
     7
370
    15
100
AcDbLine
 10
193.5206830907
 20
128.1953774362
 30
0.0
 11
192.3002677444
 21
126.4524435594
 31
0.0
  0
ARC
  5
5A
330
1F
100
AcDbEntity
  8
0
  6
Continuous
 62
     7
370
    15
100
AcDbCircle
 10
193.7664285651
 20
128.0233046472
 30
0.0
 40
0.3000000000000398
100
AcDbArc
 50
90.0
 51
145.0
  0
LINE
  5
5B
330
1F
100
AcDbEntity
  8
0
  6
Continuous
 62
     7
370
    15
100
AcDbLine
 10
194.3050280619
 20
128.3233048364
 30
0.0
 11
193.7664283845
 21
128.3233048364
 31
0.0
  0
LINE
  5
5C
330
1F
100
AcDbEntity
  8
0
  6
Continuous
 62
     7
370
    15
100
AcDbLine
 10
192.209843773
 20
125.7534843373
 30
0.0
 11
192.209843773
 21
126.1656553454
 31
0.0
  0
LINE
  5
5D
330
1F
100
AcDbEntity
  8
0
  6
Continuous
 62
     7
370
    15
100
AcDbLine
 10
193.7098430875
 20
96.3756762414
 30
0.0
 11
192.209843773
 21
96.4149557023
 31
0.0
  0
LINE
  5
5E
330
1F
100
AcDbEntity
  8
0
  6
Continuous
 62
     7
370
    15
100
AcDbLine
 10
192.209843773
 20
96.4149557023
 30
0.0
 11
192.209843773
 21
101.340765503
 31
0.0
  0
ARC
  5
5F
330
1F
100
AcDbEntity
  8
0
  6
Continuous
 62
     7
370
    15
100
AcDbCircle
 10
192.8540336595
 20
125.9734106048
 30
0.0
 40
0.3000000000000123
100
AcDbArc
 50
91.0
 51
135.0
  0
LINE
  5
60
330
1F
100
AcDbEntity
  8
0
  6
Continuous
 62
     7
370
    15
100
AcDbLine
 10
192.8487981144
 20
126.2733648966
 30
0.0
 11
195.7098434153
 21
126.3233047414
 31
0.0
  0
LINE
  5
61
330
1F
100
AcDbEntity
  8
0
  6
Continuous
 62
     7
370
    15
100
AcDbLine
 10
195.7098434153
 20
126.3233047414
 30
0.0
 11
195.7098434153
 21
161.6233050792
 31
0.0
  0
LINE
  5
62
330
1F
100
AcDbEntity
  8
0
  6
Continuous
 62
     7
370
    15
100
AcDbLine
 10
195.7098434153
 20
161.6233050792
 30
0.0
 11
191.709843691
 21
161.6233050792
 31
0.0
  0
LINE
  5
63
330
1F
100
AcDbEntity
  8
0
  6
Continuous
 62
     7
370
    15
100
AcDbLine
 10
191.709843691
 20
161.6233050792
 30
0.0
 11
191.709843691
 21
170.8236098259
 31
0.0
  0
LINE
  5
64
330
1F
100
AcDbEntity
  8
0
  6
Continuous
 62
     7
370
    15
100
AcDbLine
 10
199.7098433725
 20
170.5442428558
 30
0.0
 11
191.709843691
 21
170.8236098259
 31
0.0
  0
LINE
  5
65
330
1F
100
AcDbEntity
  8
0
  6
Continuous
 62
     7
370
    15
100
AcDbLine
 10
199.7098433725
 20
102.1023657142
 30
0.0
 11
199.7098433725
 21
170.5442428558
 31
0.0
  0
LINE
  5
66
330
1F
100
AcDbEntity
  8
0
  6
Continuous
 62
     7
370
    15
100
AcDbLine
 10
191.709843691
 20
101.8230006068
 30
0.0
 11
199.7098433725
 21
102.1023657142
 31
0.0
  0
LINE
  5
67
330
1F
100
AcDbEntity
  8
0
  6
Continuous
 62
     7
370
    15
100
AcDbLine
 10
191.709843691
 20
101.8230006068
 30
0.0
 11
191.709843691
 21
125.1292203289
 31
0.0
  0
ARC
  5
68
330
1F
100
AcDbEntity
  8
0
  6
Continuous
 62
     7
370
    15
100
AcDbCircle
 10
192.0098433735
 20
125.1292203187
 30
0.0
 40
0.2999999999999944
100
AcDbArc
 50
135.0
 51
180.0
  0
LINE
  5
69
330
1F
100
AcDbEntity
  8
0
  6
Continuous
 62
     7
370
    15
100
AcDbLine
 10
192.6419020105
 20
126.1855425748
 30
0.0
 11
191.797711182
 21
125.3413523284
 31
0.0
  0
LINE
  5
6A
330
1F
100
AcDbEntity
  8
0
  6
Continuous
 62
     7
370
    15
100
AcDbLine
 10
191.709843691
 20
171.3233053653
 30
0.0
 11
199.7098433725
 21
171.0439383953
 31
0.0
  0
LINE
  5
6B
330
1F
100
AcDbEntity
  8
0
  6
Continuous
 62
     7
370
    15
100
AcDbLine
 10
199.7098433725
 20
171.0439383953
 30
0.0
 11
199.7098433725
 21
170.5442428558
 31
0.0
  0
LINE
  5
6C
330
1F
100
AcDbEntity
  8
0
  6
Continuous
 62
     7
370
    15
100
AcDbLine
 10
191.709843691
 20
170.8236098259
 30
0.0
 11
191.709843691
 21
171.3233053653
 31
0.0
  0
LINE
  5
6D
330
1F
100
AcDbEntity
  8
0
  6
Continuous
 62
     7
370
    15
100
AcDbLine
 10
199.7098433725
 20
102.1023657142
 30
0.0
 11
199.7098433725
 21
101.6026701747
 31
0.0
  0
LINE
  5
6E
330
1F
100
AcDbEntity
  8
0
  6
Continuous
 62
     7
370
    15
100
AcDbLine
 10
199.7098433725
 20
101.6026701747
 30
0.0
 11
191.709843691
 21
101.3233050673
 31
0.0
  0
LINE
  5
6F
330
1F
100
AcDbEntity
  8
0
  6
Continuous
 62
     7
370
    15
100
AcDbLine
 10
191.709843691
 20
101.3233050673
 30
0.0
 11
191.709843691
 21
101.8230006068
 31
0.0
  0
LINE
  5
70
330
1F
100
AcDbEntity
  8
0
  6
Continuous
 62
     7
370
    15
100
AcDbLine
 10
195.5098432894
 20
129.4733047455
 30
0.0
 11
195.5098432894
 21
130.1733044877
 31
0.0
  0
ARC
  5
71
330
1F
100
AcDbEntity
  8
0
  6
Continuous
 62
     7
370
    15
100
AcDbCircle
 10
196.0098433735
 20
130.1733046472
 30
0.0
 40
0.5000000000000113
100
AcDbArc
 50
126.8698976458
 51
180.0
  0
ARC
  5
72
330
1F
100
AcDbEntity
  8
0
  6
Continuous
 62
     7
370
    15
100
AcDbCircle
 10
196.0098433735
 20
129.4733046472
 30
0.0
 40
0.5
100
AcDbArc
 50
180.0
 51
233.1301023542
  0
ARC
  5
73
330
1F
100
AcDbEntity
  8
0
  6
Continuous
 62
     7
370
    15
100
AcDbCircle
 10
195.7098433735
 20
157.8733046472
 30
0.0
 40
0.5
100
AcDbArc
 50
180.0
 51
270.0
  0
LINE
  5
74
330
1F
100
AcDbEntity
  8
0
  6
Continuous
 62
     7
370
    15
100
AcDbLine
 10
195.2098433334
 20
157.8733049302
 30
0.0
 11
195.2098433334
 21
158.3733059435
 31
0.0
  0
ARC
  5
75
330
1F
100
AcDbEntity
  8
0
  6
Continuous
 62
     7
370
    15
100
AcDbCircle
 10
195.7098433735
 20
158.3733046472
 30
0.0
 40
0.5000000000000284
100
AcDbArc
 50
90.0
 51
180.0
  0
LINE
  5
76
330
1F
100
AcDbEntity
  8
0
  6
Continuous
 62
     7
370
    15
100
AcDbLine
 10
200.4098433475
 20
116.9233046441
 30
0.0
 11
200.4098433475
 21
171.0194930403
 31
0.0
  0
LINE
  5
77
330
1F
100
AcDbEntity
  8
0
  6
Continuous
 62
     7
370
    15
100
AcDbLine
 10
199.7098433725
 20
116.9233046441
 30
0.0
 11
200.4098433475
 21
116.9233046441
 31
0.0
  0
LINE
  5
78
330
1F
100
AcDbEntity
  8
0
  6
Continuous
 62
     7
370
    15
100
AcDbLine
 10
199.7098433725
 20
171.0439383953
 30
0.0
 11
200.4098433475
 21
171.0194930403
 31
0.0
  0
LINE
  5
79
330
1F
100
AcDbEntity
  8
0
  6
Continuous
 62
     7
370
    15
100
AcDbLine
 10
194.3348657745
 20
159.6233047514
 30
0.0
 11
194.5098435912
 21
161.6233050792
 31
0.0
  0
LINE
  5
7A
330
1F
100
AcDbEntity
  8
0
  6
Continuous
 62
     7
370
    15
100
AcDbLine
 10
192.8645439851
 20
159.6233047514
 30
0.0
 11
194.3348657745
 21
159.6233047514
 31
0.0
  0
LINE
  5
7B
330
1F
100
AcDbEntity
  8
0
  6
Continuous
 62
     7
370
    15
100
AcDbLine
 10
191.709843691
 20
161.6233050792
 30
0.0
 11
192.8645439851
 21
159.6233047514
 31
0.0
  0
LINE
  5
7C
330
1F
100
AcDbEntity
  8
0
  6
Continuous
 62
     8
370
    15
100
AcDbLine
 10
200.0098433285
 20
219.123302397
 30
0.0
 11
200.0098433285
 21
171.033462879
 31
0.0
  0
LINE
  5
7D
330
1F
100
AcDbEntity
  8
0
  6
Continuous
 62
     8
370
    15
100
AcDbLine
 10
200.0098433285
 20
116.9233046441
 30
0.0
 11
200.0098433285
 21
69.1233038871
 31
0.0
  0
DIMENSION
  5
7E
330
1F
100
AcDbEntity
  8
0
  6
Continuous
 62
     7
370
     0
100
AcDbDimension
  2
*D2
 10
191.7098433735
 20
237.5665439958
 30
0.0
 11
197.8561432587
 21
237.5665439958
 31
0.0
 70
   160
 71
     2
 42
-1.0
  3
SLDDIMSTYLE0
100
AcDbAlignedDimension
 13
208.7098433735
 23
219.1233046472
 33
0.0
 14
191.7098433735
 24
170.8236092337
 34
0.0
100
AcDbRotatedDimension
  0
DIMENSION
  5
90
330
1F
100
AcDbEntity
  8
0
  6
Continuous
 62
     7
370
     0
100
AcDbDimension
  2
*D3
 10
166.7189626569
 20
69.1233046472
 30
0.0
 11
166.7189626569
 21
147.3127183048
 31
0.0
 70
   160
 71
     2
 42
-1.0
  3
SLDDIMSTYLE0
100
AcDbAlignedDimension
 13
199.7098433735
 23
219.1233046472
 33
0.0
 14
203.7252589612
 24
69.1233046472
 34
0.0
 50
90.0
100
AcDbRotatedDimension
  0
DIMENSION
  5
9A
330
1F
100
AcDbEntity
  8
0
  6
Continuous
 62
     7
370
     0
100
AcDbDimension
  2
*D4
 10
175.7098433735
 20
101.3233046472
 30
0.0
 11
175.7098433735
 21
139.280865503
 31
0.0
 70
   160
 71
     2
 42
-1.0
  3
SLDDIMSTYLE0
100
AcDbAlignedDimension
 13
191.7098433735
 23
171.3233046472
 33
0.0
 14
191.7098433735
 24
101.3233046472
 34
0.0
 50
90.0
100
AcDbRotatedDimension
  0
DIMENSION
  5
A4
330
1F
100
AcDbEntity
  8
0
  6
Continuous
 62
     7
370
     0
100
AcDbDimension
  2
*D5
 10
175.7098433735
 20
96.4149553727
 30
0.0
 11
175.7098433735
 21
98.9984344912
 31
0.0
 70
   160
 71
     2
 42
-1.0
  3
SLDDIMSTYLE1
100
AcDbAlignedDimension
 13
191.7098433735
 23
101.3233046472
 33
0.0
 14
192.2098433735
 24
96.4149553727
 34
0.0
 50
90.0
100
AcDbRotatedDimension
  0
DIMENSION
  5
B1
330
1F
100
AcDbEntity
  8
0
  6
Continuous
 62
     7
370
     0
100
AcDbDimension
  2
*D6
 10
199.7098433735
 20
229.1233046472
 30
0.0
 11
204.296182352
 21
229.1233046472
 31
0.0
 70
   160
 71
     2
 42
-1.0
  3
SLDDIMSTYLE1
100
AcDbAlignedDimension
 13
208.7098433735
 23
219.1233046472
 33
0.0
 14
199.7098433735
 24
219.1233046472
 34
0.0
100
AcDbRotatedDimension
  0
LINE
  5
BD
330
1F
100
AcDbEntity
  8
0
  6
CENTERX2
 62
     7
370
     0
100
AcDbLine
 10
187.0198008083
 20
144.1233046472
 30
0.0
 11
210.7098433735
 21
144.1233046472
 31
0.0
  0
CIRCLE
  5
BE
330
1F
100
AcDbEntity
  8
0
  6
Continuous
 62
     7
370
    15
100
AcDbCircle
 10
117.4903012048
 20
144.1233046472
 30
0.0
 40
4.700000000000005
  0
ARC
  5
BF
330
1F
100
AcDbEntity
  8
0
  6
Continuous
 62
     7
370
    15
100
AcDbCircle
 10
107.8991157694
 20
147.8486880274
 30
0.0
 40
12.95930802944092
100
AcDbArc
 50
336.5618043285
 51
340.9841100807
  0
LWPOLYLINE
  5
C0
330
1F
100
AcDbEntity
  8
0
  6
Continuous
 62
     7
370
    15
100
AcDbPolyline
 90
        9
 70
   128
 43
0.0
 10
120.1512116675
 20
143.6261519759
 10
119.9761248861
 20
143.6941590129
 10
119.7987619524
 20
143.7630508064
 10
119.6192960922
 20
143.8327584385
 10
119.437904257
 20
143.9032129913
 10
119.2547671233
 20
143.9743474095
 10
119.0700672303
 20
144.0460890501
 10
118.883983392
 20
144.1183671324
 10
118.6967018728
 20
144.1911090135
  0
SPLINE
  5
C1
330
1F
100
AcDbEntity
  8
0
  6
Continuous
 62
     7
370
    15
100
AcDbSpline
210
0.0
220
0.0
230
1.0
 70
     8
 71
     3
 72
    12
 73
     8
 74
     0
 42
0.00000001
 43
0.00000001
 40
0.0
 40
0.0
 40
0.0
 40
0.0
 40
0.2121487961365421
 40
0.4246590091338595
 40
0.6338964794116891
 40
0.8416659254175277
 40
1.0
 40
1.0
 40
1.0
 40
1.0
 10
118.6967018727872
 20
144.191109013459
 30
0.0
 10
118.6372659291021
 20
144.2210135543553
 30
0.0
 10
118.5182927866102
 20
144.280873581548
 30
0.0
 10
118.3883619353727
 20
144.4393591181795
 30
0.0
 10
118.3161601684897
 20
144.6263317296604
 30
0.0
 10
118.3065702626312
 20
144.8112437151278
 30
0.0
 10
118.3401337548665
 20
144.9204221949707
 30
0.0
 10
118.3546494428728
 20
144.9676401882379
 30
0.0
  0
LWPOLYLINE
  5
C2
330
1F
100
AcDbEntity
  8
0
  6
Continuous
 62
     7
370
    15
100
AcDbPolyline
 90
        9
 70
   128
 43
0.0
 10
118.3546494429
 20
144.9676401882
 10
118.4273931865
 20
145.1549217074
 10
118.4996712689
 20
145.3410055458
 10
118.5714110468
 20
145.5257054388
 10
118.6425454651
 20
145.7088425725
 10
118.7130000178
 20
145.8902344077
 10
118.7827095126
 20
146.0697002678
 10
118.8515994434
 20
146.2470632016
 10
118.9196064804
 20
146.422149983
  0
ARC
  5
C3
330
1F
100
AcDbEntity
  8
0
  6
Continuous
 62
     7
370
    15
100
AcDbCircle
 10
113.7649171145
 20
134.5321187743
 30
0.0
 40
12.95930802944094
100
AcDbArc
 50
66.5618043285
 51
70.9841100807
  0
LWPOLYLINE
  5
C4
330
1F
100
AcDbEntity
  8
0
  6
Continuous
 62
     7
370
    15
100
AcDbPolyline
 90
        9
 70
   128
 43
0.0
 10
117.9874531661
 20
146.7842146723
 10
117.9194479917
 20
146.6091297536
 10
117.8505561982
 20
146.4317649572
 10
117.7808485661
 20
146.2522990971
 10
117.7103921507
 20
146.0709072619
 10
117.6392595951
 20
145.8877719908
 10
117.5675179545
 20
145.7030702352
 10
117.4952398722
 20
145.5169863968
 10
117.4224961285
 20
145.3297048776
  0
SPLINE
  5
C5
330
1F
100
AcDbEntity
  8
0
  6
Continuous
 62
     7
370
    15
100
AcDbSpline
210
0.0
220
0.0
230
1.0
 70
     8
 71
     3
 72
    12
 73
     8
 74
     0
 42
0.00000001
 43
0.00000001
 40
0.0
 40
0.0
 40
0.0
 40
0.0
 40
0.2121477258432644
 40
0.4246565969450322
 40
0.6338947082339039
 40
0.841664084671148
 40
0.9999999999999999
 40
0.9999999999999999
 40
0.9999999999999999
 40
0.9999999999999999
 10
117.4224961285207
 20
145.3297048776357
 30
0.0
 10
117.392592440818
 20
145.2702686937595
 30
0.0
 10
117.3327341594932
 20
145.1512951460583
 30
0.0
 10
117.1742466909601
 20
145.0213675641847
 30
0.0
 10
116.9872758112735
 20
144.9491624417651
 30
0.0
 10
116.802362689225
 20
144.9395735796473
 30
0.0
 10
116.6931835518765
 20
144.9731367851809
 30
0.0
 10
116.6459649537418
 20
144.9876524477213
 30
0.0
  0
LWPOLYLINE
  5
C6
330
1F
100
AcDbEntity
  8
0
  6
Continuous
 62
     7
370
    15
100
AcDbPolyline
 90
        9
 70
   128
 43
0.0
 10
116.6459649537
 20
144.9876524477
 10
116.4586834346
 20
145.0603961914
 10
116.2726014589
 20
145.1326742738
 10
116.0878997032
 20
145.2044159143
 10
115.9047625695
 20
145.2755484699
 10
115.7233725969
 20
145.3460048853
 10
115.5439067368
 20
145.4157125174
 10
115.3665419404
 20
145.4846043109
 10
115.191455159
 20
145.5526094853
  0
ARC
  5
C7
330
1F
100
AcDbEntity
  8
0
  6
Continuous
 62
     7
370
    15
100
AcDbCircle
 10
127.0816664505
 20
140.3978417344
 30
0.0
 40
12.95950443193045
100
AcDbArc
 50
156.5618030562
 51
160.9840340726
  0
LWPOLYLINE
  5
C8
330
1F
100
AcDbEntity
  8
0
  6
Continuous
 62
     7
370
    15
100
AcDbPolyline
 90
        9
 70
   128
 43
0.0
 10
114.8293904696
 20
144.6204580336
 10
115.004477251
 20
144.5524509965
 10
115.1818401848
 20
144.483559203
 10
115.3613079075
 20
144.413851571
 10
115.5426978801
 20
144.3433951556
 10
115.7258350138
 20
144.2722626
 10
115.9105349068
 20
144.2005209594
 10
116.0966187452
 20
144.128242877
 10
116.2839002643
 20
144.0554991334
  0
SPLINE
  5
C9
330
1F
100
AcDbEntity
  8
0
  6
Continuous
 62
     7
370
    15
100
AcDbSpline
210
0.0
220
0.0
230
1.0
 70
     8
 71
     3
 72
    12
 73
     8
 74
     0
 42
0.00000001
 43
0.00000001
 40
0.0
 40
0.0
 40
0.0
 40
0.0
 40
0.2121480088686206
 40
0.4246584342188199
 40
0.6338961135792118
 40
0.8416657672006752
 40
1.0
 40
1.0
 40
1.0
 40
1.0
 10
116.283900264344
 20
144.0554991333692
 30
0.0
 10
116.3433362613531
 20
144.0255953105136
 30
0.0
 10
116.4623097910164
 20
143.9657365795325
 30
0.0
 10
116.5922401396125
 20
143.8072507854368
 30
0.0
 10
116.6644419851251
 20
143.6202783078902
 30
0.0
 10
116.6740318715101
 20
143.4353662892525
 30
0.0
 10
116.640468381362
 20
143.326187812965
 30
0.0
 10
116.6259526942585
 20
143.2789698212354
 30
0.0
  0
LWPOLYLINE
  5
CA
330
1F
100
AcDbEntity
  8
0
  6
Continuous
 62
     7
370
    15
100
AcDbPolyline
 90
        9
 70
   128
 43
0.0
 10
116.6259526943
 20
143.2789698212
 10
116.5532108132
 20
143.0916883021
 10
116.4809327309
 20
142.9056044637
 10
116.4091910903
 20
142.7209027081
 10
116.3380566721
 20
142.5377655744
 10
116.2676021193
 20
142.3563756018
 10
116.1978944872
 20
142.1769097417
 10
116.1290026937
 20
141.9995449453
 10
116.0609956567
 20
141.8244581639
  0
ARC
  5
CB
330
1F
100
AcDbEntity
  8
0
  6
Continuous
 62
     7
370
    15
100
AcDbCircle
 10
121.2163391199
 20
153.7161733781
 30
0.0
 40
12.96111326080006
100
AcDbArc
 50
246.5621124521
 51
250.9838019571
  0
LWPOLYLINE
  5
CC
330
1F
100
AcDbEntity
  8
0
  6
Continuous
 62
     7
370
    15
100
AcDbPolyline
 90
        9
 70
   128
 43
0.0
 10
116.993148971
 20
141.4623934745
 10
117.0611560081
 20
141.6374802559
 10
117.1300459389
 20
141.8148450523
 10
117.199753571
 20
141.9943109124
 10
117.2702099864
 20
142.175700885
 10
117.3413444047
 20
142.3588380187
 10
117.4130841826
 20
142.5435397743
 10
117.485362265
 20
142.72962175
 10
117.5581060086
 20
142.9169032692
  0
SPLINE
  5
CD
330
1F
100
AcDbEntity
  8
0
  6
Continuous
 62
     7
370
    15
100
AcDbSpline
210
0.0
220
0.0
230
1.0
 70
     8
 71
     3
 72
    12
 73
     8
 74
     0
 42
0.00000001
 43
0.00000001
 40
0.0
 40
0.0
 40
0.0
 40
0.0
 40
0.2121475905191467
 40
0.4246575968051978
 40
0.6338948635551978
 40
0.8416641856699589
 40
1.0
 40
1.0
 40
1.0
 40
1.0
 10
117.5581060086105
 20
142.9169032691925
 30
0.0
 10
117.5880098325643
 20
142.9763392517848
 30
0.0
 10
117.6478685657435
 20
143.0953127525899
 30
0.0
 10
117.8063543434166
 20
143.2252433167927
 30
0.0
 10
117.9933269055505
 20
143.2974443657169
 30
0.0
 10
118.1782393515776
 20
143.3070370186208
 30
0.0
 10
118.2874185632134
 20
143.2734733998929
 30
0.0
 10
118.3346371833894
 20
143.2589575617521
 30
0.0
  0
LWPOLYLINE
  5
CE
330
1F
100
AcDbEntity
  8
0
  6
Continuous
 62
     7
370
    15
100
AcDbPolyline
 90
        9
 70
   128
 43
0.0
 10
118.3346371834
 20
143.2589575618
 10
118.5219187026
 20
143.1862138181
 10
118.7080025409
 20
143.1139357357
 10
118.8927024339
 20
143.0421940952
 10
119.0758395676
 20
142.9710596769
 10
119.2572295402
 20
142.9006051241
 10
119.436697263
 20
142.8308974921
 10
119.6140601967
 20
142.7620056986
 10
119.7891469781
 20
142.6939986615
  0
LINE
  5
CF
330
1F
100
AcDbEntity
  8
0
  6
Continuous
 62
     7
370
    15
100
AcDbLine
 10
119.0293702964
 20
142.989110571
 30
0.0
 11
119.3914349858
 21
143.9212638854
 31
0.0
  0
LINE
  5
D0
330
1F
100
AcDbEntity
  8
0
  6
Continuous
 62
     7
370
    15
100
AcDbLine
 10
116.3561057036
 20
142.5842367082
 30
0.0
 11
117.2882590179
 21
142.2221701561
 31
0.0
  0
LINE
  5
D1
330
1F
100
AcDbEntity
  8
0
  6
Continuous
 62
     7
370
    15
100
AcDbLine
 10
118.6244964336
 20
145.6623733013
 30
0.0
 11
117.6923431192
 21
146.0244379907
 31
0.0
  0
LINE
  5
D2
330
1F
100
AcDbEntity
  8
0
  6
Continuous
 62
     7
370
    15
100
AcDbLine
 10
115.9512318407
 20
145.2574994384
 30
0.0
 11
115.5891671513
 21
144.3253461241
 31
0.0
  0
LINE
  5
D3
330
1F
100
AcDbEntity
  8
0
  6
Continuous
 62
     7
370
    15
100
AcDbLine
 10
109.7903020416
 20
219.123302397
 30
0.0
 11
109.9660388862
 21
219.123302397
 31
0.0
  0
LINE
  5
D4
330
1F
100
AcDbEntity
  8
0
  6
Continuous
 62
     7
370
    15
100
AcDbLine
 10
109.7903020416
 20
69.1233038871
 30
0.0
 11
109.9660388862
 21
69.1233038871
 31
0.0
  0
LINE
  5
D5
330
1F
100
AcDbEntity
  8
0
  6
Continuous
 62
     7
370
    15
100
AcDbLine
 10
109.9660388862
 20
219.123302397
 30
0.0
 11
110.1781680916
 21
219.123302397
 31
0.0
  0
LINE
  5
D6
330
1F
100
AcDbEntity
  8
0
  6
Continuous
 62
     7
370
    15
100
AcDbLine
 10
109.9660388862
 20
69.1233038871
 30
0.0
 11
110.1781680916
 21
69.1233038871
 31
0.0
  0
LINE
  5
D7
330
1F
100
AcDbEntity
  8
0
  6
Continuous
 62
     7
370
    15
100
AcDbLine
 10
109.4903006886
 20
219.123302397
 30
0.0
 11
109.4903006886
 21
171.3233053653
 31
0.0
  0
LINE
  5
D8
330
1F
100
AcDbEntity
  8
0
  6
Continuous
 62
     7
370
    15
100
AcDbLine
 10
109.4903006886
 20
101.3233050673
 30
0.0
 11
109.4903006886
 21
69.1233038871
 31
0.0
  0
LINE
  5
D9
330
1F
100
AcDbEntity
  8
0
  6
Continuous
 62
     7
370
    15
100
AcDbLine
 10
109.4903006886
 20
219.123302397
 30
0.0
 11
109.7903020416
 21
219.123302397
 31
0.0
  0
LINE
  5
DA
330
1F
100
AcDbEntity
  8
0
  6
Continuous
 62
     7
370
    15
100
AcDbLine
 10
109.4903006886
 20
69.1233038871
 30
0.0
 11
109.7903020416
 21
69.1233038871
 31
0.0
  0
LINE
  5
DB
330
1F
100
AcDbEntity
  8
0
  6
Continuous
 62
     7
370
    15
100
AcDbLine
 10
125.0145651136
 20
219.123302397
 30
0.0
 11
125.1903019582
 21
219.123302397
 31
0.0
  0
LINE
  5
DC
330
1F
100
AcDbEntity
  8
0
  6
Continuous
 62
     7
370
    15
100
AcDbLine
 10
125.0145651136
 20
69.1233038871
 30
0.0
 11
125.1903019582
 21
69.1233038871
 31
0.0
  0
LINE
  5
DD
330
1F
100
AcDbEntity
  8
0
  6
Continuous
 62
     7
370
    15
100
AcDbLine
 10
125.1903019582
 20
219.123302397
 30
0.0
 11
125.4903014485
 21
219.123302397
 31
0.0
  0
LINE
  5
DE
330
1F
100
AcDbEntity
  8
0
  6
Continuous
 62
     7
370
    15
100
AcDbLine
 10
125.4903014485
 20
219.123302397
 30
0.0
 11
125.4903014485
 21
171.3233053653
 31
0.0
  0
LINE
  5
DF
330
1F
100
AcDbEntity
  8
0
  6
Continuous
 62
     7
370
    15
100
AcDbLine
 10
125.4903014485
 20
101.3233050673
 30
0.0
 11
125.4903014485
 21
69.1233038871
 31
0.0
  0
LINE
  5
E0
330
1F
100
AcDbEntity
  8
0
  6
Continuous
 62
     7
370
    15
100
AcDbLine
 10
125.1903019582
 20
69.1233038871
 30
0.0
 11
125.4903014485
 21
69.1233038871
 31
0.0
  0
LINE
  5
E1
330
1F
100
AcDbEntity
  8
0
  6
Continuous
 62
     7
370
    15
100
AcDbLine
 10
124.8024340455
 20
219.123302397
 30
0.0
 11
125.0145651136
 21
219.123302397
 31
0.0
  0
LINE
  5
E2
330
1F
100
AcDbEntity
  8
0
  6
Continuous
 62
     7
370
    15
100
AcDbLine
 10
124.8024340455
 20
69.1233038871
 30
0.0
 11
125.0145651136
 21
69.1233038871
 31
0.0
  0
LINE
  5
E3
330
1F
100
AcDbEntity
  8
0
  6
Continuous
 62
     7
370
    15
100
AcDbLine
 10
110.1781680916
 20
219.123302397
 30
0.0
 11
110.9024315809
 21
219.123302397
 31
0.0
  0
LINE
  5
E4
330
1F
100
AcDbEntity
  8
0
  6
Continuous
 62
     7
370
    15
100
AcDbLine
 10
110.1781680916
 20
69.1233038871
 30
0.0
 11
110.9024315809
 21
69.1233038871
 31
0.0
  0
LINE
  5
E5
330
1F
100
AcDbEntity
  8
0
  6
Continuous
 62
     7
370
    15
100
AcDbLine
 10
124.0781686936
 20
219.123302397
 30
0.0
 11
124.8024340455
 21
219.123302397
 31
0.0
  0
LINE
  5
E6
330
1F
100
AcDbEntity
  8
0
  6
Continuous
 62
     7
370
    15
100
AcDbLine
 10
124.0781686936
 20
69.1233038871
 30
0.0
 11
124.8024340455
 21
69.1233038871
 31
0.0
  0
LINE
  5
E7
330
1F
100
AcDbEntity
  8
0
  6
Continuous
 62
     7
370
    15
100
AcDbLine
 10
110.9903000031
 20
219.123302397
 30
0.0
 11
110.9903000031
 21
171.3233053653
 31
0.0
  0
LINE
  5
E8
330
1F
100
AcDbEntity
  8
0
  6
Continuous
 62
     7
370
    15
100
AcDbLine
 10
110.9903000031
 20
159.6233047514
 30
0.0
 11
110.9903000031
 21
159.5604144006
 31
0.0
  0
LINE
  5
E9
330
1F
100
AcDbEntity
  8
0
  6
Continuous
 62
     7
370
    15
100
AcDbLine
 10
110.9903000031
 20
126.4425324245
 30
0.0
 11
110.9903000031
 21
126.3233047414
 31
0.0
  0
LINE
  5
EA
330
1F
100
AcDbEntity
  8
0
  6
Continuous
 62
     7
370
    15
100
AcDbLine
 10
110.9903000031
 20
96.4498057931
 30
0.0
 11
110.9903000031
 21
69.1233038871
 31
0.0
  0
LINE
  5
EB
330
1F
100
AcDbEntity
  8
0
  6
Continuous
 62
     7
370
    15
100
AcDbLine
 10
110.9024315809
 20
219.123302397
 30
0.0
 11
110.9903000031
 21
219.123302397
 31
0.0
  0
LINE
  5
EC
330
1F
100
AcDbEntity
  8
0
  6
Continuous
 62
     7
370
    15
100
AcDbLine
 10
110.9024315809
 20
69.1233038871
 30
0.0
 11
110.9903000031
 21
69.1233038871
 31
0.0
  0
LINE
  5
ED
330
1F
100
AcDbEntity
  8
0
  6
Continuous
 62
     7
370
    15
100
AcDbLine
 10
123.990302134
 20
219.123302397
 30
0.0
 11
123.990302134
 21
171.3233053653
 31
0.0
  0
LINE
  5
EE
330
1F
100
AcDbEntity
  8
0
  6
Continuous
 62
     7
370
    15
100
AcDbLine
 10
123.990302134
 20
159.6233047514
 30
0.0
 11
123.990302134
 21
159.5604144006
 31
0.0
  0
LINE
  5
EF
330
1F
100
AcDbEntity
  8
0
  6
Continuous
 62
     7
370
    15
100
AcDbLine
 10
123.990302134
 20
126.4425324245
 30
0.0
 11
123.990302134
 21
126.3233047414
 31
0.0
  0
LINE
  5
F0
330
1F
100
AcDbEntity
  8
0
  6
Continuous
 62
     7
370
    15
100
AcDbLine
 10
123.990302134
 20
96.4498057931
 30
0.0
 11
123.990302134
 21
69.1233038871
 31
0.0
  0
LINE
  5
F1
330
1F
100
AcDbEntity
  8
0
  6
Continuous
 62
     7
370
    15
100
AcDbLine
 10
123.990302134
 20
219.123302397
 30
0.0
 11
124.0781686936
 21
219.123302397
 31
0.0
  0
LINE
  5
F2
330
1F
100
AcDbEntity
  8
0
  6
Continuous
 62
     7
370
    15
100
AcDbLine
 10
123.990302134
 20
69.1233038871
 30
0.0
 11
124.0781686936
 21
69.1233038871
 31
0.0
  0
LINE
  5
F3
330
1F
100
AcDbEntity
  8
0
  6
Continuous
 62
     7
370
    15
100
AcDbLine
 10
114.1370881085
 20
219.123302397
 30
0.0
 11
120.8435140286
 21
219.123302397
 31
0.0
  0
LINE
  5
F4
330
1F
100
AcDbEntity
  8
0
  6
Continuous
 62
     7
370
    15
100
AcDbLine
 10
114.1370881085
 20
69.1233038871
 30
0.0
 11
120.8435140286
 21
69.1233038871
 31
0.0
  0
LINE
  5
F5
330
1F
100
AcDbEntity
  8
0
  6
Continuous
 62
     7
370
    15
100
AcDbLine
 10
113.7835338448
 20
219.123302397
 30
0.0
 11
114.1370881085
 21
219.123302397
 31
0.0
  0
LINE
  5
F6
330
1F
100
AcDbEntity
  8
0
  6
Continuous
 62
     7
370
    15
100
AcDbLine
 10
113.7835338448
 20
69.1233038871
 30
0.0
 11
114.1370881085
 21
69.1233038871
 31
0.0
  0
LINE
  5
F7
330
1F
100
AcDbEntity
  8
0
  6
Continuous
 62
     7
370
    15
100
AcDbLine
 10
120.8435140286
 20
219.123302397
 30
0.0
 11
121.1970682923
 21
219.123302397
 31
0.0
  0
LINE
  5
F8
330
1F
100
AcDbEntity
  8
0
  6
Continuous
 62
     7
370
    15
100
AcDbLine
 10
120.8435140286
 20
69.1233038871
 30
0.0
 11
121.1970682923
 21
69.1233038871
 31
0.0
  0
LINE
  5
F9
330
1F
100
AcDbEntity
  8
0
  6
Continuous
 62
     7
370
    15
100
AcDbLine
 10
111.5024342869
 20
219.123302397
 30
0.0
 11
113.7835338448
 21
219.123302397
 31
0.0
  0
LINE
  5
FA
330
1F
100
AcDbEntity
  8
0
  6
Continuous
 62
     7
370
    15
100
AcDbLine
 10
111.5024342869
 20
69.1233038871
 30
0.0
 11
113.7835338448
 21
69.1233038871
 31
0.0
  0
LINE
  5
FB
330
1F
100
AcDbEntity
  8
0
  6
Continuous
 62
     7
370
    15
100
AcDbLine
 10
121.1970682923
 20
219.123302397
 30
0.0
 11
123.4781697129
 21
219.123302397
 31
0.0
  0
LINE
  5
FC
330
1F
100
AcDbEntity
  8
0
  6
Continuous
 62
     7
370
    15
100
AcDbLine
 10
121.1970682923
 20
69.1233038871
 30
0.0
 11
123.4781697129
 21
69.1233038871
 31
0.0
  0
LINE
  5
FD
330
1F
100
AcDbEntity
  8
0
  6
Continuous
 62
     7
370
    15
100
AcDbLine
 10
110.9903000031
 20
219.123302397
 30
0.0
 11
111.5024342869
 21
219.123302397
 31
0.0
  0
LINE
  5
FE
330
1F
100
AcDbEntity
  8
0
  6
Continuous
 62
     7
370
    15
100
AcDbLine
 10
110.9903000031
 20
69.1233038871
 30
0.0
 11
111.5024342869
 21
69.1233038871
 31
0.0
  0
LINE
  5
FF
330
1F
100
AcDbEntity
  8
0
  6
Continuous
 62
     7
370
    15
100
AcDbLine
 10
123.4781697129
 20
219.123302397
 30
0.0
 11
123.990302134
 21
219.123302397
 31
0.0
  0
LINE
  5
100
330
1F
100
AcDbEntity
  8
0
  6
Continuous
 62
     7
370
    15
100
AcDbLine
 10
123.4781697129
 20
69.1233038871
 30
0.0
 11
123.990302134
 21
69.1233038871
 31
0.0
  0
LINE
  5
101
330
1F
100
AcDbEntity
  8
0
  6
Continuous
 62
     7
370
    15
100
AcDbLine
 10
113.1985477839
 20
100.9149555086
 30
0.0
 11
113.2901973759
 21
100.823304054
 31
0.0
  0
ELLIPSE
  5
102
330
1F
100
AcDbEntity
  8
0
  6
Continuous
 62
     7
370
    15
100
AcDbEllipse
 10
113.2904040426
 20
100.5232018094
 30
0.0
 11
-0.2122774439829982
 21
0.2122774439830123
 31
0.0
210
0.0
220
0.0
230
0.9999999999999998
 40
0.999315002
 41
5.49812976012036
 42
7.068240854238893
  0
LINE
  5
103
330
1F
100
AcDbEntity
  8
0
  6
Continuous
 62
     7
370
    15
100
AcDbLine
 10
112.990300331
 20
100.5234070091
 30
0.0
 11
112.898650739
 21
100.6150584637
 31
0.0
  0
ELLIPSE
  5
104
330
1F
100
AcDbEntity
  8
0
  6
Continuous
 62
     7
370
    15
100
AcDbEllipse
 10
113.1987533171
 20
100.6148525349
 30
0.0
 11
-0.2122774439830123
 21
0.2122774439829982
 31
0.0
210
0.0
220
0.0
230
0.9999999999999998
 40
0.999315002
 41
5.49812976012034
 42
7.068240854238827
  0
ARC
  5
105
330
1F
100
AcDbEntity
  8
0
  6
Continuous
 62
     7
370
    15
100
AcDbCircle
 10
77.8043171762
 20
118.5349977776
 30
0.0
 40
42.8744770081025
100
AcDbArc
 50
341.2538315025
 51
341.3843993773
  0
ARC
  5
106
330
1F
100
AcDbEntity
  8
0
  6
Continuous
 62
     7
370
    15
100
AcDbCircle
 10
113.9903012048
 20
99.3233046472
 30
0.0
 40
7.091650725492166
100
AcDbArc
 50
18.6785426725
 51
51.1822610317
  0
LWPOLYLINE
  5
107
330
1F
100
AcDbEntity
  8
0
  6
Continuous
 62
     7
370
    15
100
AcDbPolyline
 90
        3
 70
   128
 43
0.0
 10
120.6397928034
 20
101.5105977624
 10
120.679068539
 20
101.5584770559
 10
120.7084368651
 20
101.5944633602
  0
ARC
  5
108
330
1F
100
AcDbEntity
  8
0
  6
Continuous
 62
     7
370
    15
100
AcDbCircle
 10
113.9903012048
 20
99.3233046472
 30
0.0
 40
7.000000000000009
100
AcDbArc
 50
18.2081805567
 51
50.9069441399
  0
LINE
  5
109
330
1F
100
AcDbEntity
  8
0
  6
Continuous
 62
     7
370
    15
100
AcDbLine
 10
123.2510219996
 20
96.4149557023
 30
0.0
 11
111.7295801376
 21
96.4149557023
 31
0.0
  0
LINE
  5
10A
330
1F
100
AcDbEntity
  8
0
  6
Continuous
 62
     7
370
    15
100
AcDbLine
 10
123.2903014605
 20
96.3756762414
 30
0.0
 11
123.2510219996
 21
96.4149557023
 31
0.0
  0
LINE
  5
10B
330
1F
100
AcDbEntity
  8
0
  6
Continuous
 62
     7
370
    15
100
AcDbLine
 10
123.2903014605
 20
96.3233042478
 30
0.0
 11
123.2903014605
 21
96.3756762414
 31
0.0
  0
LINE
  5
10C
330
1F
100
AcDbEntity
  8
0
  6
Continuous
 62
     7
370
    15
100
AcDbLine
 10
111.6903006767
 20
96.3233042478
 30
0.0
 11
123.2903014605
 21
96.3233042478
 31
0.0
  0
LINE
  5
10D
330
1F
100
AcDbEntity
  8
0
  6
Continuous
 62
     7
370
    15
100
AcDbLine
 10
111.6903006767
 20
96.3756762414
 30
0.0
 11
111.6903006767
 21
96.3233042478
 31
0.0
  0
LINE
  5
10E
330
1F
100
AcDbEntity
  8
0
  6
Continuous
 62
     7
370
    15
100
AcDbLine
 10
111.7295801376
 20
96.4149557023
 30
0.0
 11
111.6903006767
 21
96.3756762414
 31
0.0
  0
LINE
  5
10F
330
1F
100
AcDbEntity
  8
0
  6
Continuous
 62
     7
370
    15
100
AcDbLine
 10
121.7820543532
 20
99.2316532849
 30
0.0
 11
121.6904047613
 21
99.3233047395
 31
0.0
  0
ELLIPSE
  5
110
330
1F
100
AcDbEntity
  8
0
  6
Continuous
 62
     7
370
    15
100
AcDbEllipse
 10
121.6901983671
 20
99.6234074849
 30
0.0
 11
0.2122774439829982
 21
-0.2122774439830123
 31
0.0
210
0.0
220
0.0
230
0.9999999999999998
 40
0.999315002
 41
5.498129760120343
 42
7.068240854238863
  0
LINE
  5
111
330
1F
100
AcDbEntity
  8
0
  6
Continuous
 62
     7
370
    15
100
AcDbLine
 10
121.9903018062
 20
99.6232017844
 30
0.0
 11
122.0819513981
 21
99.5315503298
 31
0.0
  0
ELLIPSE
  5
112
330
1F
100
AcDbEntity
  8
0
  6
Continuous
 62
     7
370
    15
100
AcDbEllipse
 10
121.7818490926
 20
99.5317567594
 30
0.0
 11
0.2122774439829982
 21
-0.2122774439829982
 31
0.0
210
0.0
220
0.0
230
0.9999999999999998
 40
0.999315002
 41
5.498129760120343
 42
7.068240854238844
  0
LINE
  5
113
330
1F
100
AcDbEntity
  8
0
  6
Continuous
 62
     7
370
    15
100
AcDbLine
 10
122.3903011267
 20
109.736046192
 30
0.0
 11
122.4295805876
 21
109.736046192
 31
0.0
  0
LINE
  5
114
330
1F
100
AcDbEntity
  8
0
  6
Continuous
 62
     7
370
    15
100
AcDbLine
 10
122.3903011267
 20
117.4855068295
 30
0.0
 11
122.3903011267
 21
109.736046192
 31
0.0
  0
LINE
  5
115
330
1F
100
AcDbEntity
  8
0
  6
Continuous
 62
     7
370
    15
100
AcDbLine
 10
122.4819525812
 20
117.4681348695
 30
0.0
 11
122.3903011267
 21
117.4855068295
 31
0.0
  0
LINE
  5
116
330
1F
100
AcDbEntity
  8
0
  6
Continuous
 62
     7
370
    15
100
AcDbLine
 10
122.4819525812
 20
109.323304516
 30
0.0
 11
122.4819525812
 21
117.4681348695
 31
0.0
  0
LINE
  5
117
330
1F
100
AcDbEntity
  8
0
  6
Continuous
 62
     7
370
    15
100
AcDbLine
 10
122.4295805876
 20
109.323304516
 30
0.0
 11
122.4819525812
 21
109.323304516
 31
0.0
  0
LINE
  5
118
330
1F
100
AcDbEntity
  8
0
  6
Continuous
 62
     7
370
    15
100
AcDbLine
 10
122.4295805876
 20
109.736046192
 30
0.0
 11
122.4295805876
 21
109.323304516
 31
0.0
  0
LINE
  5
119
330
1F
100
AcDbEntity
  8
0
  6
Continuous
 62
     7
370
    15
100
AcDbLine
 10
113.1985477839
 20
100.9149555086
 30
0.0
 11
113.3251592253
 21
100.9149555086
 31
0.0
  0
LWPOLYLINE
  5
11A
330
1F
100
AcDbEntity
  8
0
  6
Continuous
 62
     7
370
    15
100
AcDbPolyline
 90
        3
 70
   128
 43
0.0
 10
113.3912086223
 20
100.823304054
 10
113.3584111665
 20
100.8687172054
 10
113.3251592253
 20
100.9149555086
  0
LINE
  5
11B
330
1F
100
AcDbEntity
  8
0
  6
Continuous
 62
     7
370
    15
100
AcDbLine
 10
113.2901973759
 20
100.823304054
 30
0.0
 11
113.3912086223
 21
100.823304054
 31
0.0
  0
LINE
  5
11C
330
1F
100
AcDbEntity
  8
0
  6
Continuous
 62
     7
370
    15
100
AcDbLine
 10
109.7300119434
 20
126.2835943109
 30
0.0
 11
109.6903003488
 21
126.3233047414
 31
0.0
  0
LINE
  5
11D
330
1F
100
AcDbEntity
  8
0
  6
Continuous
 62
     7
370
    15
100
AcDbLine
 10
109.7426742051
 20
109.8233045979
 30
0.0
 11
109.7426742051
 21
117.3233044303
 31
0.0
  0
LINE
  5
11E
330
1F
100
AcDbEntity
  8
0
  6
Continuous
 62
     7
370
    15
100
AcDbLine
 10
109.7819536661
 20
103.2840259342
 30
0.0
 11
109.7426742051
 21
103.3233053951
 31
0.0
  0
LINE
  5
11F
330
1F
100
AcDbEntity
  8
0
  6
Continuous
 62
     7
370
    15
100
AcDbLine
 10
109.7819536661
 20
103.2840259342
 30
0.0
 11
109.7819536661
 21
101.3625826656
 31
0.0
  0
LINE
  5
120
330
1F
100
AcDbEntity
  8
0
  6
Continuous
 62
     7
370
    15
100
AcDbLine
 10
109.7819536661
 20
101.3625826656
 30
0.0
 11
109.7426742051
 21
101.3233050673
 31
0.0
  0
LINE
  5
121
330
1F
100
AcDbEntity
  8
0
  6
Continuous
 62
     7
370
    15
100
AcDbLine
 10
109.7426742051
 20
98.3233045756
 30
0.0
 11
109.7426742051
 21
101.3233050673
 31
0.0
  0
LINE
  5
122
330
1F
100
AcDbEntity
  8
0
  6
Continuous
 62
     7
370
    15
100
AcDbLine
 10
109.6903003488
 20
98.3233045756
 30
0.0
 11
109.7426742051
 21
98.3233045756
 31
0.0
  0
LINE
  5
123
330
1F
100
AcDbEntity
  8
0
  6
Continuous
 62
     7
370
    15
100
AcDbLine
 10
109.6903003488
 20
98.3233045756
 30
0.0
 11
109.6903003488
 21
103.3233053951
 31
0.0
  0
LINE
  5
124
330
1F
100
AcDbEntity
  8
0
  6
Continuous
 62
     7
370
    15
100
AcDbLine
 10
109.6903003488
 20
109.8233045979
 30
0.0
 11
109.6903003488
 21
117.3233044303
 31
0.0
  0
LINE
  5
125
330
1F
100
AcDbEntity
  8
0
  6
Continuous
 62
     7
370
    15
100
AcDbLine
 10
109.6903003488
 20
126.2835943109
 30
0.0
 11
109.6903003488
 21
126.3233047414
 31
0.0
  0
LWPOLYLINE
  5
126
330
1F
100
AcDbEntity
  8
0
  6
Continuous
 62
     7
370
    15
100
AcDbPolyline
 90
        3
 70
   128
 43
0.0
 10
116.7329244052
 20
104.9149561643
 10
116.7490921651
 20
104.8691555827
 10
116.7653381561
 20
104.8233047097
  0
SPLINE
  5
127
330
1F
100
AcDbEntity
  8
0
  6
Continuous
 62
     7
370
    15
100
AcDbSpline
210
0.0
220
0.0
230
1.0
 70
     8
 71
     3
 72
     9
 73
     5
 74
     0
 42
0.00000001
 43
0.00000001
 40
0.0
 40
0.0
 40
0.0
 40
0.0
 40
0.5000003637640724
 40
1.0
 40
1.0
 40
1.0
 40
1.0
 10
116.7653381560657
 20
104.8233047096937
 30
0.0
 10
116.7309287461847
 20
104.8202580511316
 30
0.0
 10
116.6621099764902
 20
104.8141647384404
 30
0.0
 10
116.6048562329453
 20
104.7754974385326
 30
0.0
 10
116.5762293819997
 20
104.7561638026445
 30
0.0
  0
ARC
  5
128
330
1F
100
AcDbEntity
  8
0
  6
Continuous
 62
     7
370
    15
100
AcDbCircle
 10
159.0692922404
 20
119.1750415542
 30
0.0
 40
44.87275818028909
100
AcDbArc
 50
198.6185078591
 51
198.7432612611
  0
SPLINE
  5
129
330
1F
100
AcDbEntity
  8
0
  6
Continuous
 62
     7
370
    15
100
AcDbSpline
210
0.0
220
0.0
230
1.0
 70
     8
 71
     3
 72
     9
 73
     5
 74
     0
 42
0.00000001
 43
0.00000001
 40
0.0
 40
0.0
 40
0.0
 40
0.0
 40
0.4999971858566786
 40
1.0
 40
1.0
 40
1.0
 40
1.0
 10
116.5449350808475
 20
104.8487205027549
 30
0.0
 10
116.5734345817505
 20
104.8677970944
 30
0.0
 10
116.6304339043651
 20
104.9059504924285
 30
0.0
 10
116.6987607767198
 20
104.9119542623869
 30
0.0
 10
116.7329244051788
 20
104.9149561642616
 30
0.0
  0
LINE
  5
12A
330
1F
100
AcDbEntity
  8
0
  6
Continuous
 62
     7
370
    15
100
AcDbLine
 10
125.1986503337
 20
101.3625826656
 30
0.0
 11
125.2379297946
 21
101.3233050673
 31
0.0
  0
LINE
  5
12B
330
1F
100
AcDbEntity
  8
0
  6
Continuous
 62
     7
370
    15
100
AcDbLine
 10
125.1986503337
 20
101.3625826656
 30
0.0
 11
125.1986503337
 21
103.2840259342
 31
0.0
  0
LINE
  5
12C
330
1F
100
AcDbEntity
  8
0
  6
Continuous
 62
     7
370
    15
100
AcDbLine
 10
125.1986503337
 20
103.2840259342
 30
0.0
 11
125.2379297946
 21
103.3233053951
 31
0.0
  0
LINE
  5
12D
330
1F
100
AcDbEntity
  8
0
  6
Continuous
 62
     7
370
    15
100
AcDbLine
 10
125.2379297946
 20
109.8233045979
 30
0.0
 11
125.2379297946
 21
117.3233044303
 31
0.0
  0
LINE
  5
12E
330
1F
100
AcDbEntity
  8
0
  6
Continuous
 62
     7
370
    15
100
AcDbLine
 10
125.2903017883
 20
126.3233047414
 30
0.0
 11
125.2505901937
 21
126.2835943109
 31
0.0
  0
LINE
  5
12F
330
1F
100
AcDbEntity
  8
0
  6
Continuous
 62
     7
370
    15
100
AcDbLine
 10
125.2903017883
 20
98.3233045756
 30
0.0
 11
125.2903017883
 21
103.3233053951
 31
0.0
  0
LINE
  5
130
330
1F
100
AcDbEntity
  8
0
  6
Continuous
 62
     7
370
    15
100
AcDbLine
 10
125.2903017883
 20
109.8233045979
 30
0.0
 11
125.2903017883
 21
117.3233044303
 31
0.0
  0
LINE
  5
131
330
1F
100
AcDbEntity
  8
0
  6
Continuous
 62
     7
370
    15
100
AcDbLine
 10
125.2903017883
 20
126.2835943109
 30
0.0
 11
125.2903017883
 21
126.3233047414
 31
0.0
  0
LINE
  5
132
330
1F
100
AcDbEntity
  8
0
  6
Continuous
 62
     7
370
    15
100
AcDbLine
 10
125.2379297946
 20
98.3233045756
 30
0.0
 11
125.2903017883
 21
98.3233045756
 31
0.0
  0
LINE
  5
133
330
1F
100
AcDbEntity
  8
0
  6
Continuous
 62
     7
370
    15
100
AcDbLine
 10
125.2379297946
 20
98.3233045756
 30
0.0
 11
125.2379297946
 21
101.3233050673
 31
0.0
  0
SPLINE
  5
134
330
1F
100
AcDbEntity
  8
0
  6
Continuous
 62
     7
370
    15
100
AcDbSpline
210
0.0
220
0.0
230
1.0
 70
     8
 71
     3
 72
     9
 73
     5
 74
     0
 42
0.00000001
 43
0.00000001
 40
0.0
 40
0.0
 40
0.0
 40
0.0
 40
0.5019403578796888
 40
1.0
 40
1.0
 40
1.0
 40
1.0
 10
119.0474789325807
 20
98.99383447756459
 30
0.0
 10
119.0345847444425
 20
99.0072187536855
 30
0.0
 10
119.0088960586537
 20
99.0338838263596
 30
0.0
 10
118.9824868693588
 20
99.06024662831177
 30
0.0
 10
118.9693335179899
 20
99.07337687601735
 30
0.0
  0
SPLINE
  5
135
330
1F
100
AcDbEntity
  8
0
  6
Continuous
 62
     7
370
    15
100
AcDbSpline
210
0.0
220
0.0
230
1.0
 70
     8
 71
     3
 72
    12
 73
     8
 74
     0
 42
0.00000001
 43
0.00000001
 40
0.0
 40
0.0
 40
0.0
 40
0.0
 40
0.2403706403983467
 40
0.4807457213678653
 40
0.7210562714422295
 40
0.9613558484573159
 40
1.0
 40
1.0
 40
1.0
 40
1.0
 10
118.9693335179899
 20
99.07337687601735
 30
0.0
 10
118.9782200622031
 20
99.10607661887852
 30
0.0
 10
118.9959933147982
 20
99.17147670869103
 30
0.0
 10
119.0619450267478
 20
99.25141303097132
 30
0.0
 10
119.1482952138442
 20
99.3058546283981
 30
0.0
 10
119.2206989752536
 20
99.3225417134173
 30
0.0
 10
119.2596425985702
 20
99.3232118943427
 30
0.0
 10
119.265037748656
 20
99.32330473949601
 30
0.0
  0
SPLINE
  5
136
330
1F
100
AcDbEntity
  8
0
  6
Continuous
 62
     7
370
    15
100
AcDbSpline
210
0.0
220
0.0
230
1.0
 70
     8
 71
     3
 72
     9
 73
     5
 74
     0
 42
0.00000001
 43
0.00000001
 40
0.0
 40
0.0
 40
0.0
 40
0.0
 40
0.4980607801571102
 40
1.0
 40
1.0
 40
1.0
 40
1.0
 10
119.265037748656
 20
99.32330473949601
 30
0.0
 10
119.2778270786734
 20
99.30808881612712
 30
0.0
 10
119.3035053302581
 20
99.27753848176015
 30
0.0
 10
119.3283902277896
 20
99.2469878468038
 30
0.0
 10
119.3408809338424
 20
99.2316532849281
 30
0.0
  0
SPLINE
  5
137
330
1F
100
AcDbEntity
  8
0
  6
Continuous
 62
     7
370
    15
100
AcDbSpline
210
0.0
220
0.0
230
1.0
 70
     8
 71
     3
 72
    11
 73
     7
 74
     0
 42
0.00000001
 43
0.00000001
 40
0.0
 40
0.0
 40
0.0
 40
0.0
 40
0.247689730019818
 40
0.4953799651818159
 40
0.7430113147044418
 40
0.9999999999999999
 40
0.9999999999999999
 40
0.9999999999999999
 40
0.9999999999999999
 10
119.3408809338424
 20
99.2316532849281
 30
0.0
 10
119.3071209544919
 20
99.22834567258494
 30
0.0
 10
119.2396009269401
 20
99.22173044115303
 30
0.0
 10
119.1503448390206
 20
99.16992759029304
 30
0.0
 10
119.0792960902027
 20
99.09325348729713
 30
0.0
 10
119.058214956593
 20
99.02738131064278
 30
0.0
 10
119.0474789325807
 20
98.99383447756459
 30
0.0
  0
SPLINE
  5
138
330
1F
100
AcDbEntity
  8
0
  6
Continuous
 62
     7
370
    15
100
AcDbSpline
210
0.0
220
0.0
230
1.0
 70
     8
 71
     3
 72
     9
 73
     5
 74
     0
 42
0.00000001
 43
0.00000001
 40
0.0
 40
0.0
 40
0.0
 40
0.0
 40
0.5019392198428897
 40
1.0
 40
1.0
 40
1.0
 40
1.0
 10
115.6397212032888
 20
99.2316532849281
 30
0.0
 10
115.6522119093416
 20
99.2469878468038
 30
0.0
 10
115.6770968068732
 20
99.27753848176015
 30
0.0
 10
115.7027750584579
 20
99.30808881612712
 30
0.0
 10
115.7155643884752
 20
99.32330473949601
 30
0.0
  0
SPLINE
  5
139
330
1F
100
AcDbEntity
  8
0
  6
Continuous
 62
     7
370
    15
100
AcDbSpline
210
0.0
220
0.0
230
1.0
 70
     8
 71
     3
 72
    12
 73
     8
 74
     0
 42
0.00000001
 43
0.00000001
 40
0.0
 40
0.0
 40
0.0
 40
0.0
 40
0.2403739492846417
 40
0.4807461610347945
 40
0.7210590724105145
 40
0.9613579659525763
 40
1.0
 40
1.0
 40
1.0
 40
1.0
 10
115.7155643884752
 20
99.32330473949601
 30
0.0
 10
115.7492882929573
 20
99.31999116098869
 30
0.0
 10
115.8167358581494
 20
99.31336402792617
 30
0.0
 10
115.9065434320344
 20
99.26165133026089
 30
0.0
 10
115.9746106133725
 20
99.18557922338296
 30
0.0
 10
116.0031307661138
 20
99.11696849984043
 30
0.0
 10
116.010278442615
 20
99.07868090430422
 30
0.0
 10
116.0112686191413
 20
99.07337687601735
 30
0.0
  0
SPLINE
  5
13A
330
1F
100
AcDbEntity
  8
0
  6
Continuous
 62
     7
370
    15
100
AcDbSpline
210
0.0
220
0.0
230
1.0
 70
     8
 71
     3
 72
     9
 73
     5
 74
     0
 42
0.00000001
 43
0.00000001
 40
0.0
 40
0.0
 40
0.0
 40
0.0
 40
0.4980596421203113
 40
1.0
 40
1.0
 40
1.0
 40
1.0
 10
116.0112686191413
 20
99.07337687601735
 30
0.0
 10
115.9981152677725
 20
99.06024662831176
 30
0.0
 10
115.9717060784776
 20
99.03388382635958
 30
0.0
 10
115.9460173926888
 20
99.00721875368549
 30
0.0
 10
115.9331232045505
 20
98.99383447756459
 30
0.0
  0
SPLINE
  5
13B
330
1F
100
AcDbEntity
  8
0
  6
Continuous
 62
     7
370
    15
100
AcDbSpline
210
0.0
220
0.0
230
1.0
 70
     8
 71
     3
 72
    11
 73
     7
 74
     0
 42
0.00000001
 43
0.00000001
 40
0.0
 40
0.0
 40
0.0
 40
0.0
 40
0.247688717722008
 40
0.4953809368566597
 40
0.743009999755363
 40
1.0
 40
1.0
 40
1.0
 40
1.0
 10
115.9331232045505
 20
98.99383447756459
 30
0.0
 10
115.9228992221565
 20
99.02617861137747
 30
0.0
 10
115.9024511128388
 20
99.09086733623099
 30
0.0
 10
115.8332930379505
 20
99.16746572210877
 30
0.0
 10
115.7435735065431
 20
99.22110596320059
 30
0.0
 10
115.6747641206091
 20
99.22809429864022
 30
0.0
 10
115.6397212032888
 20
99.2316532849281
 30
0.0
  0
LINE
  5
13C
330
1F
100
AcDbEntity
  8
0
  6
Continuous
 62
     7
370
    15
100
AcDbLine
 10
112.898650739
 20
99.5315503298
 30
0.0
 11
112.990300331
 21
99.6232017844
 31
0.0
  0
LINE
  5
13D
330
1F
100
AcDbEntity
  8
0
  6
Continuous
 62
     7
370
    15
100
AcDbLine
 10
112.898650739
 20
99.5315503298
 30
0.0
 11
112.898650739
 21
100.6150584637
 31
0.0
  0
LINE
  5
13E
330
1F
100
AcDbEntity
  8
0
  6
Continuous
 62
     7
370
    15
100
AcDbLine
 10
112.990300331
 20
99.6232017844
 30
0.0
 11
112.990300331
 21
100.5234070091
 31
0.0
  0
LINE
  5
13F
330
1F
100
AcDbEntity
  8
0
  6
Continuous
 62
     7
370
    15
100
AcDbLine
 10
113.2901973759
 20
99.3233047395
 30
0.0
 11
113.1985477839
 21
99.2316532849
 31
0.0
  0
LINE
  5
140
330
1F
100
AcDbEntity
  8
0
  6
Continuous
 62
     7
370
    15
100
AcDbLine
 10
115.7155643885
 20
99.3233047395
 30
0.0
 11
113.2901973759
 21
99.3233047395
 31
0.0
  0
LINE
  5
141
330
1F
100
AcDbEntity
  8
0
  6
Continuous
 62
     7
370
    15
100
AcDbLine
 10
115.6397212033
 20
99.2316532849
 30
0.0
 11
113.1985477839
 21
99.2316532849
 31
0.0
  0
LINE
  5
142
330
1F
100
AcDbEntity
  8
0
  6
Continuous
 62
     7
370
    15
100
AcDbLine
 10
116.7329244052
 20
104.9149561643
 30
0.0
 11
118.247677732
 21
104.9149561643
 31
0.0
  0
LWPOLYLINE
  5
143
330
1F
100
AcDbEntity
  8
0
  6
Continuous
 62
     7
370
    15
100
AcDbPolyline
 90
        3
 70
   128
 43
0.0
 10
118.2152639811
 20
104.8233047097
 10
118.2315099721
 20
104.8691555827
 10
118.247677732
 20
104.9149561643
  0
LINE
  5
144
330
1F
100
AcDbEntity
  8
0
  6
Continuous
 62
     7
370
    15
100
AcDbLine
 10
116.7653381561
 20
104.8233047097
 30
0.0
 11
118.2152639811
 21
104.8233047097
 31
0.0
  0
LINE
  5
145
330
1F
100
AcDbEntity
  8
0
  6
Continuous
 62
     7
370
    15
100
AcDbLine
 10
123.2510219996
 20
126.1656553454
 30
0.0
 11
111.7295801376
 21
126.1656553454
 31
0.0
  0
ELLIPSE
  5
146
330
1F
100
AcDbEntity
  8
0
  6
Continuous
 62
     7
370
    15
100
AcDbEllipse
 10
111.7164871264
 20
126.1656552527
 30
0.0
 11
0.0
 21
0.5
 31
0.0
210
0.0
220
0.0
230
1.0
 40
0.0261859216
 41
4.71238898038469
 42
5.323254218582514
  0
LINE
  5
147
330
1F
100
AcDbEntity
  8
0
  6
Continuous
 62
     7
370
    15
100
AcDbLine
 10
111.7272108529
 20
126.4524435594
 30
0.0
 11
123.2533894215
 21
126.4524435594
 31
0.0
  0
ELLIPSE
  5
148
330
1F
100
AcDbEntity
  8
0
  6
Continuous
 62
     7
370
    15
100
AcDbEllipse
 10
123.2641152833
 20
126.1656552527
 30
0.0
 11
0.0
 21
0.5
 31
0.0
210
0.0
220
0.0
230
1.0
 40
0.0261859216
 41
0.9599310885971399
 42
1.570796326794897
  0
SPLINE
  5
149
330
1F
100
AcDbEntity
  8
0
  6
Continuous
 62
     7
370
    15
100
AcDbSpline
210
0.0
220
0.0
230
1.0
 70
     8
 71
     3
 72
     9
 73
     5
 74
     0
 42
0.00000001
 43
0.00000001
 40
0.0
 40
0.0
 40
0.0
 40
0.0
 40
0.4999996362359276
 40
1.0
 40
1.0
 40
1.0
 40
1.0
 10
118.4043727551315
 20
104.7561638026445
 30
0.0
 10
118.3757459041859
 20
104.7754974385326
 30
0.0
 10
118.3184921606411
 20
104.8141647384405
 30
0.0
 10
118.2496733909466
 20
104.8202580511316
 30
0.0
 10
118.2152639810655
 20
104.8233047096937
 30
0.0
  0
SPLINE
  5
14A
330
1F
100
AcDbEntity
  8
0
  6
Continuous
 62
     7
370
    15
100
AcDbSpline
210
0.0
220
0.0
230
1.0
 70
     8
 71
     3
 72
     9
 73
     5
 74
     0
 42
0.00000001
 43
0.00000001
 40
0.0
 40
0.0
 40
0.0
 40
0.0
 40
0.5000028141433214
 40
1.0
 40
1.0
 40
1.0
 40
1.0
 10
118.2476777319524
 20
104.9149561642616
 30
0.0
 10
118.2818413604114
 20
104.9119542623869
 30
0.0
 10
118.3501682327662
 20
104.9059504924285
 30
0.0
 10
118.4071675553807
 20
104.8677970944
 30
0.0
 10
118.4356670562837
 20
104.8487205027549
 30
0.0
  0
LINE
  5
14B
330
1F
100
AcDbEntity
  8
0
  6
Continuous
 62
     7
370
    15
100
AcDbLine
 10
121.6904047613
 20
100.823304054
 30
0.0
 11
121.7820543532
 21
100.9149555086
 31
0.0
  0
LINE
  5
14C
330
1F
100
AcDbEntity
  8
0
  6
Continuous
 62
     7
370
    15
100
AcDbLine
 10
121.5893953775
 20
100.823304054
 30
0.0
 11
121.6904047613
 21
100.823304054
 31
0.0
  0
LWPOLYLINE
  5
14D
330
1F
100
AcDbEntity
  8
0
  6
Continuous
 62
     7
370
    15
100
AcDbPolyline
 90
        3
 70
   128
 43
0.0
 10
121.6554429118
 20
100.9149555086
 10
121.6221928333
 20
100.8687172054
 10
121.5893953775
 20
100.823304054
  0
LINE
  5
14E
330
1F
100
AcDbEntity
  8
0
  6
Continuous
 62
     7
370
    15
100
AcDbLine
 10
121.6554429118
 20
100.9149555086
 30
0.0
 11
121.7820543532
 21
100.9149555086
 31
0.0
  0
LWPOLYLINE
  5
14F
330
1F
100
AcDbEntity
  8
0
  6
Continuous
 62
     7
370
    15
100
AcDbPolyline
 90
        3
 70
   128
 43
0.0
 10
114.2721652721
 20
101.5944633602
 10
114.311303172
 20
101.5465412258
 10
114.3408093338
 20
101.5105977624
  0
SPLINE
  5
150
330
1F
100
AcDbEntity
  8
0
  6
Continuous
 62
     7
370
    15
100
AcDbSpline
210
0.0
220
0.0
230
1.0
 70
     8
 71
     3
 72
    11
 73
     7
 74
     0
 42
0.00000001
 43
0.00000001
 40
0.0
 40
0.0
 40
0.0
 40
0.0
 40
0.2691375339449394
 40
0.5382790382104133
 40
0.8073656699028602
 40
1.0
 40
1.0
 40
1.0
 40
1.0
 10
114.3408093337629
 20
101.510597762367
 30
0.0
 10
114.2951811947802
 20
101.4071696365505
 30
0.0
 10
114.203924243708
 20
101.2003118591443
 30
0.0
 10
113.9468156160252
 20
100.9713531907185
 30
0.0
 10
113.6640013983128
 20
100.8426547625397
 30
0.0
 10
113.4715155355522
 20
100.8290006699552
 30
0.0
 10
113.391208622298
 20
100.8233040540426
 30
0.0
  0
SPLINE
  5
151
330
1F
100
AcDbEntity
  8
0
  6
Continuous
 62
     7
370
    15
100
AcDbSpline
210
0.0
220
0.0
230
1.0
 70
     8
 71
     3
 72
    11
 73
     7
 74
     0
 42
0.00000001
 43
0.00000001
 40
0.0
 40
0.0
 40
0.0
 40
0.0
 40
0.2709084153113565
 40
0.5418173939525479
 40
0.8126744910308761
 40
0.9999999999999999
 40
0.9999999999999999
 40
0.9999999999999999
 40
0.9999999999999999
 10
113.3251592253063
 20
100.9149555086105
 30
0.0
 10
113.4376647667484
 20
100.9259799865799
 30
0.0
 10
113.662676083578
 20
100.9480289654432
 30
0.0
 10
113.9605348380047
 20
101.1207212503092
 30
0.0
 10
114.1691850217924
 20
101.3471237297125
 30
0.0
 10
114.2422805543655
 20
101.522685761923
 30
0.0
 10
114.2721652720783
 20
101.5944633602112
 30
0.0
  0
LINE
  5
152
330
1F
100
AcDbEntity
  8
0
  6
Continuous
 62
     7
370
    15
100
AcDbLine
 10
113.590303037
 20
108.3233043521
 30
0.0
 11
113.590303037
 21
108.2316547601
 31
0.0
  0
LINE
  5
153
330
1F
100
AcDbEntity
  8
0
  6
Continuous
 62
     7
370
    15
100
AcDbLine
 10
120.0331944708
 20
108.3233043521
 30
0.0
 11
113.590303037
 21
108.3233043521
 31
0.0
  0
LINE
  5
154
330
1F
100
AcDbEntity
  8
0
  6
Continuous
 62
     7
370
    15
100
AcDbLine
 10
120.0331944708
 20
108.2840248912
 30
0.0
 11
120.0331944708
 21
108.3233043521
 31
0.0
  0
LINE
  5
155
330
1F
100
AcDbEntity
  8
0
  6
Continuous
 62
     7
370
    15
100
AcDbLine
 10
120.0331944708
 20
108.2840248912
 30
0.0
 11
121.3903009628
 21
108.2840248912
 31
0.0
  0
LINE
  5
156
330
1F
100
AcDbEntity
  8
0
  6
Continuous
 62
     7
370
    15
100
AcDbLine
 10
121.3903009628
 20
108.2316547601
 30
0.0
 11
121.3903009628
 21
108.2840248912
 31
0.0
  0
LINE
  5
157
330
1F
100
AcDbEntity
  8
0
  6
Continuous
 62
     7
370
    15
100
AcDbLine
 10
113.590303037
 20
108.2316547601
 30
0.0
 11
121.3903009628
 21
108.2316547601
 31
0.0
  0
LINE
  5
158
330
1F
100
AcDbEntity
  8
0
  6
Continuous
 62
     7
370
    15
100
AcDbLine
 10
111.7295801376
 20
103.2840259342
 30
0.0
 11
111.6903006767
 21
103.3233053951
 31
0.0
  0
LINE
  5
159
330
1F
100
AcDbEntity
  8
0
  6
Continuous
 62
     7
370
    15
100
AcDbLine
 10
111.7295801376
 20
103.2840259342
 30
0.0
 11
109.7819536661
 21
103.2840259342
 31
0.0
  0
LINE
  5
15A
330
1F
100
AcDbEntity
  8
0
  6
Continuous
 62
     7
370
    15
100
AcDbLine
 10
111.6903006767
 20
103.3233053951
 30
0.0
 11
111.4903010164
 21
103.3233053951
 31
0.0
  0
LINE
  5
15B
330
1F
100
AcDbEntity
  8
0
  6
Continuous
 62
     7
370
    15
100
AcDbLine
 10
123.2903014605
 20
96.3756762414
 30
0.0
 11
123.2903014605
 21
101.3233050673
 31
0.0
  0
LINE
  5
15C
330
1F
100
AcDbEntity
  8
0
  6
Continuous
 62
     7
370
    15
100
AcDbLine
 10
123.2510219996
 20
96.4149557023
 30
0.0
 11
123.2510219996
 21
101.3625826656
 31
0.0
  0
LINE
  5
15D
330
1F
100
AcDbEntity
  8
0
  6
Continuous
 62
     7
370
    15
100
AcDbLine
 10
123.2510219996
 20
101.3625826656
 30
0.0
 11
123.2903014605
 21
101.3233050673
 31
0.0
  0
ELLIPSE
  5
15E
330
1F
100
AcDbEntity
  8
0
  6
Continuous
 62
     7
370
    15
100
AcDbEllipse
 10
113.2904040426
 20
99.6234074849
 30
0.0
 11
-0.2122774439829982
 21
-0.2122774439830123
 31
0.0
210
0.0
220
0.0
230
0.9999999999999998
 40
0.999315002
 41
5.498129760120324
 42
7.068240854238844
  0
ELLIPSE
  5
15F
330
1F
100
AcDbEntity
  8
0
  6
Continuous
 62
     7
370
    15
100
AcDbEllipse
 10
113.1987533171
 20
99.5317567594
 30
0.0
 11
-0.2122774439830123
 21
-0.2122774439829982
 31
0.0
210
0.0
220
0.0
230
0.9999999999999998
 40
0.999315002
 41
5.498129760120343
 42
7.068240854238863
  0
LINE
  5
160
330
1F
100
AcDbEntity
  8
0
  6
Continuous
 62
     7
370
    15
100
AcDbLine
 10
111.7295801376
 20
96.4149557023
 30
0.0
 11
111.7295801376
 21
101.3625826656
 31
0.0
  0
LINE
  5
161
330
1F
100
AcDbEntity
  8
0
  6
Continuous
 62
     7
370
    15
100
AcDbLine
 10
111.6903006767
 20
96.3756762414
 30
0.0
 11
111.6903006767
 21
101.3233050673
 31
0.0
  0
LINE
  5
162
330
1F
100
AcDbEntity
  8
0
  6
Continuous
 62
     7
370
    15
100
AcDbLine
 10
111.7295801376
 20
101.3625826656
 30
0.0
 11
111.6903006767
 21
101.3233050673
 31
0.0
  0
LINE
  5
163
330
1F
100
AcDbEntity
  8
0
  6
Continuous
 62
     7
370
    15
100
AcDbLine
 10
122.0819513981
 20
100.6150584637
 30
0.0
 11
121.9903018062
 21
100.5234070091
 31
0.0
  0
ELLIPSE
  5
164
330
1F
100
AcDbEntity
  8
0
  6
Continuous
 62
     7
370
    15
100
AcDbEllipse
 10
121.6901983671
 20
100.5232018094
 30
0.0
 11
0.2122774439829982
 21
0.2122774439830123
 31
0.0
210
0.0
220
0.0
230
0.9999999999999998
 40
0.999315002
 41
5.498129760120293
 42
7.068240854238827
  0
ELLIPSE
  5
165
330
1F
100
AcDbEntity
  8
0
  6
Continuous
 62
     7
370
    15
100
AcDbEllipse
 10
121.7818490926
 20
100.6148525349
 30
0.0
 11
0.2122774439829982
 21
0.2122774439829982
 31
0.0
210
0.0
220
0.0
230
0.9999999999999998
 40
0.999315002
 41
5.498129760120343
 42
7.068240854238844
  0
LINE
  5
166
330
1F
100
AcDbEntity
  8
0
  6
Continuous
 62
     7
370
    15
100
AcDbLine
 10
121.3903009628
 20
123.3233046571
 30
0.0
 11
121.3903009628
 21
123.4149553549
 31
0.0
  0
ARC
  5
167
330
1F
100
AcDbEntity
  8
0
  6
Continuous
 62
     7
370
    15
100
AcDbCircle
 10
121.3903012048
 20
122.3233046472
 30
0.0
 40
1.091650725492144
100
AcDbArc
 50
0.0
 51
90.0
  0
LINE
  5
168
330
1F
100
AcDbEntity
  8
0
  6
Continuous
 62
     7
370
    15
100
AcDbLine
 10
122.4819525812
 20
122.3233046678
 30
0.0
 11
122.3903011267
 21
122.3233046678
 31
0.0
  0
ARC
  5
169
330
1F
100
AcDbEntity
  8
0
  6
Continuous
 62
     7
370
    15
100
AcDbCircle
 10
121.3903012048
 20
122.3233046472
 30
0.0
 40
1.0
100
AcDbArc
 50
0.0
 51
90.0
  0
LINE
  5
16A
330
1F
100
AcDbEntity
  8
0
  6
Continuous
 62
     7
370
    15
100
AcDbLine
 10
122.0819513981
 20
100.6150584637
 30
0.0
 11
122.0819513981
 21
99.5315503298
 31
0.0
  0
LINE
  5
16B
330
1F
100
AcDbEntity
  8
0
  6
Continuous
 62
     7
370
    15
100
AcDbLine
 10
121.9903018062
 20
100.5234070091
 30
0.0
 11
121.9903018062
 21
99.6232017844
 31
0.0
  0
SPLINE
  5
16C
330
1F
100
AcDbEntity
  8
0
  6
Continuous
 62
     7
370
    15
100
AcDbSpline
210
0.0
220
0.0
230
1.0
 70
     8
 71
     3
 72
    11
 73
     7
 74
     0
 42
0.00000001
 43
0.00000001
 40
0.0
 40
0.0
 40
0.0
 40
0.0
 40
0.2691386145689975
 40
0.5382788443612575
 40
0.8073652323432103
 40
1.0
 40
1.0
 40
1.0
 40
1.0
 10
121.5893953774784
 20
100.8233040540426
 30
0.0
 10
121.4768881232348
 20
100.8343292920649
 30
0.0
 10
121.2518729395405
 20
100.856379834277
 30
0.0
 10
120.9540400227161
 20
101.0290721278068
 30
0.0
 10
120.7434153013227
 20
101.2575108017504
 30
0.0
 10
120.670298060686
 20
101.4360919068843
 30
0.0
 10
120.6397928033683
 20
101.510597762367
 30
0.0
  0
SPLINE
  5
16D
330
1F
100
AcDbEntity
  8
0
  6
Continuous
 62
     7
370
    15
100
AcDbSpline
210
0.0
220
0.0
230
1.0
 70
     8
 71
     3
 72
    11
 73
     7
 74
     0
 42
0.00000001
 43
0.00000001
 40
0.0
 40
0.0
 40
0.0
 40
0.0
 40
0.2709073822165568
 40
0.541816659734323
 40
0.8126729577540487
 40
1.0
 40
1.0
 40
1.0
 40
1.0
 10
120.7084368650529
 20
101.5944633602112
 30
0.0
 10
120.7549119993359
 20
101.4914149156645
 30
0.0
 10
120.8478625930476
 20
101.2853173056316
 30
0.0
 10
121.1068496040202
 20
101.058453110366
 30
0.0
 10
121.388149208264
 20
100.9332975873433
 30
0.0
 10
121.5778743083515
 20
100.9202783778481
 30
0.0
 10
121.6554429118249
 20
100.9149555086105
 30
0.0
  0
ARC
  5
16E
330
1F
100
AcDbEntity
  8
0
  6
Continuous
 62
     7
370
    15
100
AcDbCircle
 10
117.7403012048
 20
119.3233046472
 30
0.0
 40
5.00000000000001
100
AcDbArc
 50
338.4348149848
 51
21.5651850152
  0
LINE
  5
16F
330
1F
100
AcDbEntity
  8
0
  6
Continuous
 62
     7
370
    15
100
AcDbLine
 10
122.3903011267
 20
121.1611022211
 30
0.0
 11
122.4819525812
 21
121.1784746467
 31
0.0
  0
ARC
  5
170
330
1F
100
AcDbEntity
  8
0
  6
Continuous
 62
     7
370
    15
100
AcDbCircle
 10
117.7403012048
 20
119.3233046472
 30
0.0
 40
5.091650725492157
100
AcDbArc
 50
338.6320876898
 51
21.3679123102
  0
LINE
  5
171
330
1F
100
AcDbEntity
  8
0
  6
Continuous
 62
     7
370
    15
100
AcDbLine
 10
119.5243421678
 20
123.3233046571
 30
0.0
 11
121.3903009628
 21
123.3233046571
 31
0.0
  0
LINE
  5
172
330
1F
100
AcDbEntity
  8
0
  6
Continuous
 62
     7
370
    15
100
AcDbLine
 10
119.4903004651
 20
123.3573463598
 30
0.0
 11
119.5243421678
 21
123.3233046571
 31
0.0
  0
LINE
  5
173
330
1F
100
AcDbEntity
  8
0
  6
Continuous
 62
     7
370
    15
100
AcDbLine
 10
115.4903016721
 20
123.3573463598
 30
0.0
 11
119.4903004651
 21
123.3573463598
 31
0.0
  0
LINE
  5
174
330
1F
100
AcDbEntity
  8
0
  6
Continuous
 62
     7
370
    15
100
AcDbLine
 10
115.4562599693
 20
123.3233046571
 30
0.0
 11
115.4903016721
 21
123.3573463598
 31
0.0
  0
LINE
  5
175
330
1F
100
AcDbEntity
  8
0
  6
Continuous
 62
     7
370
    15
100
AcDbLine
 10
114.9474076663
 20
123.3233046571
 30
0.0
 11
115.4562599693
 21
123.3233046571
 31
0.0
  0
LINE
  5
176
330
1F
100
AcDbEntity
  8
0
  6
Continuous
 62
     7
370
    15
100
AcDbLine
 10
114.9474076663
 20
123.3625835359
 30
0.0
 11
114.9474076663
 21
123.3233046571
 31
0.0
  0
LINE
  5
177
330
1F
100
AcDbEntity
  8
0
  6
Continuous
 62
     7
370
    15
100
AcDbLine
 10
114.9474076663
 20
123.3625835359
 30
0.0
 11
113.590303037
 21
123.3625835359
 31
0.0
  0
LINE
  5
178
330
1F
100
AcDbEntity
  8
0
  6
Continuous
 62
     7
370
    15
100
AcDbLine
 10
113.590303037
 20
123.4149553549
 30
0.0
 11
113.590303037
 21
123.3625835359
 31
0.0
  0
LINE
  5
179
330
1F
100
AcDbEntity
  8
0
  6
Continuous
 62
     7
370
    15
100
AcDbLine
 10
121.3903009628
 20
123.4149553549
 30
0.0
 11
113.590303037
 21
123.4149553549
 31
0.0
  0
ARC
  5
17A
330
1F
100
AcDbEntity
  8
0
  6
Continuous
 62
     7
370
    15
100
AcDbCircle
 10
120.9903012048
 20
99.3233046472
 30
0.0
 40
7.0
100
AcDbArc
 50
129.0930558601
 51
161.7918194433
  0
ARC
  5
17B
330
1F
100
AcDbEntity
  8
0
  6
Continuous
 62
     7
370
    15
100
AcDbCircle
 10
120.9903012048
 20
99.3233046472
 30
0.0
 40
7.091650725492153
100
AcDbArc
 50
128.8177389683
 51
161.3214573275
  0
LINE
  5
17C
330
1F
100
AcDbEntity
  8
0
  6
Continuous
 62
     7
370
    15
100
AcDbLine
 10
112.5903010105
 20
110.4855066135
 30
0.0
 11
112.4986514185
 21
110.4681346535
 31
0.0
  0
LINE
  5
17D
330
1F
100
AcDbEntity
  8
0
  6
Continuous
 62
     7
370
    15
100
AcDbLine
 10
112.5903010105
 20
109.323304516
 30
0.0
 11
112.5903010105
 21
110.4855066135
 31
0.0
  0
LINE
  5
17E
330
1F
100
AcDbEntity
  8
0
  6
Continuous
 62
     7
370
    15
100
AcDbLine
 10
112.4986514185
 20
109.323304516
 30
0.0
 11
112.5903010105
 21
109.323304516
 31
0.0
  0
LINE
  5
17F
330
1F
100
AcDbEntity
  8
0
  6
Continuous
 62
     7
370
    15
100
AcDbLine
 10
112.4986514185
 20
110.4681346535
 30
0.0
 11
112.4986514185
 21
109.323304516
 31
0.0
  0
LINE
  5
180
330
1F
100
AcDbEntity
  8
0
  6
Continuous
 62
     7
370
    15
100
AcDbLine
 10
125.1986503337
 20
103.2840259342
 30
0.0
 11
123.2510219996
 21
103.2840259342
 31
0.0
  0
LINE
  5
181
330
1F
100
AcDbEntity
  8
0
  6
Continuous
 62
     7
370
    15
100
AcDbLine
 10
123.2510219996
 20
101.3625826656
 30
0.0
 11
125.1986503337
 21
101.3625826656
 31
0.0
  0
LINE
  5
182
330
1F
100
AcDbEntity
  8
0
  6
Continuous
 62
     7
370
    15
100
AcDbLine
 10
109.7819536661
 20
101.3625826656
 30
0.0
 11
111.7295801376
 21
101.3625826656
 31
0.0
  0
LINE
  5
183
330
1F
100
AcDbEntity
  8
0
  6
Continuous
 62
     7
370
    15
100
AcDbLine
 10
111.7295801376
 20
103.2840259342
 30
0.0
 11
111.7295801376
 21
126.1656553454
 31
0.0
  0
LINE
  5
184
330
1F
100
AcDbEntity
  8
0
  6
Continuous
 62
     7
370
    15
100
AcDbLine
 10
123.2510219996
 20
103.2840259342
 30
0.0
 11
123.2510219996
 21
126.1656553454
 31
0.0
  0
ARC
  5
185
330
1F
100
AcDbEntity
  8
0
  6
Continuous
 62
     7
370
    15
100
AcDbCircle
 10
113.5903012048
 20
109.3233046472
 30
0.0
 40
1.091650725492158
100
AcDbArc
 50
180.0
 51
270.0
  0
ARC
  5
186
330
1F
100
AcDbEntity
  8
0
  6
Continuous
 62
     7
370
    15
100
AcDbCircle
 10
121.3903012048
 20
109.3233046472
 30
0.0
 40
1.091650725492144
100
AcDbArc
 50
270.0
 51
0.0
  0
LINE
  5
187
330
1F
100
AcDbEntity
  8
0
  6
Continuous
 62
     7
370
    15
100
AcDbLine
 10
122.4819525812
 20
121.1784746467
 30
0.0
 11
122.4819525812
 21
122.3233046678
 31
0.0
  0
ARC
  5
188
330
1F
100
AcDbEntity
  8
0
  6
Continuous
 62
     7
370
    15
100
AcDbCircle
 10
113.5903012048
 20
122.3233046472
 30
0.0
 40
1.091650725492144
100
AcDbArc
 50
90.0
 51
180.0
  0
LINE
  5
189
330
1F
100
AcDbEntity
  8
0
  6
Continuous
 62
     7
370
    15
100
AcDbLine
 10
112.4986514185
 20
122.3233046678
 30
0.0
 11
112.4986514185
 21
114.1784744306
 31
0.0
  0
ARC
  5
18A
330
1F
100
AcDbEntity
  8
0
  6
Continuous
 62
     7
370
    15
100
AcDbCircle
 10
117.2403012048
 20
112.3233046472
 30
0.0
 40
5.091650725492141
100
AcDbArc
 50
158.6320876898
 51
201.3679123102
  0
ARC
  5
18B
330
1F
100
AcDbEntity
  8
0
  6
Continuous
 62
     7
370
    15
100
AcDbCircle
 10
117.4903012048
 20
99.3233046472
 30
0.0
 40
1.591650725492158
100
AcDbArc
 50
191.9465249491
 51
348.0534750509
  0
LINE
  5
18C
330
1F
100
AcDbEntity
  8
0
  6
Continuous
 62
     7
370
    15
100
AcDbLine
 10
121.7820543532
 20
99.2316532849
 30
0.0
 11
119.3408809338
 21
99.2316532849
 31
0.0
  0
ARC
  5
18D
330
1F
100
AcDbEntity
  8
0
  6
Continuous
 62
     7
370
    15
100
AcDbCircle
 10
121.3903012048
 20
109.3233046472
 30
0.0
 40
1.039278882353784
100
AcDbArc
 50
270.0
 51
0.0
  0
ARC
  5
18E
330
1F
100
AcDbEntity
  8
0
  6
Continuous
 62
     7
370
    15
100
AcDbCircle
 10
117.4903012048
 20
99.3233046472
 30
0.0
 40
1.500000000000006
100
AcDbArc
 50
189.5913024773
 51
350.4086975227
  0
LINE
  5
18F
330
1F
100
AcDbEntity
  8
0
  6
Continuous
 62
     7
370
    15
100
AcDbLine
 10
121.6904047613
 20
99.3233047395
 30
0.0
 11
119.2650377487
 21
99.3233047395
 31
0.0
  0
LINE
  5
190
330
1F
100
AcDbEntity
  8
0
  6
Continuous
 62
     7
370
    15
100
AcDbLine
 10
112.5903010105
 20
121.9105628754
 30
0.0
 11
112.5510215495
 21
121.9105628754
 31
0.0
  0
LINE
  5
191
330
1F
100
AcDbEntity
  8
0
  6
Continuous
 62
     7
370
    15
100
AcDbLine
 10
112.5903010105
 20
114.1611024707
 30
0.0
 11
112.5903010105
 21
121.9105628754
 31
0.0
  0
LINE
  5
192
330
1F
100
AcDbEntity
  8
0
  6
Continuous
 62
     7
370
    15
100
AcDbLine
 10
112.4986514185
 20
114.1784744306
 30
0.0
 11
112.5903010105
 21
114.1611024707
 31
0.0
  0
LINE
  5
193
330
1F
100
AcDbEntity
  8
0
  6
Continuous
 62
     7
370
    15
100
AcDbLine
 10
112.5510215495
 20
122.3233046678
 30
0.0
 11
112.4986514185
 21
122.3233046678
 31
0.0
  0
LINE
  5
194
330
1F
100
AcDbEntity
  8
0
  6
Continuous
 62
     7
370
    15
100
AcDbLine
 10
112.5510215495
 20
122.3233046678
 30
0.0
 11
112.5510215495
 21
121.9105628754
 31
0.0
  0
LINE
  5
195
330
1F
100
AcDbEntity
  8
0
  6
Continuous
 62
     7
370
    15
100
AcDbLine
 10
122.3903011267
 20
122.3233046678
 30
0.0
 11
122.3903011267
 21
121.1611022211
 31
0.0
  0
LINE
  5
196
330
1F
100
AcDbEntity
  8
0
  6
Continuous
 62
     7
370
    15
100
AcDbLine
 10
123.3086783175
 20
126.2893096047
 30
0.0
 11
123.3058862124
 21
128.3233048364
 31
0.0
  0
LINE
  5
197
330
1F
100
AcDbEntity
  8
0
  6
Continuous
 62
     7
370
    15
100
AcDbLine
 10
123.2903014605
 20
126.2709327477
 30
0.0
 11
123.3086783175
 21
126.2893096047
 31
0.0
  0
LINE
  5
198
330
1F
100
AcDbEntity
  8
0
  6
Continuous
 62
     7
370
    15
100
AcDbLine
 10
123.2903014605
 20
103.3233053951
 30
0.0
 11
123.2903014605
 21
126.2709327477
 31
0.0
  0
LINE
  5
199
330
1F
100
AcDbEntity
  8
0
  6
Continuous
 62
     7
370
    15
100
AcDbLine
 10
123.2510219996
 20
103.2840259342
 30
0.0
 11
123.2903014605
 21
103.3233053951
 31
0.0
  0
LINE
  5
19A
330
1F
100
AcDbEntity
  8
0
  6
Continuous
 62
     7
370
    15
100
AcDbLine
 10
123.285348687
 20
128.1953774362
 30
0.0
 11
123.2533894215
 21
126.4524435594
 31
0.0
  0
ELLIPSE
  5
19B
330
1F
100
AcDbEntity
  8
0
  6
Continuous
 62
     7
370
    15
100
AcDbEllipse
 10
123.2917829402
 20
128.0233046472
 30
0.0
 11
0.0
 21
0.3000000000000398
 31
0.0
210
0.0
220
0.0
230
1.0
 40
0.0261859216
 41
0.0
 42
0.9599310885975806
  0
LINE
  5
19C
330
1F
100
AcDbEntity
  8
0
  6
Continuous
 62
     7
370
    15
100
AcDbLine
 10
123.3058862124
 20
128.3233048364
 30
0.0
 11
123.2917822634
 21
128.3233048364
 31
0.0
  0
ARC
  5
19D
330
1F
100
AcDbEntity
  8
0
  6
Continuous
 62
     7
370
    15
100
AcDbCircle
 10
113.5903012048
 20
109.3233046472
 30
0.0
 40
1.000000000000014
100
AcDbArc
 50
180.0
 51
270.0
  0
LINE
  5
19E
330
1F
100
AcDbEntity
  8
0
  6
Continuous
 62
     7
370
    15
100
AcDbLine
 10
109.7426742051
 20
101.3233050673
 30
0.0
 11
111.6903006767
 21
101.3233050673
 31
0.0
  0
LINE
  5
19F
330
1F
100
AcDbEntity
  8
0
  6
Continuous
 62
     7
370
    15
100
AcDbLine
 10
123.4903011207
 20
103.3233053951
 30
0.0
 11
123.2903014605
 21
103.3233053951
 31
0.0
  0
LINE
  5
1A0
330
1F
100
AcDbEntity
  8
0
  6
Continuous
 62
     7
370
    15
100
AcDbLine
 10
123.2903014605
 20
101.3233050673
 30
0.0
 11
125.2379297946
 21
101.3233050673
 31
0.0
  0
ARC
  5
1A1
330
1F
100
AcDbEntity
  8
0
  6
Continuous
 62
     7
370
    15
100
AcDbCircle
 10
117.2403012048
 20
112.3233046472
 30
0.0
 40
4.999999999999995
100
AcDbArc
 50
158.4348149848
 51
201.5651850152
  0
LINE
  5
1A2
330
1F
100
AcDbEntity
  8
0
  6
Continuous
 62
     7
370
    15
100
AcDbLine
 10
111.6903006767
 20
103.3233053951
 30
0.0
 11
111.6903006767
 21
126.2709327477
 31
0.0
  0
LINE
  5
1A3
330
1F
100
AcDbEntity
  8
0
  6
Continuous
 62
     7
370
    15
100
AcDbLine
 10
111.6719238196
 20
126.2893096047
 30
0.0
 11
111.6903006767
 21
126.2709327477
 31
0.0
  0
LINE
  5
1A4
330
1F
100
AcDbEntity
  8
0
  6
Continuous
 62
     7
370
    15
100
AcDbLine
 10
111.6747140621
 20
128.3233048364
 30
0.0
 11
111.6719238196
 21
126.2893096047
 31
0.0
  0
LINE
  5
1A5
330
1F
100
AcDbEntity
  8
0
  6
Continuous
 62
     7
370
    15
100
AcDbLine
 10
111.6888180111
 20
128.3233048364
 30
0.0
 11
111.6747140621
 21
128.3233048364
 31
0.0
  0
ELLIPSE
  5
1A6
330
1F
100
AcDbEntity
  8
0
  6
Continuous
 62
     7
370
    15
100
AcDbEllipse
 10
111.6888194694
 20
128.0233046472
 30
0.0
 11
0.0
 21
0.3000000000000398
 31
0.0
210
0.0
220
0.0
230
1.0
 40
0.0261859216
 41
5.323254218582369
 42
6.283185307179586
  0
LINE
  5
1A7
330
1F
100
AcDbEntity
  8
0
  6
Continuous
 62
     7
370
    15
100
AcDbLine
 10
111.7272108529
 20
126.4524435594
 30
0.0
 11
111.6952553128
 21
128.1953774362
 31
0.0
  0
ARC
  5
1A8
330
1F
100
AcDbEntity
  8
0
  6
Continuous
 62
     7
370
    15
100
AcDbCircle
 10
113.5903012048
 20
122.3233046472
 30
0.0
 40
1.039278882353784
100
AcDbArc
 50
90.0
 51
180.0
  0
LINE
  5
1A9
330
1F
100
AcDbEntity
  8
0
  6
Continuous
 62
     7
370
    15
100
AcDbLine
 10
123.285348687
 20
128.1953774362
 30
0.0
 11
111.6952553128
 21
128.1953774362
 31
0.0
  0
LINE
  5
1AA
330
1F
100
AcDbEntity
  8
0
  6
Continuous
 62
     7
370
    15
100
AcDbLine
 10
111.6888180111
 20
128.3233048364
 30
0.0
 11
123.2917822634
 21
128.3233048364
 31
0.0
  0
ARC
  5
1AB
330
1F
100
AcDbEntity
  8
0
  6
Continuous
 62
     7
370
    15
100
AcDbCircle
 10
123.2903012048
 20
98.3233046472
 30
0.0
 40
1.94762815686164
100
AcDbArc
 50
270.0
 51
0.0
  0
ARC
  5
1AC
330
1F
100
AcDbEntity
  8
0
  6
Continuous
 62
     7
370
    15
100
AcDbCircle
 10
123.2903012048
 20
98.3233046472
 30
0.0
 40
2.0
100
AcDbArc
 50
270.0
 51
0.0
  0
ARC
  5
1AD
330
1F
100
AcDbEntity
  8
0
  6
Continuous
 62
     7
370
    15
100
AcDbCircle
 10
111.6903012048
 20
98.3233046472
 30
0.0
 40
2.0
100
AcDbArc
 50
180.0
 51
270.0
  0
ARC
  5
1AE
330
1F
100
AcDbEntity
  8
0
  6
Continuous
 62
     7
370
    15
100
AcDbCircle
 10
111.6903012048
 20
98.3233046472
 30
0.0
 40
1.94762815686164
100
AcDbArc
 50
180.0
 51
270.0
  0
LINE
  5
1AF
330
1F
100
AcDbEntity
  8
0
  6
Continuous
 62
     7
370
    15
100
AcDbLine
 10
123.3086317514
 20
126.3233047414
 30
0.0
 11
125.2903017883
 21
126.3233047414
 31
0.0
  0
LINE
  5
1B0
330
1F
100
AcDbEntity
  8
0
  6
Continuous
 62
     7
370
    15
100
AcDbLine
 10
123.4903011207
 20
126.2709327477
 30
0.0
 11
123.2903014605
 21
126.2709327477
 31
0.0
  0
LINE
  5
1B1
330
1F
100
AcDbEntity
  8
0
  6
Continuous
 62
     7
370
    15
100
AcDbLine
 10
111.6903006767
 20
126.2709327477
 30
0.0
 11
111.4903010164
 21
126.2709327477
 31
0.0
  0
LINE
  5
1B2
330
1F
100
AcDbEntity
  8
0
  6
Continuous
 62
     7
370
    15
100
AcDbLine
 10
109.6903003488
 20
126.3233047414
 30
0.0
 11
111.6719722484
 21
126.3233047414
 31
0.0
  0
LINE
  5
1B3
330
1F
100
AcDbEntity
  8
0
  6
Continuous
 62
     7
370
    15
100
AcDbLine
 10
117.2403014932
 20
111.5526141568
 30
0.0
 11
117.2010220323
 21
111.5526141568
 31
0.0
  0
LINE
  5
1B4
330
1F
100
AcDbEntity
  8
0
  6
Continuous
 62
     7
370
    15
100
AcDbLine
 10
117.2403014932
 20
111.3551439687
 30
0.0
 11
117.2403014932
 21
111.5526141568
 31
0.0
  0
LINE
  5
1B5
330
1F
100
AcDbEntity
  8
0
  6
Continuous
 62
     7
370
    15
100
AcDbLine
 10
117.2403014932
 20
111.3551439687
 30
0.0
 11
117.2010220323
 21
111.3551439687
 31
0.0
  0
LINE
  5
1B6
330
1F
100
AcDbEntity
  8
0
  6
Continuous
 62
     7
370
    15
100
AcDbLine
 10
117.2010220323
 20
111.3551439687
 30
0.0
 11
117.2010220323
 21
111.5526141568
 31
0.0
  0
ARC
  5
1B7
330
1F
100
AcDbEntity
  8
0
  6
Continuous
 62
     7
370
    15
100
AcDbCircle
 10
114.947407986
 20
122.8233046472
 30
0.0
 40
0.539278882353782
100
AcDbArc
 50
90.0
 51
225.0
  0
LINE
  5
1B8
330
1F
100
AcDbEntity
  8
0
  6
Continuous
 62
     7
370
    15
100
AcDbLine
 10
116.474659342
 20
120.5333982564
 30
0.0
 11
114.5660795008
 21
122.4419769335
 31
0.0
  0
ARC
  5
1B9
330
1F
100
AcDbEntity
  8
0
  6
Continuous
 62
     7
370
    15
100
AcDbCircle
 10
116.2903012048
 20
120.3490405784
 30
0.0
 40
0.2607211176462366
100
AcDbArc
 50
0.0
 51
45.0
  0
LINE
  5
1BA
330
1F
100
AcDbEntity
  8
0
  6
Continuous
 62
     7
370
    15
100
AcDbLine
 10
116.5510222052
 20
119.7980497002
 30
0.0
 11
116.5510222052
 21
120.3490406244
 31
0.0
  0
ARC
  5
1BB
330
1F
100
AcDbEntity
  8
0
  6
Continuous
 62
     7
370
    15
100
AcDbCircle
 10
116.2903012048
 20
119.7980495186
 30
0.0
 40
0.2607211176462297
100
AcDbArc
 50
307.7997224354
 51
0.0
  0
ARC
  5
1BC
330
1F
100
AcDbEntity
  8
0
  6
Continuous
 62
     7
370
    15
100
AcDbCircle
 10
117.2403012048
 20
118.5733046472
 30
0.0
 40
1.289278882353782
100
AcDbArc
 50
127.7997224354
 51
228.8879095608
  0
ARC
  5
1BD
330
1F
100
AcDbEntity
  8
0
  6
Continuous
 62
     7
370
    15
100
AcDbCircle
 10
114.8403012048
 20
115.8233046472
 30
0.0
 40
2.360721117646213
100
AcDbArc
 50
311.1120904392
 51
48.8879095608
  0
ARC
  5
1BE
330
1F
100
AcDbEntity
  8
0
  6
Continuous
 62
     7
370
    15
100
AcDbCircle
 10
117.2403012048
 20
113.0733046472
 30
0.0
 40
1.289278882353792
100
AcDbArc
 50
131.1120904392
 51
258.8400631278
  0
ARC
  5
1BF
330
1F
100
AcDbEntity
  8
0
  6
Continuous
 62
     7
370
    15
100
AcDbCircle
 10
116.9403012048
 20
111.5526140146
 30
0.0
 40
0.2607211176462272
100
AcDbArc
 50
0.0
 51
78.8400631278
  0
ARC
  5
1C0
330
1F
100
AcDbEntity
  8
0
  6
Continuous
 62
     7
370
    15
100
AcDbCircle
 10
116.9403012048
 20
111.3551440556
 30
0.0
 40
0.2607211176462358
100
AcDbArc
 50
290.0
 51
0.0
  0
LINE
  5
1C1
330
1F
100
AcDbEntity
  8
0
  6
Continuous
 62
     7
370
    15
100
AcDbLine
 10
116.3663614277
 20
110.8687933504
 30
0.0
 11
117.0294724141
 21
111.1101465269
 31
0.0
  0
ARC
  5
1C2
330
1F
100
AcDbEntity
  8
0
  6
Continuous
 62
     7
370
    15
100
AcDbCircle
 10
116.2087862628
 20
111.3017299452
 30
0.0
 40
0.4607211176462195
100
AcDbArc
 50
239.7895201773
 51
290.0
  0
ARC
  5
1C3
330
1F
100
AcDbEntity
  8
0
  6
Continuous
 62
     7
370
    15
100
AcDbCircle
 10
117.2403012048
 20
113.0733046472
 30
0.0
 40
2.510721117646226
100
AcDbArc
 50
131.1120904392
 51
239.7895201773
  0
ARC
  5
1C4
330
1F
100
AcDbEntity
  8
0
  6
Continuous
 62
     7
370
    15
100
AcDbCircle
 10
114.8403012048
 20
115.8233046472
 30
0.0
 40
1.139278882353779
100
AcDbArc
 50
311.1120904392
 51
48.8879095608
  0
ARC
  5
1C5
330
1F
100
AcDbEntity
  8
0
  6
Continuous
 62
     7
370
    15
100
AcDbCircle
 10
117.2403012048
 20
118.5733046472
 30
0.0
 40
2.510721117646226
100
AcDbArc
 50
152.4795916534
 51
228.8879095608
  0
ARC
  5
1C6
330
1F
100
AcDbEntity
  8
0
  6
Continuous
 62
     7
370
    15
100
AcDbCircle
 10
114.5354199735
 20
119.9826014662
 30
0.0
 40
0.539278882353802
100
AcDbArc
 50
332.4795916534
 51
45.0
  0
LINE
  5
1C7
330
1F
100
AcDbEntity
  8
0
  6
Continuous
 62
     7
370
    15
100
AcDbLine
 10
113.1302073334
 20
122.1504692423
 30
0.0
 11
114.9167485271
 21
120.3639292127
 31
0.0
  0
ARC
  5
1C8
330
1F
100
AcDbEntity
  8
0
  6
Continuous
 62
     7
370
    15
100
AcDbCircle
 10
112.8903012048
 20
121.9105629474
 30
0.0
 40
0.3392788823537823
100
AcDbArc
 50
45.0
 51
180.0
  0
LINE
  5
1C9
330
1F
100
AcDbEntity
  8
0
  6
Continuous
 62
     7
370
    15
100
AcDbLine
 10
116.4183832441
 20
117.6315237737
 30
0.0
 11
116.3925558065
 21
117.6019300676
 31
0.0
  0
ARC
  5
1CA
330
1F
100
AcDbEntity
  8
0
  6
Continuous
 62
     7
370
    15
100
AcDbCircle
 10
114.8403012048
 20
115.8233046472
 30
0.0
 40
2.400000000000004
100
AcDbArc
 50
311.1120904392
 51
48.8879095608
  0
LINE
  5
1CB
330
1F
100
AcDbEntity
  8
0
  6
Continuous
 62
     7
370
    15
100
AcDbLine
 10
116.4183832441
 20
114.0150850608
 30
0.0
 11
116.3925558065
 21
114.0446787669
 31
0.0
  0
LINE
  5
1CC
330
1F
100
AcDbEntity
  8
0
  6
Continuous
 62
     7
370
    15
100
AcDbLine
 10
119.417012829
 20
114.9945374547
 30
0.0
 11
119.391187254
 21
114.9649437486
 31
0.0
  0
ARC
  5
1CD
330
1F
100
AcDbEntity
  8
0
  6
Continuous
 62
     7
370
    15
100
AcDbCircle
 10
117.7403012048
 20
113.0733046472
 30
0.0
 40
2.550000000000007
100
AcDbArc
 50
332.4795916534
 51
48.8879095608
  0
LINE
  5
1CE
330
1F
100
AcDbEntity
  8
0
  6
Continuous
 62
     7
370
    15
100
AcDbLine
 10
120.0017586087
 20
111.8950400471
 30
0.0
 11
119.9669252817
 21
111.9131896614
 31
0.0
  0
ARC
  5
1CF
330
1F
100
AcDbEntity
  8
0
  6
Continuous
 62
     7
370
    15
100
AcDbCircle
 10
117.7403012048
 20
113.0733046472
 30
0.0
 40
2.510721117646229
100
AcDbArc
 50
332.4795916534
 51
48.8879095608
  0
LINE
  5
1D0
330
1F
100
AcDbEntity
  8
0
  6
Continuous
 62
     7
370
    15
100
AcDbLine
 10
116.9983662401
 20
111.8469409614
 30
0.0
 11
116.9907629226
 21
111.8084046959
 31
0.0
  0
ARC
  5
1D1
330
1F
100
AcDbEntity
  8
0
  6
Continuous
 62
     7
370
    15
100
AcDbCircle
 10
116.9403012048
 20
111.5526140146
 30
0.0
 40
0.2999999999999972
100
AcDbArc
 50
0.0
 51
78.8400631278
  0
LINE
  5
1D2
330
1F
100
AcDbEntity
  8
0
  6
Continuous
 62
     7
370
    15
100
AcDbLine
 10
118.8850208853
 20
110.6785856157
 30
0.0
 11
118.9127947871
 21
110.7063595175
 31
0.0
  0
LINE
  5
1D3
330
1F
100
AcDbEntity
  8
0
  6
Continuous
 62
     7
370
    15
100
AcDbLine
 10
118.9127947871
 20
110.7063595175
 30
0.0
 11
120.4145226364
 21
109.2046325996
 31
0.0
  0
LINE
  5
1D4
330
1F
100
AcDbEntity
  8
0
  6
Continuous
 62
     7
370
    15
100
AcDbLine
 10
120.3867487346
 20
109.1768577664
 30
0.0
 11
120.4145226364
 21
109.2046325996
 31
0.0
  0
LINE
  5
1D5
330
1F
100
AcDbEntity
  8
0
  6
Continuous
 62
     7
370
    15
100
AcDbLine
 10
118.8850208853
 20
110.6785856157
 30
0.0
 11
120.3867487346
 21
109.1768577664
 31
0.0
  0
LINE
  5
1D6
330
1F
100
AcDbEntity
  8
0
  6
Continuous
 62
     7
370
    15
100
AcDbLine
 10
116.474171329
 20
119.5610020279
 30
0.0
 11
116.4500985031
 21
119.5920388184
 31
0.0
  0
ARC
  5
1D7
330
1F
100
AcDbEntity
  8
0
  6
Continuous
 62
     7
370
    15
100
AcDbCircle
 10
117.2403012048
 20
118.5733046472
 30
0.0
 40
1.25
100
AcDbArc
 50
127.7997224354
 51
228.8879095608
  0
LINE
  5
1D8
330
1F
100
AcDbEntity
  8
0
  6
Continuous
 62
     7
370
    15
100
AcDbLine
 10
119.417012829
 20
116.6520718454
 30
0.0
 11
119.391187254
 21
116.6816655516
 31
0.0
  0
ARC
  5
1D9
330
1F
100
AcDbEntity
  8
0
  6
Continuous
 62
     7
370
    15
100
AcDbCircle
 10
120.1403012048
 20
115.8233046472
 30
0.0
 40
1.100000000000007
100
AcDbArc
 50
131.1120904392
 51
228.8879095608
  0
ARC
  5
1DA
330
1F
100
AcDbEntity
  8
0
  6
Continuous
 62
     7
370
    15
100
AcDbCircle
 10
120.1403012048
 20
115.8233046472
 30
0.0
 40
1.139278882353788
100
AcDbArc
 50
131.1120904392
 51
228.8879095608
  0
ARC
  5
1DB
330
1F
100
AcDbEntity
  8
0
  6
Continuous
 62
     7
370
    15
100
AcDbCircle
 10
120.4451824362
 20
111.6640078281
 30
0.0
 40
0.500000000000004
100
AcDbArc
 50
152.4795916534
 51
225.0
  0
LINE
  5
1DC
330
1F
100
AcDbEntity
  8
0
  6
Continuous
 62
     7
370
    15
100
AcDbLine
 10
120.0916293745
 20
111.3104544549
 30
0.0
 11
120.0638554726
 21
111.2826796218
 31
0.0
  0
ARC
  5
1DD
330
1F
100
AcDbEntity
  8
0
  6
Continuous
 62
     7
370
    15
100
AcDbCircle
 10
120.4451824362
 20
111.6640078281
 30
0.0
 40
0.539278882353782
100
AcDbArc
 50
152.4795916534
 51
225.0
  0
ARC
  5
1DE
330
1F
100
AcDbEntity
  8
0
  6
Continuous
 62
     7
370
    15
100
AcDbCircle
 10
122.0903012048
 20
109.736046347
 30
0.0
 40
0.3392788823537813
100
AcDbArc
 50
225.0
 51
0.0
  0
LINE
  5
1DF
330
1F
100
AcDbEntity
  8
0
  6
Continuous
 62
     7
370
    15
100
AcDbLine
 10
121.8503948037
 20
109.4961402907
 30
0.0
 11
121.8781687055
 21
109.5239141925
 31
0.0
  0
ARC
  5
1E0
330
1F
100
AcDbEntity
  8
0
  6
Continuous
 62
     7
370
    15
100
AcDbCircle
 10
122.0903012048
 20
109.736046347
 30
0.0
 40
0.3000000000000114
100
AcDbArc
 50
225.0
 51
0.0
  0
ARC
  5
1E1
330
1F
100
AcDbEntity
  8
0
  6
Continuous
 62
     7
370
    15
100
AcDbCircle
 10
118.5314669414
 20
110.3250321294
 30
0.0
 40
0.5000000000000141
100
AcDbArc
 50
45.0
 51
70.0
  0
LINE
  5
1E2
330
1F
100
AcDbEntity
  8
0
  6
Continuous
 62
     7
370
    15
100
AcDbLine
 10
118.7024779354
 20
110.7948780029
 30
0.0
 11
118.7159113322
 21
110.8317881792
 31
0.0
  0
ARC
  5
1E3
330
1F
100
AcDbEntity
  8
0
  6
Continuous
 62
     7
370
    15
100
AcDbCircle
 10
118.5314669414
 20
110.3250321294
 30
0.0
 40
0.5392788823537961
100
AcDbArc
 50
45.0
 51
70.0
  0
ARC
  5
1E4
330
1F
100
AcDbEntity
  8
0
  6
Continuous
 62
     7
370
    15
100
AcDbCircle
 10
116.9403012048
 20
111.3551440556
 30
0.0
 40
0.300000000000015
100
AcDbArc
 50
290.0
 51
0.0
  0
LINE
  5
1E5
330
1F
100
AcDbEntity
  8
0
  6
Continuous
 62
     7
370
    15
100
AcDbLine
 10
117.0429076736
 20
111.0732363506
 30
0.0
 11
117.0294724141
 21
111.1101465269
 31
0.0
  0
LINE
  5
1E6
330
1F
100
AcDbEntity
  8
0
  6
Continuous
 62
     7
370
    15
100
AcDbLine
 10
114.5938552652
 20
122.4697513009
 30
0.0
 11
114.5660795008
 21
122.4419769335
 31
0.0
  0
ARC
  5
1E7
330
1F
100
AcDbEntity
  8
0
  6
Continuous
 62
     7
370
    15
100
AcDbCircle
 10
114.947407986
 20
122.8233046472
 30
0.0
 40
0.5
100
AcDbArc
 50
90.0
 51
225.0
  0
LINE
  5
1E8
330
1F
100
AcDbEntity
  8
0
  6
Continuous
 62
     7
370
    15
100
AcDbLine
 10
114.8889727627
 20
120.3361548453
 30
0.0
 11
114.9167485271
 21
120.3639292127
 31
0.0
  0
LINE
  5
1E9
330
1F
100
AcDbEntity
  8
0
  6
Continuous
 62
     7
370
    15
100
AcDbLine
 10
113.1024315689
 20
122.1226948748
 30
0.0
 11
114.8889727627
 21
120.3361548453
 31
0.0
  0
LINE
  5
1EA
330
1F
100
AcDbEntity
  8
0
  6
Continuous
 62
     7
370
    15
100
AcDbLine
 10
113.1302073334
 20
122.1504692423
 30
0.0
 11
113.1024315689
 21
122.1226948748
 31
0.0
  0
LINE
  5
1EB
330
1F
100
AcDbEntity
  8
0
  6
Continuous
 62
     7
370
    15
100
AcDbLine
 10
121.8781687055
 20
109.5239141925
 30
0.0
 11
120.0916293745
 21
111.3104544549
 31
0.0
  0
LINE
  5
1EC
330
1F
100
AcDbEntity
  8
0
  6
Continuous
 62
     7
370
    15
100
AcDbLine
 10
121.8503948037
 20
109.4961402907
 30
0.0
 11
120.0638554726
 21
111.2826796218
 31
0.0
  0
LINE
  5
1ED
330
1F
100
AcDbEntity
  8
0
  6
Continuous
 62
     7
370
    15
100
AcDbLine
 10
118.1474785988
 20
120.8304829399
 30
0.0
 11
118.1752543633
 21
120.8027085724
 31
0.0
  0
ARC
  5
1EE
330
1F
100
AcDbEntity
  8
0
  6
Continuous
 62
     7
370
    15
100
AcDbCircle
 10
118.5010328014
 20
120.4769294626
 30
0.0
 40
0.5000000000000133
100
AcDbArc
 50
68.2172312696
 51
135.0
  0
LINE
  5
1EF
330
1F
100
AcDbEntity
  8
0
  6
Continuous
 62
     7
370
    15
100
AcDbLine
 10
118.6865765338
 20
120.9412281371
 30
0.0
 11
118.6720013355
 21
120.9047538198
 31
0.0
  0
ARC
  5
1F0
330
1F
100
AcDbEntity
  8
0
  6
Continuous
 62
     7
370
    15
100
AcDbCircle
 10
118.5010328014
 20
120.4769294626
 30
0.0
 40
0.4607211176462161
100
AcDbArc
 50
68.2172312696
 51
135.0
  0
ARC
  5
1F1
330
1F
100
AcDbEntity
  8
0
  6
Continuous
 62
     7
370
    15
100
AcDbCircle
 10
117.7403012048
 20
118.5733046472
 30
0.0
 40
2.550000000000008
100
AcDbArc
 50
311.1120904392
 51
68.2172312696
  0
ARC
  5
1F2
330
1F
100
AcDbEntity
  8
0
  6
Continuous
 62
     7
370
    15
100
AcDbCircle
 10
117.7403012048
 20
118.5733046472
 30
0.0
 40
2.510721117646226
100
AcDbArc
 50
311.1120904392
 51
68.2172312696
  0
LINE
  5
1F3
330
1F
100
AcDbEntity
  8
0
  6
Continuous
 62
     7
370
    15
100
AcDbLine
 10
115.5635893081
 20
116.6520718454
 30
0.0
 11
115.5894167457
 21
116.6816655516
 31
0.0
  0
ARC
  5
1F4
330
1F
100
AcDbEntity
  8
0
  6
Continuous
 62
     7
370
    15
100
AcDbCircle
 10
117.2403012048
 20
118.5733046472
 30
0.0
 40
2.550000000000007
100
AcDbArc
 50
152.4795916534
 51
228.8879095608
  0
LINE
  5
1F5
330
1F
100
AcDbEntity
  8
0
  6
Continuous
 62
     7
370
    15
100
AcDbLine
 10
114.9788435285
 20
119.7515692531
 30
0.0
 11
115.0136768554
 21
119.7334196388
 31
0.0
  0
ARC
  5
1F6
330
1F
100
AcDbEntity
  8
0
  6
Continuous
 62
     7
370
    15
100
AcDbCircle
 10
114.5354199735
 20
119.9826014662
 30
0.0
 40
0.5000000000000241
100
AcDbArc
 50
332.4795916534
 51
45.0
  0
LINE
  5
1F7
330
1F
100
AcDbEntity
  8
0
  6
Continuous
 62
     7
370
    15
100
AcDbLine
 10
116.5903016661
 20
119.7980497002
 30
0.0
 11
116.5510222052
 21
119.7980497002
 31
0.0
  0
ARC
  5
1F8
330
1F
100
AcDbEntity
  8
0
  6
Continuous
 62
     7
370
    15
100
AcDbCircle
 10
116.2903012048
 20
119.7980495186
 30
0.0
 40
0.3000000000000114
100
AcDbArc
 50
307.7997224354
 51
0.0
  0
ARC
  5
1F9
330
1F
100
AcDbEntity
  8
0
  6
Continuous
 62
     7
370
    15
100
AcDbCircle
 10
112.8903012048
 20
121.9105629474
 30
0.0
 40
0.3000000000000114
100
AcDbArc
 50
45.0
 51
180.0
  0
LINE
  5
1FA
330
1F
100
AcDbEntity
  8
0
  6
Continuous
 62
     7
370
    15
100
AcDbLine
 10
116.5024332438
 20
120.5611726238
 30
0.0
 11
116.474659342
 21
120.5333982564
 31
0.0
  0
LINE
  5
1FB
330
1F
100
AcDbEntity
  8
0
  6
Continuous
 62
     7
370
    15
100
AcDbLine
 10
116.5024332438
 20
120.5611726238
 30
0.0
 11
114.5938552652
 21
122.4697513009
 31
0.0
  0
LINE
  5
1FC
330
1F
100
AcDbEntity
  8
0
  6
Continuous
 62
     7
370
    15
100
AcDbLine
 10
115.5635893081
 20
114.9945374547
 30
0.0
 11
115.5894167457
 21
114.9649437486
 31
0.0
  0
ARC
  5
1FD
330
1F
100
AcDbEntity
  8
0
  6
Continuous
 62
     7
370
    15
100
AcDbCircle
 10
114.8403012048
 20
115.8233046472
 30
0.0
 40
1.099999999999998
100
AcDbArc
 50
311.1120904392
 51
48.8879095608
  0
LINE
  5
1FE
330
1F
100
AcDbEntity
  8
0
  6
Continuous
 62
     7
370
    15
100
AcDbLine
 10
116.5903016661
 20
120.3490406244
 30
0.0
 11
116.5510222052
 21
120.3490406244
 31
0.0
  0
LINE
  5
1FF
330
1F
100
AcDbEntity
  8
0
  6
Continuous
 62
     7
370
    15
100
AcDbLine
 10
116.5903016661
 20
119.7980497002
 30
0.0
 11
116.5903016661
 21
120.3490406244
 31
0.0
  0
LINE
  5
200
330
1F
100
AcDbEntity
  8
0
  6
Continuous
 62
     7
370
    15
100
AcDbLine
 10
117.7403006439
 20
120.2990404765
 30
0.0
 11
117.7795801048
 21
120.2990404765
 31
0.0
  0
ARC
  5
201
330
1F
100
AcDbEntity
  8
0
  6
Continuous
 62
     7
370
    15
100
AcDbCircle
 10
118.0403012048
 20
120.2990405784
 30
0.0
 40
0.2999999999999972
100
AcDbArc
 50
135.0
 51
180.0
  0
LINE
  5
202
330
1F
100
AcDbEntity
  8
0
  6
Continuous
 62
     7
370
    15
100
AcDbLine
 10
117.8281690662
 20
120.5111727088
 30
0.0
 11
117.855942968
 21
120.4833983413
 31
0.0
  0
ARC
  5
203
330
1F
100
AcDbEntity
  8
0
  6
Continuous
 62
     7
370
    15
100
AcDbCircle
 10
118.0403012048
 20
120.2990405784
 30
0.0
 40
0.2607211176462266
100
AcDbArc
 50
135.0
 51
180.0
  0
LINE
  5
204
330
1F
100
AcDbEntity
  8
0
  6
Continuous
 62
     7
370
    15
100
AcDbLine
 10
118.1474785988
 20
120.8304829399
 30
0.0
 11
117.8281690662
 21
120.5111727088
 31
0.0
  0
LINE
  5
205
330
1F
100
AcDbEntity
  8
0
  6
Continuous
 62
     7
370
    15
100
AcDbLine
 10
118.1752543633
 20
120.8027085724
 30
0.0
 11
117.855942968
 21
120.4833983413
 31
0.0
  0
ARC
  5
206
330
1F
100
AcDbEntity
  8
0
  6
Continuous
 62
     7
370
    15
100
AcDbCircle
 10
120.0331944236
 20
108.8233046472
 30
0.0
 40
0.5392788823537842
100
AcDbArc
 50
270.0
 51
45.0
  0
ARC
  5
207
330
1F
100
AcDbEntity
  8
0
  6
Continuous
 62
     7
370
    15
100
AcDbCircle
 10
120.0331944236
 20
108.8233046472
 30
0.0
 40
0.500000000000004
100
AcDbArc
 50
270.0
 51
45.0
  0
LINE
  5
208
330
1F
100
AcDbEntity
  8
0
  6
Continuous
 62
     7
370
    15
100
AcDbLine
 10
117.9376944636
 20
111.0732363506
 30
0.0
 11
117.951129723
 21
111.1101465269
 31
0.0
  0
ARC
  5
209
330
1F
100
AcDbEntity
  8
0
  6
Continuous
 62
     7
370
    15
100
AcDbCircle
 10
118.0403012048
 20
111.3551440556
 30
0.0
 40
0.3000000000000198
100
AcDbArc
 50
180.0
 51
250.0
  0
LINE
  5
20A
330
1F
100
AcDbEntity
  8
0
  6
Continuous
 62
     7
370
    15
100
AcDbLine
 10
117.7403006439
 20
111.3551439687
 30
0.0
 11
117.7795801048
 21
111.3551439687
 31
0.0
  0
ARC
  5
20B
330
1F
100
AcDbEntity
  8
0
  6
Continuous
 62
     7
370
    15
100
AcDbCircle
 10
118.0403012048
 20
111.3551440556
 30
0.0
 40
0.2607211176462406
100
AcDbArc
 50
180.0
 51
250.0
  0
LINE
  5
20C
330
1F
100
AcDbEntity
  8
0
  6
Continuous
 62
     7
370
    15
100
AcDbLine
 10
117.7403006439
 20
111.5526141568
 30
0.0
 11
117.7403006439
 21
111.3551439687
 31
0.0
  0
LINE
  5
20D
330
1F
100
AcDbEntity
  8
0
  6
Continuous
 62
     7
370
    15
100
AcDbLine
 10
117.7403006439
 20
111.5526141568
 30
0.0
 11
117.7795801048
 21
111.5526141568
 31
0.0
  0
LINE
  5
20E
330
1F
100
AcDbEntity
  8
0
  6
Continuous
 62
     7
370
    15
100
AcDbLine
 10
117.7795801048
 20
111.5526141568
 30
0.0
 11
117.7795801048
 21
111.3551439687
 31
0.0
  0
LINE
  5
20F
330
1F
100
AcDbEntity
  8
0
  6
Continuous
 62
     7
370
    15
100
AcDbLine
 10
116.3797966872
 20
110.8318831741
 30
0.0
 11
116.3663614277
 21
110.8687933504
 31
0.0
  0
ARC
  5
210
330
1F
100
AcDbEntity
  8
0
  6
Continuous
 62
     7
370
    15
100
AcDbCircle
 10
116.2087862628
 20
111.3017299452
 30
0.0
 40
0.4999999999999987
100
AcDbArc
 50
239.7895201773
 51
290.0
  0
LINE
  5
211
330
1F
100
AcDbEntity
  8
0
  6
Continuous
 62
     7
370
    15
100
AcDbLine
 10
115.9571978931
 20
110.8696389913
 30
0.0
 11
115.9769624208
 21
110.9035829051
 31
0.0
  0
LINE
  5
212
330
1F
100
AcDbEntity
  8
0
  6
Continuous
 62
     7
370
    15
100
AcDbLine
 10
117.982235897
 20
119.7996678731
 30
0.0
 11
117.9898392145
 21
119.8382041386
 31
0.0
  0
ARC
  5
213
330
1F
100
AcDbEntity
  8
0
  6
Continuous
 62
     7
370
    15
100
AcDbCircle
 10
118.0403012048
 20
120.0939952797
 30
0.0
 40
0.2999999999999972
100
AcDbArc
 50
180.0
 51
258.8400631278
  0
LINE
  5
214
330
1F
100
AcDbEntity
  8
0
  6
Continuous
 62
     7
370
    15
100
AcDbLine
 10
117.7403006439
 20
120.0939951434
 30
0.0
 11
117.7795801048
 21
120.0939951434
 31
0.0
  0
ARC
  5
215
330
1F
100
AcDbEntity
  8
0
  6
Continuous
 62
     7
370
    15
100
AcDbCircle
 10
118.0403012048
 20
120.0939952797
 30
0.0
 40
0.2607211176462176
100
AcDbArc
 50
180.0
 51
258.8400631278
  0
LINE
  5
216
330
1F
100
AcDbEntity
  8
0
  6
Continuous
 62
     7
370
    15
100
AcDbLine
 10
117.9376944636
 20
111.0732363506
 30
0.0
 11
118.7024779354
 21
110.7948780029
 31
0.0
  0
LINE
  5
217
330
1F
100
AcDbEntity
  8
0
  6
Continuous
 62
     7
370
    15
100
AcDbLine
 10
117.951129723
 20
111.1101465269
 30
0.0
 11
118.7159113322
 21
110.8317881792
 31
0.0
  0
ARC
  5
218
330
1F
100
AcDbEntity
  8
0
  6
Continuous
 62
     7
370
    15
100
AcDbCircle
 10
116.2903012048
 20
120.3490405784
 30
0.0
 40
0.3000000000000114
100
AcDbArc
 50
0.0
 51
45.0
  0
LINE
  5
219
330
1F
100
AcDbEntity
  8
0
  6
Continuous
 62
     7
370
    15
100
AcDbLine
 10
117.7403006439
 20
120.2990404765
 30
0.0
 11
117.7403006439
 21
120.0939951434
 31
0.0
  0
LINE
  5
21A
330
1F
100
AcDbEntity
  8
0
  6
Continuous
 62
     7
370
    15
100
AcDbLine
 10
117.7795801048
 20
120.2990404765
 30
0.0
 11
117.7795801048
 21
120.0939951434
 31
0.0
  0
ARC
  5
21B
330
1F
100
AcDbEntity
  8
0
  6
Continuous
 62
     7
370
    15
100
AcDbCircle
 10
118.0403012048
 20
111.5526140146
 30
0.0
 40
0.3000000000000114
100
AcDbArc
 50
101.1599368722
 51
180.0
  0
LINE
  5
21C
330
1F
100
AcDbEntity
  8
0
  6
Continuous
 62
     7
370
    15
100
AcDbLine
 10
117.982235897
 20
111.8469409614
 30
0.0
 11
117.9898392145
 21
111.8084046959
 31
0.0
  0
ARC
  5
21D
330
1F
100
AcDbEntity
  8
0
  6
Continuous
 62
     7
370
    15
100
AcDbCircle
 10
118.0403012048
 20
111.5526140146
 30
0.0
 40
0.2607211176462272
100
AcDbArc
 50
101.1599368722
 51
180.0
  0
LINE
  5
21E
330
1F
100
AcDbEntity
  8
0
  6
Continuous
 62
     7
370
    15
100
AcDbLine
 10
118.562218893
 20
114.0150850608
 30
0.0
 11
118.5880463307
 21
114.0446787669
 31
0.0
  0
ARC
  5
21F
330
1F
100
AcDbEntity
  8
0
  6
Continuous
 62
     7
370
    15
100
AcDbCircle
 10
120.1403012048
 20
115.8233046472
 30
0.0
 40
2.400000000000004
100
AcDbArc
 50
131.1120904392
 51
228.8879095608
  0
LINE
  5
220
330
1F
100
AcDbEntity
  8
0
  6
Continuous
 62
     7
370
    15
100
AcDbLine
 10
118.562218893
 20
117.6315237737
 30
0.0
 11
118.5880463307
 21
117.6019300676
 31
0.0
  0
ARC
  5
221
330
1F
100
AcDbEntity
  8
0
  6
Continuous
 62
     7
370
    15
100
AcDbCircle
 10
120.1403012048
 20
115.8233046472
 30
0.0
 40
2.360721117646213
100
AcDbArc
 50
131.1120904392
 51
228.8879095608
  0
ARC
  5
222
330
1F
100
AcDbEntity
  8
0
  6
Continuous
 62
     7
370
    15
100
AcDbCircle
 10
117.2403012048
 20
113.0733046472
 30
0.0
 40
2.550000000000007
100
AcDbArc
 50
131.1120904392
 51
239.7895201773
  0
ARC
  5
223
330
1F
100
AcDbEntity
  8
0
  6
Continuous
 62
     7
370
    15
100
AcDbCircle
 10
117.7403012048
 20
113.0733046472
 30
0.0
 40
1.289278882353802
100
AcDbArc
 50
281.1599368722
 51
48.8879095608
  0
ARC
  5
224
330
1F
100
AcDbEntity
  8
0
  6
Continuous
 62
     7
370
    15
100
AcDbCircle
 10
117.7403012048
 20
118.5733046472
 30
0.0
 40
1.289278882353791
100
AcDbArc
 50
311.1120904392
 51
78.8400631278
  0
LINE
  5
225
330
1F
100
AcDbEntity
  8
0
  6
Continuous
 62
     7
370
    15
100
AcDbLine
 10
116.3797966872
 20
110.8318831741
 30
0.0
 11
117.0429076736
 21
111.0732363506
 31
0.0
  0
ARC
  5
226
330
1F
100
AcDbEntity
  8
0
  6
Continuous
 62
     7
370
    15
100
AcDbCircle
 10
117.7403012048
 20
118.5733046472
 30
0.0
 40
1.25000000000001
100
AcDbArc
 50
311.1120904392
 51
78.8400631278
  0
LINE
  5
227
330
1F
100
AcDbEntity
  8
0
  6
Continuous
 62
     7
370
    15
100
AcDbLine
 10
111.4903010164
 20
125.1292203289
 30
0.0
 11
107.4903003608
 21
125.1292203289
 31
0.0
  0
ELLIPSE
  5
228
330
1F
100
AcDbEntity
  8
0
  6
Continuous
 62
     7
370
    15
100
AcDbEllipse
 10
107.5007774357
 20
125.1292203187
 30
0.0
 11
0.0
 21
0.2999999999999972
 31
0.0
210
0.0
220
0.0
230
1.0
 40
0.0349207695
 41
0.7853981633978436
 42
1.570796326794991
  0
LINE
  5
229
330
1F
100
AcDbEntity
  8
0
  6
Continuous
 62
     7
370
    15
100
AcDbLine
 10
107.49337
 20
125.3413523284
 30
0.0
 11
111.4903010164
 21
125.3413523284
 31
0.0
  0
LINE
  5
22A
330
1F
100
AcDbEntity
  8
0
  6
Continuous
 62
     7
370
    15
100
AcDbLine
 10
111.4903010164
 20
125.3413523284
 30
0.0
 11
111.4903010164
 21
125.1292203289
 31
0.0
  0
LINE
  5
22B
330
1F
100
AcDbEntity
  8
0
  6
Continuous
 62
     7
370
    15
100
AcDbLine
 10
127.4903017764
 20
125.1292203289
 30
0.0
 11
123.4903011207
 21
125.1292203289
 31
0.0
  0
LINE
  5
22C
330
1F
100
AcDbEntity
  8
0
  6
Continuous
 62
     7
370
    15
100
AcDbLine
 10
123.4903011207
 20
125.3413523284
 30
0.0
 11
127.4872321372
 21
125.3413523284
 31
0.0
  0
ELLIPSE
  5
22D
330
1F
100
AcDbEntity
  8
0
  6
Continuous
 62
     7
370
    15
100
AcDbEllipse
 10
127.479824974
 20
125.1292203187
 30
0.0
 11
0.0
 21
0.2999999999999972
 31
0.0
210
0.0
220
0.0
230
1.0
 40
0.0349207695
 41
4.712388980384596
 42
5.49778714378126
  0
LINE
  5
22E
330
1F
100
AcDbEntity
  8
0
  6
Continuous
 62
     7
370
    15
100
AcDbLine
 10
123.4903011207
 20
125.1292203289
 30
0.0
 11
123.4903011207
 21
125.3413523284
 31
0.0
  0
ELLIPSE
  5
22F
330
1F
100
AcDbEntity
  8
0
  6
Continuous
 62
     7
370
    15
100
AcDbEllipse
 10
126.9899964327
 20
101.8236094193
 30
0.0
 11
-0.3539842722995984
 21
0.3539842722995842
 31
0.0
210
0.0
220
0.0
230
0.9999999999999998
 40
0.998782766
 41
2.356803477777939
 42
3.926381829401536
  0
LINE
  5
230
330
1F
100
AcDbEntity
  8
0
  6
Continuous
 62
     7
370
    15
100
AcDbLine
 10
125.4903014485
 20
101.3233050673
 30
0.0
 11
126.9906062369
 21
101.3233050673
 31
0.0
  0
LINE
  5
231
330
1F
100
AcDbEntity
  8
0
  6
Continuous
 62
     7
370
    15
100
AcDbLine
 10
125.4903014485
 20
101.3233050673
 30
0.0
 11
125.4903014485
 21
103.3233053951
 31
0.0
  0
LINE
  5
232
330
1F
100
AcDbEntity
  8
0
  6
Continuous
 62
     7
370
    15
100
AcDbLine
 10
125.4903014485
 20
103.3233053951
 30
0.0
 11
123.4903011207
 21
103.3233053951
 31
0.0
  0
LINE
  5
233
330
1F
100
AcDbEntity
  8
0
  6
Continuous
 62
     7
370
    15
100
AcDbLine
 10
123.4903011207
 20
109.8233045979
 30
0.0
 11
125.4903014485
 21
109.8233045979
 31
0.0
  0
LINE
  5
234
330
1F
100
AcDbEntity
  8
0
  6
Continuous
 62
     7
370
    15
100
AcDbLine
 10
125.4903014485
 20
109.8233045979
 30
0.0
 11
125.4903014485
 21
117.3233044303
 31
0.0
  0
LINE
  5
235
330
1F
100
AcDbEntity
  8
0
  6
Continuous
 62
     7
370
    15
100
AcDbLine
 10
125.4903014485
 20
117.3233044303
 30
0.0
 11
123.4903011207
 21
117.3233044303
 31
0.0
  0
LINE
  5
236
330
1F
100
AcDbEntity
  8
0
  6
Continuous
 62
     7
370
    15
100
AcDbLine
 10
123.4903011207
 20
103.3233053951
 30
0.0
 11
123.4903011207
 21
109.8233045979
 31
0.0
  0
LINE
  5
237
330
1F
100
AcDbEntity
  8
0
  6
Continuous
 62
     7
370
    15
100
AcDbLine
 10
127.4903017764
 20
101.8230006068
 30
0.0
 11
127.4903017764
 21
125.1292203289
 31
0.0
  0
LINE
  5
238
330
1F
100
AcDbEntity
  8
0
  6
Continuous
 62
     7
370
    15
100
AcDbLine
 10
123.4903011207
 20
117.3233044303
 30
0.0
 11
123.4903011207
 21
125.1292203289
 31
0.0
  0
LINE
  5
239
330
1F
100
AcDbEntity
  8
0
  6
Continuous
 62
     7
370
    15
100
AcDbLine
 10
109.4903006886
 20
117.3233044303
 30
0.0
 11
109.4903006886
 21
109.8233045979
 31
0.0
  0
LINE
  5
23A
330
1F
100
AcDbEntity
  8
0
  6
Continuous
 62
     7
370
    15
100
AcDbLine
 10
111.4903010164
 20
103.3233053951
 30
0.0
 11
111.4903010164
 21
109.8233045979
 31
0.0
  0
LINE
  5
23B
330
1F
100
AcDbEntity
  8
0
  6
Continuous
 62
     7
370
    15
100
AcDbLine
 10
109.4903006886
 20
103.3233053951
 30
0.0
 11
109.4903006886
 21
101.3233050673
 31
0.0
  0
LINE
  5
23C
330
1F
100
AcDbEntity
  8
0
  6
Continuous
 62
     7
370
    15
100
AcDbLine
 10
107.9899959002
 20
101.3233050673
 30
0.0
 11
109.4903006886
 21
101.3233050673
 31
0.0
  0
ELLIPSE
  5
23D
330
1F
100
AcDbEntity
  8
0
  6
Continuous
 62
     7
370
    15
100
AcDbEllipse
 10
107.990605977
 20
101.8236094193
 30
0.0
 11
0.3539842722995984
 21
0.3539842722995842
 31
0.0
210
0.0
220
0.0
230
0.9999999999999998
 40
0.998782766
 41
2.356803477778024
 42
3.926381829401673
  0
LINE
  5
23E
330
1F
100
AcDbEntity
  8
0
  6
Continuous
 62
     7
370
    15
100
AcDbLine
 10
111.4903010164
 20
103.3233053951
 30
0.0
 11
109.4903006886
 21
103.3233053951
 31
0.0
  0
LINE
  5
23F
330
1F
100
AcDbEntity
  8
0
  6
Continuous
 62
     7
370
    15
100
AcDbLine
 10
111.4903010164
 20
117.3233044303
 30
0.0
 11
109.4903006886
 21
117.3233044303
 31
0.0
  0
LINE
  5
240
330
1F
100
AcDbEntity
  8
0
  6
Continuous
 62
     7
370
    15
100
AcDbLine
 10
109.4903006886
 20
109.8233045979
 30
0.0
 11
111.4903010164
 21
109.8233045979
 31
0.0
  0
LINE
  5
241
330
1F
100
AcDbEntity
  8
0
  6
Continuous
 62
     7
370
    15
100
AcDbLine
 10
107.4903003608
 20
125.1292203289
 30
0.0
 11
107.4903003608
 21
101.8230006068
 31
0.0
  0
LINE
  5
242
330
1F
100
AcDbEntity
  8
0
  6
Continuous
 62
     7
370
    15
100
AcDbLine
 10
111.4903010164
 20
117.3233044303
 30
0.0
 11
111.4903010164
 21
125.1292203289
 31
0.0
  0
LINE
  5
243
330
1F
100
AcDbEntity
  8
0
  6
Continuous
 62
     7
370
    15
100
AcDbLine
 10
118.5370433812
 20
161.6233050792
 30
0.0
 11
124.9903004353
 21
161.6233050792
 31
0.0
  0
LINE
  5
244
330
1F
100
AcDbEntity
  8
0
  6
Continuous
 62
     7
370
    15
100
AcDbLine
 10
109.9903017019
 20
161.6233050792
 30
0.0
 11
116.443558756
 21
161.6233050792
 31
0.0
  0
ELLIPSE
  5
245
330
1F
100
AcDbEntity
  8
0
  6
Continuous
 62
     7
370
    15
100
AcDbEllipse
 10
107.990605977
 20
170.822999875
 30
0.0
 11
0.3539842722995984
 21
-0.3539842722996127
 31
0.0
210
0.0
220
0.0
230
0.9999999999999998
 40
0.998782766
 41
2.356803477777957
 42
3.926381829401768
  0
ELLIPSE
  5
246
330
1F
100
AcDbEntity
  8
0
  6
Continuous
 62
     7
370
    15
100
AcDbEllipse
 10
126.9899964327
 20
170.822999875
 30
0.0
 11
-0.3539842722995984
 21
-0.3539842722996127
 31
0.0
210
0.0
220
0.0
230
0.9999999999999998
 40
0.998782766
 41
2.356803477777802
 42
3.926381829401702
  0
LINE
  5
247
330
1F
100
AcDbEntity
  8
0
  6
Continuous
 62
     7
370
    15
100
AcDbLine
 10
126.9906062369
 20
171.3233053653
 30
0.0
 11
107.9899959002
 21
171.3233053653
 31
0.0
  0
LINE
  5
248
330
1F
100
AcDbEntity
  8
0
  6
Continuous
 62
     7
370
    15
100
AcDbLine
 10
107.4903003608
 20
161.6233050792
 30
0.0
 11
109.9903017019
 21
161.6233050792
 31
0.0
  0
LINE
  5
249
330
1F
100
AcDbEntity
  8
0
  6
Continuous
 62
     7
370
    15
100
AcDbLine
 10
118.5370433812
 20
161.6233050792
 30
0.0
 11
116.443558756
 21
161.6233050792
 31
0.0
  0
LINE
  5
24A
330
1F
100
AcDbEntity
  8
0
  6
Continuous
 62
     7
370
    15
100
AcDbLine
 10
124.9903004353
 20
161.6233050792
 30
0.0
 11
127.4903017764
 21
161.6233050792
 31
0.0
  0
LINE
  5
24B
330
1F
100
AcDbEntity
  8
0
  6
Continuous
 62
     7
370
    15
100
AcDbLine
 10
107.4903003608
 20
170.8236098259
 30
0.0
 11
107.4903003608
 21
161.6233050792
 31
0.0
  0
LINE
  5
24C
330
1F
100
AcDbEntity
  8
0
  6
Continuous
 62
     7
370
    15
100
AcDbLine
 10
127.4903017764
 20
161.6233050792
 30
0.0
 11
127.4903017764
 21
170.8236098259
 31
0.0
  0
LINE
  5
24D
330
1F
100
AcDbEntity
  8
0
  6
Continuous
 62
     7
370
    15
100
AcDbLine
 10
118.4765279029
 20
159.6233047514
 30
0.0
 11
118.5370433812
 21
161.6233050792
 31
0.0
  0
LINE
  5
24E
330
1F
100
AcDbEntity
  8
0
  6
Continuous
 62
     7
370
    15
100
AcDbLine
 10
118.4765279029
 20
159.6233047514
 30
0.0
 11
118.3994721357
 21
159.6233047514
 31
0.0
  0
LINE
  5
24F
330
1F
100
AcDbEntity
  8
0
  6
Continuous
 62
     7
370
    15
100
AcDbLine
 10
118.390300471
 20
161.6233050792
 30
0.0
 11
118.3994721357
 21
159.6233047514
 31
0.0
  0
LINE
  5
250
330
1F
100
AcDbEntity
  8
0
  6
Continuous
 62
     7
370
    15
100
AcDbLine
 10
116.5040742342
 20
159.6233047514
 30
0.0
 11
116.581131864
 21
159.6233047514
 31
0.0
  0
LINE
  5
251
330
1F
100
AcDbEntity
  8
0
  6
Continuous
 62
     7
370
    15
100
AcDbLine
 10
116.443558756
 20
161.6233050792
 30
0.0
 11
116.5040742342
 21
159.6233047514
 31
0.0
  0
LINE
  5
252
330
1F
100
AcDbEntity
  8
0
  6
Continuous
 62
     7
370
    15
100
AcDbLine
 10
116.581131864
 20
159.6233047514
 30
0.0
 11
116.5903016661
 21
161.6233050792
 31
0.0
  0
LINE
  5
253
330
1F
100
AcDbEntity
  8
0
  6
Continuous
 62
     7
370
    15
100
AcDbLine
 10
118.4765279029
 20
159.6233047514
 30
0.0
 11
124.9903004353
 21
159.6233047514
 31
0.0
  0
LINE
  5
254
330
1F
100
AcDbEntity
  8
0
  6
Continuous
 62
     7
370
    15
100
AcDbLine
 10
124.9903004353
 20
161.6233050792
 30
0.0
 11
124.9903004353
 21
159.6233047514
 31
0.0
  0
LINE
  5
255
330
1F
100
AcDbEntity
  8
0
  6
Continuous
 62
     7
370
    15
100
AcDbLine
 10
109.9903017019
 20
159.6233047514
 30
0.0
 11
116.5040742342
 21
159.6233047514
 31
0.0
  0
LINE
  5
256
330
1F
100
AcDbEntity
  8
0
  6
Continuous
 62
     7
370
    15
100
AcDbLine
 10
109.9903017019
 20
161.6233050792
 30
0.0
 11
109.9903017019
 21
159.6233047514
 31
0.0
  0
LINE
  5
257
330
1F
100
AcDbEntity
  8
0
  6
Continuous
 62
     7
370
    15
100
AcDbLine
 10
111.4903010164
 20
126.1855425748
 30
0.0
 11
107.5228482221
 21
126.1855425748
 31
0.0
  0
LINE
  5
258
330
1F
100
AcDbEntity
  8
0
  6
Continuous
 62
     7
370
    15
100
AcDbLine
 10
107.49337
 20
125.3413523284
 30
0.0
 11
107.5228482221
 21
126.1855425748
 31
0.0
  0
LINE
  5
259
330
1F
100
AcDbEntity
  8
0
  6
Continuous
 62
     7
370
    15
100
AcDbLine
 10
111.4903010164
 20
126.1855425748
 30
0.0
 11
111.4903010164
 21
125.3413523284
 31
0.0
  0
LINE
  5
25A
330
1F
100
AcDbEntity
  8
0
  6
Continuous
 62
     7
370
    15
100
AcDbLine
 10
127.457753915
 20
126.1855425748
 30
0.0
 11
123.4903011207
 21
126.1855425748
 31
0.0
  0
LINE
  5
25B
330
1F
100
AcDbEntity
  8
0
  6
Continuous
 62
     7
370
    15
100
AcDbLine
 10
127.457753915
 20
126.1855425748
 30
0.0
 11
127.4872321372
 21
125.3413523284
 31
0.0
  0
LINE
  5
25C
330
1F
100
AcDbEntity
  8
0
  6
Continuous
 62
     7
370
    15
100
AcDbLine
 10
123.4903011207
 20
125.3413523284
 30
0.0
 11
123.4903011207
 21
126.1855425748
 31
0.0
  0
LINE
  5
25D
330
1F
100
AcDbEntity
  8
0
  6
Continuous
 62
     7
370
    15
100
AcDbLine
 10
107.5300752853
 20
126.2733648966
 30
0.0
 11
111.4903010164
 21
126.2733648966
 31
0.0
  0
ELLIPSE
  5
25E
330
1F
100
AcDbEntity
  8
0
  6
Continuous
 62
     7
370
    15
100
AcDbEllipse
 10
107.5302572101
 20
125.9734106048
 30
0.0
 11
0.0
 21
0.2999999999999972
 31
0.0
210
0.0
220
0.0
230
1.0
 40
0.0349207695
 41
0.0174532925196707
 42
0.7853981633975625
  0
LINE
  5
25F
330
1F
100
AcDbEntity
  8
0
  6
Continuous
 62
     7
370
    15
100
AcDbLine
 10
111.4903010164
 20
126.2733648966
 30
0.0
 11
111.4903010164
 21
126.1855425748
 31
0.0
  0
LINE
  5
260
330
1F
100
AcDbEntity
  8
0
  6
Continuous
 62
     7
370
    15
100
AcDbLine
 10
123.4903011207
 20
126.2733648966
 30
0.0
 11
127.4505287145
 21
126.2733648966
 31
0.0
  0
ELLIPSE
  5
261
330
1F
100
AcDbEntity
  8
0
  6
Continuous
 62
     7
370
    15
100
AcDbEllipse
 10
127.4503451996
 20
125.9734106048
 30
0.0
 11
0.0
 21
0.2999999999999972
 31
0.0
210
0.0
220
0.0
230
1.0
 40
0.0349207695
 41
5.497787143782228
 42
6.265732014660327
  0
LINE
  5
262
330
1F
100
AcDbEntity
  8
0
  6
Continuous
 62
     7
370
    15
100
AcDbLine
 10
123.4903011207
 20
126.1855425748
 30
0.0
 11
123.4903011207
 21
126.2733648966
 31
0.0
  0
LINE
  5
263
330
1F
100
AcDbEntity
  8
0
  6
Continuous
 62
     7
370
    15
100
AcDbLine
 10
107.6299838458
 20
126.3233047414
 30
0.0
 11
109.4903006886
 21
126.3233047414
 31
0.0
  0
LINE
  5
264
330
1F
100
AcDbEntity
  8
0
  6
Continuous
 62
     7
370
    15
100
AcDbLine
 10
109.4903006886
 20
126.2835943109
 30
0.0
 11
111.4903010164
 21
126.2835943109
 31
0.0
  0
LINE
  5
265
330
1F
100
AcDbEntity
  8
0
  6
Continuous
 62
     7
370
    15
100
AcDbLine
 10
109.4903006886
 20
126.3233047414
 30
0.0
 11
109.4903006886
 21
126.2835943109
 31
0.0
  0
LINE
  5
266
330
1F
100
AcDbEntity
  8
0
  6
Continuous
 62
     7
370
    15
100
AcDbLine
 10
107.5300752853
 20
126.2733648966
 30
0.0
 11
107.6299838458
 21
126.3233047414
 31
0.0
  0
LINE
  5
267
330
1F
100
AcDbEntity
  8
0
  6
Continuous
 62
     7
370
    15
100
AcDbLine
 10
111.4903010164
 20
126.2835943109
 30
0.0
 11
111.4903010164
 21
126.2733648966
 31
0.0
  0
LINE
  5
268
330
1F
100
AcDbEntity
  8
0
  6
Continuous
 62
     7
370
    15
100
AcDbLine
 10
123.4903011207
 20
126.2835943109
 30
0.0
 11
125.4903014485
 21
126.2835943109
 31
0.0
  0
LINE
  5
269
330
1F
100
AcDbEntity
  8
0
  6
Continuous
 62
     7
370
    15
100
AcDbLine
 10
125.4903014485
 20
126.3233047414
 30
0.0
 11
127.3506182913
 21
126.3233047414
 31
0.0
  0
LINE
  5
26A
330
1F
100
AcDbEntity
  8
0
  6
Continuous
 62
     7
370
    15
100
AcDbLine
 10
125.4903014485
 20
126.2835943109
 30
0.0
 11
125.4903014485
 21
126.3233047414
 31
0.0
  0
LINE
  5
26B
330
1F
100
AcDbEntity
  8
0
  6
Continuous
 62
     7
370
    15
100
AcDbLine
 10
127.4505287145
 20
126.2733648966
 30
0.0
 11
127.3506182913
 21
126.3233047414
 31
0.0
  0
LINE
  5
26C
330
1F
100
AcDbEntity
  8
0
  6
Continuous
 62
     7
370
    15
100
AcDbLine
 10
123.4903011207
 20
126.2733648966
 30
0.0
 11
123.4903011207
 21
126.2835943109
 31
0.0
  0
ARC
  5
26D
330
1F
100
AcDbEntity
  8
0
  6
Continuous
 62
     7
370
    15
100
AcDbCircle
 10
117.7403012048
 20
113.0733046472
 30
0.0
 40
0.9500000000002362
100
AcDbArc
 50
336.8909237508
 51
90.0
  0
LINE
  5
26E
330
1F
100
AcDbEntity
  8
0
  6
Continuous
 62
     7
370
    15
100
AcDbLine
 10
117.7403006439
 20
114.3233044042
 30
0.0
 11
117.7403006439
 21
114.0233049138
 31
0.0
  0
ARC
  5
26F
330
1F
100
AcDbEntity
  8
0
  6
Continuous
 62
     7
370
    15
100
AcDbCircle
 10
117.7403012048
 20
113.0733046472
 30
0.0
 40
1.250000000000001
100
AcDbArc
 50
336.890923751
 51
90.0
  0
LWPOLYLINE
  5
270
330
1F
100
AcDbEntity
  8
0
  6
Continuous
 62
     7
370
    15
100
AcDbPolyline
 90
        9
 70
   128
 43
0.0
 10
118.6140730713
 20
112.700445947
 10
118.6679035161
 20
112.6774748756
 10
118.7196664248
 20
112.6553866981
 10
118.7673706297
 20
112.6350307806
 10
118.8091832881
 20
112.6171875714
 10
118.8434987996
 20
112.6025443866
 10
118.8689965491
 20
112.5916637449
 10
118.8846986477
 20
112.5849638103
 10
118.8899997358
 20
112.5827006965
  0
ARC
  5
271
330
1F
100
AcDbEntity
  8
0
  6
Continuous
 62
     7
370
    15
100
AcDbCircle
 10
117.2403012048
 20
113.0733046472
 30
0.0
 40
0.9500000000002231
100
AcDbArc
 50
90.0
 51
203.1090762492
  0
LINE
  5
272
330
1F
100
AcDbEntity
  8
0
  6
Continuous
 62
     7
370
    15
100
AcDbLine
 10
117.7403006439
 20
114.0233049138
 30
0.0
 11
117.2403014932
 21
114.0233049138
 31
0.0
  0
LINE
  5
273
330
1F
100
AcDbEntity
  8
0
  6
Continuous
 62
     7
370
    15
100
AcDbLine
 10
116.3665290658
 20
112.700445947
 30
0.0
 11
118.6140730713
 21
112.700445947
 31
0.0
  0
LINE
  5
274
330
1F
100
AcDbEntity
  8
0
  6
Continuous
 62
     7
370
    15
100
AcDbLine
 10
118.6140730713
 20
112.700445947
 30
0.0
 11
118.6140730713
 21
112.5978402763
 31
0.0
  0
LINE
  5
275
330
1F
100
AcDbEntity
  8
0
  6
Continuous
 62
     7
370
    15
100
AcDbLine
 10
118.6140730713
 20
112.5978402763
 30
0.0
 11
116.3665290658
 21
112.5978402763
 31
0.0
  0
LINE
  5
276
330
1F
100
AcDbEntity
  8
0
  6
Continuous
 62
     7
370
    15
100
AcDbLine
 10
116.3665290658
 20
112.700445947
 30
0.0
 11
116.3665290658
 21
112.5978402763
 31
0.0
  0
LINE
  5
277
330
1F
100
AcDbEntity
  8
0
  6
Continuous
 62
     7
370
    15
100
AcDbLine
 10
117.2403014932
 20
114.3233044042
 30
0.0
 11
117.7403006439
 21
114.3233044042
 31
0.0
  0
LINE
  5
278
330
1F
100
AcDbEntity
  8
0
  6
Continuous
 62
     7
370
    15
100
AcDbLine
 10
117.2403014932
 20
114.3233044042
 30
0.0
 11
117.2403014932
 21
114.0233049138
 31
0.0
  0
ARC
  5
279
330
1F
100
AcDbEntity
  8
0
  6
Continuous
 62
     7
370
    15
100
AcDbCircle
 10
117.2403012048
 20
113.0733046472
 30
0.0
 40
1.250000000000001
100
AcDbArc
 50
90.0
 51
203.109076249
  0
LWPOLYLINE
  5
27A
330
1F
100
AcDbEntity
  8
0
  6
Continuous
 62
     7
370
    15
100
AcDbPolyline
 90
        9
 70
   128
 43
0.0
 10
116.0906024013
 20
112.5827006965
 10
116.0959034894
 20
112.5849638103
 10
116.111605588
 20
112.5916637449
 10
116.1371033375
 20
112.6025443866
 10
116.1714188491
 20
112.6171875714
 10
116.21323337
 20
112.6350307806
 10
116.2609375749
 20
112.6553866981
 10
116.312698621
 20
112.6774748756
 10
116.3665290658
 20
112.700445947
  0
LWPOLYLINE
  5
27B
330
1F
100
AcDbEntity
  8
0
  6
Continuous
 62
     7
370
    15
100
AcDbPolyline
 90
        9
 70
   128
 43
0.0
 10
118.6140730713
 20
112.5978402763
 10
118.6637907956
 20
112.5807542323
 10
118.7119122331
 20
112.5675164132
 10
118.7568876628
 20
112.5585505708
 10
118.797273535
 20
112.5541444837
 10
118.8317715858
 20
112.5544415756
 10
118.8592716788
 20
112.559431602
 10
118.8788927828
 20
112.568953444
 10
118.8899997358
 20
112.5827006965
  0
LWPOLYLINE
  5
27C
330
1F
100
AcDbEntity
  8
0
  6
Continuous
 62
     7
370
    15
100
AcDbPolyline
 90
        9
 70
   128
 43
0.0
 10
116.0906024013
 20
112.5827006965
 10
116.101711217
 20
112.568953444
 10
116.1213304584
 20
112.559431602
 10
116.1488305513
 20
112.5544415756
 10
116.1833286022
 20
112.5541444837
 10
116.2237144743
 20
112.5585505708
 10
116.2686899041
 20
112.5675164132
 10
116.3168113415
 20
112.5807542323
 10
116.3665290658
 20
112.5978402763
  0
ARC
  5
27D
330
1F
100
AcDbEntity
  8
0
  6
Continuous
 62
     7
370
    15
100
AcDbCircle
 10
117.2403012048
 20
112.9706986042
 30
0.0
 40
0.9500000000000104
100
AcDbArc
 50
203.1090762492
 51
270.0
  0
ARC
  5
27E
330
1F
100
AcDbEntity
  8
0
  6
Continuous
 62
     7
370
    15
100
AcDbCircle
 10
117.7403012048
 20
112.9706986042
 30
0.0
 40
0.950000000000027
100
AcDbArc
 50
270.0
 51
336.8909237508
  0
LINE
  5
27F
330
1F
100
AcDbEntity
  8
0
  6
Continuous
 62
     7
370
    15
100
AcDbLine
 10
117.2403014932
 20
112.0206987455
 30
0.0
 11
117.7403006439
 21
112.0206987455
 31
0.0
  0
LINE
  5
280
330
1F
100
AcDbEntity
  8
0
  6
Continuous
 62
     7
370
    15
100
AcDbLine
 10
117.2403014932
 20
112.0206987455
 30
0.0
 11
117.2403014932
 21
111.8233049258
 31
0.0
  0
ARC
  5
281
330
1F
100
AcDbEntity
  8
0
  6
Continuous
 62
     7
370
    15
100
AcDbCircle
 10
117.2403012048
 20
113.0733046472
 30
0.0
 40
1.250000000000001
100
AcDbArc
 50
203.109076249
 51
270.0
  0
ARC
  5
282
330
1F
100
AcDbEntity
  8
0
  6
Continuous
 62
     7
370
    15
100
AcDbCircle
 10
117.7403012048
 20
113.0733046472
 30
0.0
 40
1.250000000000001
100
AcDbArc
 50
270.0
 51
336.890923751
  0
LINE
  5
283
330
1F
100
AcDbEntity
  8
0
  6
Continuous
 62
     7
370
    15
100
AcDbLine
 10
117.7403006439
 20
112.0206987455
 30
0.0
 11
117.7403006439
 21
111.8233049258
 31
0.0
  0
LINE
  5
284
330
1F
100
AcDbEntity
  8
0
  6
Continuous
 62
     7
370
    15
100
AcDbLine
 10
117.7403006439
 20
111.8233049258
 30
0.0
 11
117.2403014932
 21
111.8233049258
 31
0.0
  0
ARC
  5
285
330
1F
100
AcDbEntity
  8
0
  6
Continuous
 62
     7
370
    15
100
AcDbCircle
 10
125.4903012048
 20
158.1233046472
 30
0.0
 40
0.25
100
AcDbArc
 50
90.0
 51
270.0
  0
LINE
  5
286
330
1F
100
AcDbEntity
  8
0
  6
Continuous
 62
     7
370
    15
100
AcDbLine
 10
125.4903014485
 20
157.8733049302
 30
0.0
 11
125.4903014485
 21
157.373303917
 31
0.0
  0
ARC
  5
287
330
1F
100
AcDbEntity
  8
0
  6
Continuous
 62
     7
370
    15
100
AcDbCircle
 10
125.4903012048
 20
158.1233046472
 30
0.0
 40
0.75
100
AcDbArc
 50
90.0
 51
270.0
  0
LINE
  5
288
330
1F
100
AcDbEntity
  8
0
  6
Continuous
 62
     7
370
    15
100
AcDbLine
 10
125.4903014485
 20
158.3733059435
 30
0.0
 11
125.4903014485
 21
158.8733032315
 31
0.0
  0
ARC
  5
289
330
1F
100
AcDbEntity
  8
0
  6
Continuous
 62
     7
370
    15
100
AcDbCircle
 10
108.9903012048
 20
158.1233046472
 30
0.0
 40
0.25
100
AcDbArc
 50
90.0
 51
270.0
  0
LINE
  5
28A
330
1F
100
AcDbEntity
  8
0
  6
Continuous
 62
     7
370
    15
100
AcDbLine
 10
108.9902996753
 20
157.373303917
 30
0.0
 11
108.9902996753
 21
157.8733049302
 31
0.0
  0
ARC
  5
28B
330
1F
100
AcDbEntity
  8
0
  6
Continuous
 62
     7
370
    15
100
AcDbCircle
 10
108.9903012048
 20
158.1233046472
 30
0.0
 40
0.75
100
AcDbArc
 50
90.0
 51
270.0
  0
LINE
  5
28C
330
1F
100
AcDbEntity
  8
0
  6
Continuous
 62
     7
370
    15
100
AcDbLine
 10
108.9902996753
 20
158.3733059435
 30
0.0
 11
108.9902996753
 21
158.8733032315
 31
0.0
  0
LINE
  5
28D
330
1F
100
AcDbEntity
  8
0
  6
Continuous
 62
     7
370
    15
100
AcDbLine
 10
108.9902996753
 20
157.373303917
 30
0.0
 11
109.4903006886
 21
157.373303917
 31
0.0
  0
LINE
  5
28E
330
1F
100
AcDbEntity
  8
0
  6
Continuous
 62
     7
370
    15
100
AcDbLine
 10
108.9902996753
 20
157.8733049302
 30
0.0
 11
109.4903006886
 21
157.8733049302
 31
0.0
  0
LINE
  5
28F
330
1F
100
AcDbEntity
  8
0
  6
Continuous
 62
     7
370
    15
100
AcDbLine
 10
109.4903006886
 20
157.373303917
 30
0.0
 11
109.4903006886
 21
157.8733049302
 31
0.0
  0
ARC
  5
290
330
1F
100
AcDbEntity
  8
0
  6
Continuous
 62
     7
370
    15
100
AcDbCircle
 10
109.4903012048
 20
158.1233046472
 30
0.0
 40
0.25
100
AcDbArc
 50
270.0
 51
90.0
  0
LINE
  5
291
330
1F
100
AcDbEntity
  8
0
  6
Continuous
 62
     7
370
    15
100
AcDbLine
 10
109.4903006886
 20
158.3733059435
 30
0.0
 11
108.9902996753
 21
158.3733059435
 31
0.0
  0
LINE
  5
292
330
1F
100
AcDbEntity
  8
0
  6
Continuous
 62
     7
370
    15
100
AcDbLine
 10
125.9903005992
 20
158.3733059435
 30
0.0
 11
125.4903014485
 21
158.3733059435
 31
0.0
  0
LINE
  5
293
330
1F
100
AcDbEntity
  8
0
  6
Continuous
 62
     7
370
    15
100
AcDbLine
 10
125.9903005992
 20
158.8733032315
 30
0.0
 11
125.4903014485
 21
158.8733032315
 31
0.0
  0
LINE
  5
294
330
1F
100
AcDbEntity
  8
0
  6
Continuous
 62
     7
370
    15
100
AcDbLine
 10
125.9903005992
 20
158.8733032315
 30
0.0
 11
125.9903005992
 21
158.3733059435
 31
0.0
  0
LINE
  5
295
330
1F
100
AcDbEntity
  8
0
  6
Continuous
 62
     7
370
    15
100
AcDbLine
 10
125.4903014485
 20
157.8733049302
 30
0.0
 11
125.9903005992
 21
157.8733049302
 31
0.0
  0
LINE
  5
296
330
1F
100
AcDbEntity
  8
0
  6
Continuous
 62
     7
370
    15
100
AcDbLine
 10
125.9903005992
 20
157.373303917
 30
0.0
 11
125.9903005992
 21
157.8733049302
 31
0.0
  0
LINE
  5
297
330
1F
100
AcDbEntity
  8
0
  6
Continuous
 62
     7
370
    15
100
AcDbLine
 10
125.4903014485
 20
157.373303917
 30
0.0
 11
125.9903005992
 21
157.373303917
 31
0.0
  0
ARC
  5
298
330
1F
100
AcDbEntity
  8
0
  6
Continuous
 62
     7
370
    15
100
AcDbCircle
 10
125.9903012048
 20
158.1233046472
 30
0.0
 40
0.25
100
AcDbArc
 50
270.0
 51
90.0
  0
ARC
  5
299
330
1F
100
AcDbEntity
  8
0
  6
Continuous
 62
     7
370
    15
100
AcDbCircle
 10
125.9903012048
 20
158.1233046472
 30
0.0
 40
0.75
100
AcDbArc
 50
270.0
 51
90.0
  0
LINE
  5
29A
330
1F
100
AcDbEntity
  8
0
  6
Continuous
 62
     7
370
    15
100
AcDbLine
 10
109.4903006886
 20
158.8733032315
 30
0.0
 11
108.9902996753
 21
158.8733032315
 31
0.0
  0
LINE
  5
29B
330
1F
100
AcDbEntity
  8
0
  6
Continuous
 62
     7
370
    15
100
AcDbLine
 10
109.4903006886
 20
158.3733059435
 30
0.0
 11
109.4903006886
 21
158.8733032315
 31
0.0
  0
ARC
  5
29C
330
1F
100
AcDbEntity
  8
0
  6
Continuous
 62
     7
370
    15
100
AcDbCircle
 10
109.4903012048
 20
158.1233046472
 30
0.0
 40
0.75
100
AcDbArc
 50
270.0
 51
90.0
  0
LINE
  5
29D
330
1F
100
AcDbEntity
  8
0
  6
Continuous
 62
     7
370
    15
100
AcDbLine
 10
125.4903014485
 20
129.4733047455
 30
0.0
 11
125.9903005992
 21
129.4733047455
 31
0.0
  0
LINE
  5
29E
330
1F
100
AcDbEntity
  8
0
  6
Continuous
 62
     7
370
    15
100
AcDbLine
 10
125.9903005992
 20
129.4733047455
 30
0.0
 11
125.9903005992
 21
129.0733044936
 31
0.0
  0
LINE
  5
29F
330
1F
100
AcDbEntity
  8
0
  6
Continuous
 62
     7
370
    15
100
AcDbLine
 10
125.4903014485
 20
129.0733044936
 30
0.0
 11
125.9903005992
 21
129.0733044936
 31
0.0
  0
LINE
  5
2A0
330
1F
100
AcDbEntity
  8
0
  6
Continuous
 62
     7
370
    15
100
AcDbLine
 10
125.4903014485
 20
129.0733044936
 30
0.0
 11
125.4903014485
 21
129.4733047455
 31
0.0
  0
ARC
  5
2A1
330
1F
100
AcDbEntity
  8
0
  6
Continuous
 62
     7
370
    15
100
AcDbCircle
 10
108.9903012048
 20
129.8233046472
 30
0.0
 40
0.75
100
AcDbArc
 50
90.0
 51
270.0
  0
LINE
  5
2A2
330
1F
100
AcDbEntity
  8
0
  6
Continuous
 62
     7
370
    15
100
AcDbLine
 10
108.9902996753
 20
130.5733047395
 30
0.0
 11
108.9902996753
 21
130.1733044877
 31
0.0
  0
ARC
  5
2A3
330
1F
100
AcDbEntity
  8
0
  6
Continuous
 62
     7
370
    15
100
AcDbCircle
 10
108.9903012048
 20
129.8233046472
 30
0.0
 40
0.3500000000000227
100
AcDbArc
 50
90.0
 51
270.0
  0
LINE
  5
2A4
330
1F
100
AcDbEntity
  8
0
  6
Continuous
 62
     7
370
    15
100
AcDbLine
 10
108.9902996753
 20
129.0733044936
 30
0.0
 11
108.9902996753
 21
129.4733047455
 31
0.0
  0
ARC
  5
2A5
330
1F
100
AcDbEntity
  8
0
  6
Continuous
 62
     7
370
    15
100
AcDbCircle
 10
125.9903012048
 20
129.8233046472
 30
0.0
 40
0.3500000000000227
100
AcDbArc
 50
270.0
 51
90.0
  0
LINE
  5
2A6
330
1F
100
AcDbEntity
  8
0
  6
Continuous
 62
     7
370
    15
100
AcDbLine
 10
125.9903005992
 20
130.1733044877
 30
0.0
 11
125.9903005992
 21
130.5733047395
 31
0.0
  0
ARC
  5
2A7
330
1F
100
AcDbEntity
  8
0
  6
Continuous
 62
     7
370
    15
100
AcDbCircle
 10
125.9903012048
 20
129.8233046472
 30
0.0
 40
0.75
100
AcDbArc
 50
270.0
 51
90.0
  0
LINE
  5
2A8
330
1F
100
AcDbEntity
  8
0
  6
Continuous
 62
     7
370
    15
100
AcDbLine
 10
109.4903006886
 20
130.1733044877
 30
0.0
 11
108.9902996753
 21
130.1733044877
 31
0.0
  0
LINE
  5
2A9
330
1F
100
AcDbEntity
  8
0
  6
Continuous
 62
     7
370
    15
100
AcDbLine
 10
109.4903006886
 20
130.5733047395
 30
0.0
 11
108.9902996753
 21
130.5733047395
 31
0.0
  0
LINE
  5
2AA
330
1F
100
AcDbEntity
  8
0
  6
Continuous
 62
     7
370
    15
100
AcDbLine
 10
109.4903006886
 20
130.1733044877
 30
0.0
 11
109.4903006886
 21
130.5733047395
 31
0.0
  0
ARC
  5
2AB
330
1F
100
AcDbEntity
  8
0
  6
Continuous
 62
     7
370
    15
100
AcDbCircle
 10
125.4903012048
 20
129.8233046472
 30
0.0
 40
0.75
100
AcDbArc
 50
90.0
 51
270.0
  0
LINE
  5
2AC
330
1F
100
AcDbEntity
  8
0
  6
Continuous
 62
     7
370
    15
100
AcDbLine
 10
125.4903014485
 20
130.5733047395
 30
0.0
 11
125.4903014485
 21
130.1733044877
 31
0.0
  0
ARC
  5
2AD
330
1F
100
AcDbEntity
  8
0
  6
Continuous
 62
     7
370
    15
100
AcDbCircle
 10
125.4903012048
 20
129.8233046472
 30
0.0
 40
0.3500000000000227
100
AcDbArc
 50
90.0
 51
270.0
  0
LINE
  5
2AE
330
1F
100
AcDbEntity
  8
0
  6
Continuous
 62
     7
370
    15
100
AcDbLine
 10
125.9903005992
 20
130.1733044877
 30
0.0
 11
125.4903014485
 21
130.1733044877
 31
0.0
  0
LINE
  5
2AF
330
1F
100
AcDbEntity
  8
0
  6
Continuous
 62
     7
370
    15
100
AcDbLine
 10
125.9903005992
 20
130.5733047395
 30
0.0
 11
125.4903014485
 21
130.5733047395
 31
0.0
  0
ARC
  5
2B0
330
1F
100
AcDbEntity
  8
0
  6
Continuous
 62
     7
370
    15
100
AcDbCircle
 10
109.4903012048
 20
129.8233046472
 30
0.0
 40
0.3500000000000227
100
AcDbArc
 50
270.0
 51
90.0
  0
ARC
  5
2B1
330
1F
100
AcDbEntity
  8
0
  6
Continuous
 62
     7
370
    15
100
AcDbCircle
 10
109.4903012048
 20
129.8233046472
 30
0.0
 40
0.75
100
AcDbArc
 50
270.0
 51
90.0
  0
LINE
  5
2B2
330
1F
100
AcDbEntity
  8
0
  6
Continuous
 62
     7
370
    15
100
AcDbLine
 10
109.4903006886
 20
129.4733047455
 30
0.0
 11
109.4903006886
 21
129.0733044936
 31
0.0
  0
LINE
  5
2B3
330
1F
100
AcDbEntity
  8
0
  6
Continuous
 62
     7
370
    15
100
AcDbLine
 10
108.9902996753
 20
129.4733047455
 30
0.0
 11
109.4903006886
 21
129.4733047455
 31
0.0
  0
LINE
  5
2B4
330
1F
100
AcDbEntity
  8
0
  6
Continuous
 62
     7
370
    15
100
AcDbLine
 10
108.9902996753
 20
129.0733044936
 30
0.0
 11
109.4903006886
 21
129.0733044936
 31
0.0
  0
LINE
  5
2B5
330
1F
100
AcDbEntity
  8
0
  6
Continuous
 62
     7
370
    15
100
AcDbLine
 10
109.6903003488
 20
109.9425325139
 30
0.0
 11
109.4903006886
 21
109.9425325139
 31
0.0
  0
LINE
  5
2B6
330
1F
100
AcDbEntity
  8
0
  6
Continuous
 62
     7
370
    15
100
AcDbLine
 10
109.4903006886
 20
117.20407698
 30
0.0
 11
109.6903003488
 21
117.20407698
 31
0.0
  0
LINE
  5
2B7
330
1F
100
AcDbEntity
  8
0
  6
Continuous
 62
     7
370
    15
100
AcDbLine
 10
111.6095289324
 20
126.3233047414
 30
0.0
 11
111.6095289324
 21
126.4425324245
 31
0.0
  0
LINE
  5
2B8
330
1F
100
AcDbEntity
  8
0
  6
Continuous
 62
     7
370
    15
100
AcDbLine
 10
111.6095289324
 20
126.4425324245
 30
0.0
 11
109.4903006886
 21
126.4425324245
 31
0.0
  0
LINE
  5
2B9
330
1F
100
AcDbEntity
  8
0
  6
Continuous
 62
     7
370
    15
100
AcDbLine
 10
109.927411351
 20
159.5604144006
 30
0.0
 11
109.927411351
 21
161.6233050792
 31
0.0
  0
LINE
  5
2BA
330
1F
100
AcDbEntity
  8
0
  6
Continuous
 62
     7
370
    15
100
AcDbLine
 10
116.6531901543
 20
159.5604144006
 30
0.0
 11
109.927411351
 21
159.5604144006
 31
0.0
  0
LINE
  5
2BB
330
1F
100
AcDbEntity
  8
0
  6
Continuous
 62
     7
370
    15
100
AcDbLine
 10
116.6531901543
 20
159.5604144006
 30
0.0
 11
116.6531901543
 21
161.6233050792
 31
0.0
  0
LINE
  5
2BC
330
1F
100
AcDbEntity
  8
0
  6
Continuous
 62
     7
370
    15
100
AcDbLine
 10
118.3274119829
 20
161.6233050792
 30
0.0
 11
118.3274119829
 21
159.5604144006
 31
0.0
  0
LINE
  5
2BD
330
1F
100
AcDbEntity
  8
0
  6
Continuous
 62
     7
370
    15
100
AcDbLine
 10
125.0531907861
 20
159.5604144006
 30
0.0
 11
118.3274119829
 21
159.5604144006
 31
0.0
  0
LINE
  5
2BE
330
1F
100
AcDbEntity
  8
0
  6
Continuous
 62
     7
370
    15
100
AcDbLine
 10
125.0531907861
 20
161.6233050792
 30
0.0
 11
125.0531907861
 21
159.5604144006
 31
0.0
  0
LINE
  5
2BF
330
1F
100
AcDbEntity
  8
0
  6
Continuous
 62
     7
370
    15
100
AcDbLine
 10
125.4903014485
 20
126.4425324245
 30
0.0
 11
123.3710732047
 21
126.4425324245
 31
0.0
  0
LINE
  5
2C0
330
1F
100
AcDbEntity
  8
0
  6
Continuous
 62
     7
370
    15
100
AcDbLine
 10
123.3710732047
 20
126.4425324245
 30
0.0
 11
123.3710732047
 21
126.3233047414
 31
0.0
  0
LINE
  5
2C1
330
1F
100
AcDbEntity
  8
0
  6
Continuous
 62
     7
370
    15
100
AcDbLine
 10
125.2903017883
 20
117.20407698
 30
0.0
 11
125.4903014485
 21
117.20407698
 31
0.0
  0
LINE
  5
2C2
330
1F
100
AcDbEntity
  8
0
  6
Continuous
 62
     7
370
    15
100
AcDbLine
 10
125.4903014485
 20
109.9425325139
 30
0.0
 11
125.2903017883
 21
109.9425325139
 31
0.0
  0
LINE
  5
2C3
330
1F
100
AcDbEntity
  8
0
  6
Continuous
 62
     7
370
    15
100
AcDbLine
 10
125.2903017883
 20
103.2040774791
 30
0.0
 11
125.4903014485
 21
103.2040774791
 31
0.0
  0
CIRCLE
  5
2C4
330
1F
100
AcDbEntity
  8
0
  6
Continuous
 62
     7
370
    15
100
AcDbCircle
 10
117.4903012048
 20
144.1233046472
 30
0.0
 40
5.607711865199462
  0
LINE
  5
2C5
330
1F
100
AcDbEntity
  8
0
  6
Continuous
 62
     7
370
    15
100
AcDbLine
 10
109.4903006886
 20
103.2040774791
 30
0.0
 11
109.6903003488
 21
103.2040774791
 31
0.0
  0
LINE
  5
2C6
330
1F
100
AcDbEntity
  8
0
  6
Continuous
 62
     7
370
    15
100
AcDbLine
 10
125.4903014485
 20
101.4629885524
 30
0.0
 11
125.2903017883
 21
101.4629885524
 31
0.0
  0
LINE
  5
2C7
330
1F
100
AcDbEntity
  8
0
  6
Continuous
 62
     7
370
    15
100
AcDbLine
 10
120.662103567
 20
101.4629885524
 30
0.0
 11
114.3156300966
 21
101.4629885524
 31
0.0
  0
LINE
  5
2C8
330
1F
100
AcDbEntity
  8
0
  6
Continuous
 62
     7
370
    15
100
AcDbLine
 10
109.6903003488
 20
101.4629885524
 30
0.0
 11
109.4903006886
 21
101.4629885524
 31
0.0
  0
LINE
  5
2C9
330
1F
100
AcDbEntity
  8
0
  6
Continuous
 62
     7
370
    15
100
AcDbLine
 10
109.4903006886
 20
126.4425324245
 30
0.0
 11
109.4903006886
 21
126.3233047414
 31
0.0
  0
LINE
  5
2CA
330
1F
100
AcDbEntity
  8
0
  6
Continuous
 62
     7
370
    15
100
AcDbLine
 10
125.4903014485
 20
126.4425324245
 30
0.0
 11
125.4903014485
 21
126.3233047414
 31
0.0
  0
LINE
  5
2CB
330
1F
100
AcDbEntity
  8
0
  6
Continuous
 62
     7
370
    15
100
AcDbLine
 10
107.6299838458
 20
126.3233047414
 30
0.0
 11
107.6299838458
 21
161.6233050792
 31
0.0
  0
LINE
  5
2CC
330
1F
100
AcDbEntity
  8
0
  6
Continuous
 62
     7
370
    15
100
AcDbLine
 10
127.3506182913
 20
126.3233047414
 30
0.0
 11
127.3506182913
 21
161.6233050792
 31
0.0
  0
CIRCLE
  5
2CD
330
1F
100
AcDbEntity
  8
0
  6
Continuous
 62
     7
370
    15
100
AcDbCircle
 10
117.4903012048
 20
144.1233046472
 30
0.0
 40
5.307814667706793
  0
CIRCLE
  5
2CE
330
1F
100
AcDbEntity
  8
0
  6
Continuous
 62
     7
370
    15
100
AcDbCircle
 10
117.4903012048
 20
144.1233046472
 30
0.0
 40
5.250000000000014
  0
LINE
  5
2CF
330
1F
100
AcDbEntity
  8
0
  6
Continuous
 62
     8
370
    15
100
AcDbLine
 10
109.7903020416
 20
219.123302397
 30
0.0
 11
109.7903020416
 21
171.3233053653
 31
0.0
  0
LINE
  5
2D0
330
1F
100
AcDbEntity
  8
0
  6
Continuous
 62
     8
370
    15
100
AcDbLine
 10
109.7903020416
 20
126.4425324245
 30
0.0
 11
109.7903020416
 21
126.3233047414
 31
0.0
  0
LINE
  5
2D1
330
1F
100
AcDbEntity
  8
0
  6
Continuous
 62
     8
370
    15
100
AcDbLine
 10
109.7903020416
 20
97.6988043605
 30
0.0
 11
109.7903020416
 21
69.1233038871
 31
0.0
  0
LINE
  5
2D2
330
1F
100
AcDbEntity
  8
0
  6
Continuous
 62
     8
370
    15
100
AcDbLine
 10
109.9660388862
 20
219.123302397
 30
0.0
 11
109.9660388862
 21
171.3233053653
 31
0.0
  0
LINE
  5
2D3
330
1F
100
AcDbEntity
  8
0
  6
Continuous
 62
     8
370
    15
100
AcDbLine
 10
109.9660388862
 20
161.6233050792
 30
0.0
 11
109.9660388862
 21
159.5604144006
 31
0.0
  0
LINE
  5
2D4
330
1F
100
AcDbEntity
  8
0
  6
Continuous
 62
     8
370
    15
100
AcDbLine
 10
109.9660388862
 20
126.4425324245
 30
0.0
 11
109.9660388862
 21
126.3233047414
 31
0.0
  0
LINE
  5
2D5
330
1F
100
AcDbEntity
  8
0
  6
Continuous
 62
     8
370
    15
100
AcDbLine
 10
109.9660388862
 20
97.3099380701
 30
0.0
 11
109.9660388862
 21
69.1233038871
 31
0.0
  0
LINE
  5
2D6
330
1F
100
AcDbEntity
  8
0
  6
Continuous
 62
     8
370
    15
100
AcDbLine
 10
110.1781680916
 20
219.123302397
 30
0.0
 11
110.1781680916
 21
171.3233053653
 31
0.0
  0
LINE
  5
2D7
330
1F
100
AcDbEntity
  8
0
  6
Continuous
 62
     8
370
    15
100
AcDbLine
 10
110.1781680916
 20
159.6233047514
 30
0.0
 11
110.1781680916
 21
159.5604144006
 31
0.0
  0
LINE
  5
2D8
330
1F
100
AcDbEntity
  8
0
  6
Continuous
 62
     8
370
    15
100
AcDbLine
 10
110.1781680916
 20
126.4425324245
 30
0.0
 11
110.1781680916
 21
126.3233047414
 31
0.0
  0
LINE
  5
2D9
330
1F
100
AcDbEntity
  8
0
  6
Continuous
 62
     8
370
    15
100
AcDbLine
 10
110.1781680916
 20
97.0143139332
 30
0.0
 11
110.1781680916
 21
69.1233038871
 31
0.0
  0
LINE
  5
2DA
330
1F
100
AcDbEntity
  8
0
  6
Continuous
 62
     8
370
    15
100
AcDbLine
 10
125.0145651136
 20
219.123302397
 30
0.0
 11
125.0145651136
 21
171.3233053653
 31
0.0
  0
LINE
  5
2DB
330
1F
100
AcDbEntity
  8
0
  6
Continuous
 62
     8
370
    15
100
AcDbLine
 10
125.0145651136
 20
161.6233050792
 30
0.0
 11
125.0145651136
 21
159.5604144006
 31
0.0
  0
LINE
  5
2DC
330
1F
100
AcDbEntity
  8
0
  6
Continuous
 62
     8
370
    15
100
AcDbLine
 10
125.0145651136
 20
126.4425324245
 30
0.0
 11
125.0145651136
 21
126.3233047414
 31
0.0
  0
LINE
  5
2DD
330
1F
100
AcDbEntity
  8
0
  6
Continuous
 62
     8
370
    15
100
AcDbLine
 10
125.0145651136
 20
97.3099380701
 30
0.0
 11
125.0145651136
 21
69.1233038871
 31
0.0
  0
LINE
  5
2DE
330
1F
100
AcDbEntity
  8
0
  6
Continuous
 62
     8
370
    15
100
AcDbLine
 10
125.1903019582
 20
219.123302397
 30
0.0
 11
125.1903019582
 21
171.3233053653
 31
0.0
  0
LINE
  5
2DF
330
1F
100
AcDbEntity
  8
0
  6
Continuous
 62
     8
370
    15
100
AcDbLine
 10
125.1903019582
 20
126.4425324245
 30
0.0
 11
125.1903019582
 21
126.3233047414
 31
0.0
  0
LINE
  5
2E0
330
1F
100
AcDbEntity
  8
0
  6
Continuous
 62
     8
370
    15
100
AcDbLine
 10
125.1903019582
 20
97.6988043605
 30
0.0
 11
125.1903019582
 21
69.1233038871
 31
0.0
  0
LINE
  5
2E1
330
1F
100
AcDbEntity
  8
0
  6
Continuous
 62
     8
370
    15
100
AcDbLine
 10
124.8024340455
 20
219.123302397
 30
0.0
 11
124.8024340455
 21
171.3233053653
 31
0.0
  0
LINE
  5
2E2
330
1F
100
AcDbEntity
  8
0
  6
Continuous
 62
     8
370
    15
100
AcDbLine
 10
124.8024340455
 20
159.6233047514
 30
0.0
 11
124.8024340455
 21
159.5604144006
 31
0.0
  0
LINE
  5
2E3
330
1F
100
AcDbEntity
  8
0
  6
Continuous
 62
     8
370
    15
100
AcDbLine
 10
124.8024340455
 20
126.4425324245
 30
0.0
 11
124.8024340455
 21
126.3233047414
 31
0.0
  0
LINE
  5
2E4
330
1F
100
AcDbEntity
  8
0
  6
Continuous
 62
     8
370
    15
100
AcDbLine
 10
124.8024340455
 20
97.0143139332
 30
0.0
 11
124.8024340455
 21
69.1233038871
 31
0.0
  0
LINE
  5
2E5
330
1F
100
AcDbEntity
  8
0
  6
Continuous
 62
     8
370
    15
100
AcDbLine
 10
110.9024315809
 20
219.123302397
 30
0.0
 11
110.9024315809
 21
171.3233053653
 31
0.0
  0
LINE
  5
2E6
330
1F
100
AcDbEntity
  8
0
  6
Continuous
 62
     8
370
    15
100
AcDbLine
 10
110.9024315809
 20
159.6233047514
 30
0.0
 11
110.9024315809
 21
159.5604144006
 31
0.0
  0
LINE
  5
2E7
330
1F
100
AcDbEntity
  8
0
  6
Continuous
 62
     8
370
    15
100
AcDbLine
 10
110.9024315809
 20
126.4425324245
 30
0.0
 11
110.9024315809
 21
126.3233047414
 31
0.0
  0
LINE
  5
2E8
330
1F
100
AcDbEntity
  8
0
  6
Continuous
 62
     8
370
    15
100
AcDbLine
 10
110.9024315809
 20
96.4850265502
 30
0.0
 11
110.9024315809
 21
69.1233038871
 31
0.0
  0
LINE
  5
2E9
330
1F
100
AcDbEntity
  8
0
  6
Continuous
 62
     8
370
    15
100
AcDbLine
 10
124.0781686936
 20
219.123302397
 30
0.0
 11
124.0781686936
 21
171.3233053653
 31
0.0
  0
LINE
  5
2EA
330
1F
100
AcDbEntity
  8
0
  6
Continuous
 62
     8
370
    15
100
AcDbLine
 10
124.0781686936
 20
159.6233047514
 30
0.0
 11
124.0781686936
 21
159.5604144006
 31
0.0
  0
LINE
  5
2EB
330
1F
100
AcDbEntity
  8
0
  6
Continuous
 62
     8
370
    15
100
AcDbLine
 10
124.0781686936
 20
126.4425324245
 30
0.0
 11
124.0781686936
 21
126.3233047414
 31
0.0
  0
LINE
  5
2EC
330
1F
100
AcDbEntity
  8
0
  6
Continuous
 62
     8
370
    15
100
AcDbLine
 10
124.0781686936
 20
96.4850265502
 30
0.0
 11
124.0781686936
 21
69.1233038871
 31
0.0
  0
LINE
  5
2ED
330
1F
100
AcDbEntity
  8
0
  6
Continuous
 62
     8
370
    15
100
AcDbLine
 10
114.1370881085
 20
219.123302397
 30
0.0
 11
114.1370881085
 21
171.3233053653
 31
0.0
  0
LINE
  5
2EE
330
1F
100
AcDbEntity
  8
0
  6
Continuous
 62
     8
370
    15
100
AcDbLine
 10
114.1370881085
 20
159.6233047514
 30
0.0
 11
114.1370881085
 21
159.5604144006
 31
0.0
  0
LINE
  5
2EF
330
1F
100
AcDbEntity
  8
0
  6
Continuous
 62
     8
370
    15
100
AcDbLine
 10
114.1370881085
 20
101.1705346375
 30
0.0
 11
114.1370881085
 21
99.3233047395
 31
0.0
  0
LINE
  5
2F0
330
1F
100
AcDbEntity
  8
0
  6
Continuous
 62
     8
370
    15
100
AcDbLine
 10
114.1370881085
 20
96.3233042478
 30
0.0
 11
114.1370881085
 21
69.1233038871
 31
0.0
  0
LINE
  5
2F1
330
1F
100
AcDbEntity
  8
0
  6
Continuous
 62
     8
370
    15
100
AcDbLine
 10
120.8435140286
 20
219.123302397
 30
0.0
 11
120.8435140286
 21
171.3233053653
 31
0.0
  0
LINE
  5
2F2
330
1F
100
AcDbEntity
  8
0
  6
Continuous
 62
     8
370
    15
100
AcDbLine
 10
120.8435140286
 20
159.6233047514
 30
0.0
 11
120.8435140286
 21
159.5604144006
 31
0.0
  0
LINE
  5
2F3
330
1F
100
AcDbEntity
  8
0
  6
Continuous
 62
     8
370
    15
100
AcDbLine
 10
120.8435140286
 20
101.178709787
 30
0.0
 11
120.8435140286
 21
99.3233047395
 31
0.0
  0
LINE
  5
2F4
330
1F
100
AcDbEntity
  8
0
  6
Continuous
 62
     8
370
    15
100
AcDbLine
 10
120.8435140286
 20
96.3233042478
 30
0.0
 11
120.8435140286
 21
69.1233038871
 31
0.0
  0
LINE
  5
2F5
330
1F
100
AcDbEntity
  8
0
  6
Continuous
 62
     8
370
    15
100
AcDbLine
 10
113.7835338448
 20
219.123302397
 30
0.0
 11
113.7835338448
 21
171.3233053653
 31
0.0
  0
LINE
  5
2F6
330
1F
100
AcDbEntity
  8
0
  6
Continuous
 62
     8
370
    15
100
AcDbLine
 10
113.7835338448
 20
159.6233047514
 30
0.0
 11
113.7835338448
 21
159.5604144006
 31
0.0
  0
LINE
  5
2F7
330
1F
100
AcDbEntity
  8
0
  6
Continuous
 62
     8
370
    15
100
AcDbLine
 10
113.7835338448
 20
100.9189359813
 30
0.0
 11
113.7835338448
 21
99.3233047395
 31
0.0
  0
LINE
  5
2F8
330
1F
100
AcDbEntity
  8
0
  6
Continuous
 62
     8
370
    15
100
AcDbLine
 10
113.7835338448
 20
96.3233042478
 30
0.0
 11
113.7835338448
 21
69.1233038871
 31
0.0
  0
LINE
  5
2F9
330
1F
100
AcDbEntity
  8
0
  6
Continuous
 62
     8
370
    15
100
AcDbLine
 10
121.1970682923
 20
219.123302397
 30
0.0
 11
121.1970682923
 21
171.3233053653
 31
0.0
  0
LINE
  5
2FA
330
1F
100
AcDbEntity
  8
0
  6
Continuous
 62
     8
370
    15
100
AcDbLine
 10
121.1970682923
 20
159.6233047514
 30
0.0
 11
121.1970682923
 21
159.5604144006
 31
0.0
  0
LINE
  5
2FB
330
1F
100
AcDbEntity
  8
0
  6
Continuous
 62
     8
370
    15
100
AcDbLine
 10
121.1970682923
 20
100.9136870473
 30
0.0
 11
121.1970682923
 21
99.3233047395
 31
0.0
  0
LINE
  5
2FC
330
1F
100
AcDbEntity
  8
0
  6
Continuous
 62
     8
370
    15
100
AcDbLine
 10
121.1970682923
 20
96.3233042478
 30
0.0
 11
121.1970682923
 21
69.1233038871
 31
0.0
  0
LINE
  5
2FD
330
1F
100
AcDbEntity
  8
0
  6
Continuous
 62
     8
370
    15
100
AcDbLine
 10
111.5024342869
 20
219.123302397
 30
0.0
 11
111.5024342869
 21
171.3233053653
 31
0.0
  0
LINE
  5
2FE
330
1F
100
AcDbEntity
  8
0
  6
Continuous
 62
     8
370
    15
100
AcDbLine
 10
111.5024342869
 20
159.6233047514
 30
0.0
 11
111.5024342869
 21
159.5604144006
 31
0.0
  0
LINE
  5
2FF
330
1F
100
AcDbEntity
  8
0
  6
Continuous
 62
     8
370
    15
100
AcDbLine
 10
111.5024342869
 20
126.4425324245
 30
0.0
 11
111.5024342869
 21
126.3233047414
 31
0.0
  0
LINE
  5
300
330
1F
100
AcDbEntity
  8
0
  6
Continuous
 62
     8
370
    15
100
AcDbLine
 10
111.5024342869
 20
96.3321480869
 30
0.0
 11
111.5024342869
 21
69.1233038871
 31
0.0
  0
LINE
  5
301
330
1F
100
AcDbEntity
  8
0
  6
Continuous
 62
     8
370
    15
100
AcDbLine
 10
123.4781697129
 20
219.123302397
 30
0.0
 11
123.4781697129
 21
171.3233053653
 31
0.0
  0
LINE
  5
302
330
1F
100
AcDbEntity
  8
0
  6
Continuous
 62
     8
370
    15
100
AcDbLine
 10
123.4781697129
 20
159.6233047514
 30
0.0
 11
123.4781697129
 21
159.5604144006
 31
0.0
  0
LINE
  5
303
330
1F
100
AcDbEntity
  8
0
  6
Continuous
 62
     8
370
    15
100
AcDbLine
 10
123.4781697129
 20
126.4425324245
 30
0.0
 11
123.4781697129
 21
126.3233047414
 31
0.0
  0
LINE
  5
304
330
1F
100
AcDbEntity
  8
0
  6
Continuous
 62
     8
370
    15
100
AcDbLine
 10
123.4781697129
 20
96.3321480869
 30
0.0
 11
123.4781697129
 21
69.1233038871
 31
0.0
  0
DIMENSION
  5
305
330
1F
100
AcDbEntity
  8
0
  6
Continuous
 62
     7
370
     0
100
AcDbDimension
  2
*D7
 10
125.4903012048
 20
229.1233046472
 30
0.0
 11
117.1542372771
 21
229.1233046472
 31
0.0
 70
   160
 71
     2
 42
-1.0
  3
SLDDIMSTYLE0
100
AcDbAlignedDimension
 13
109.4903012048
 23
219.1233046472
 33
0.0
 14
125.4903012048
 24
219.1233046472
 34
0.0
100
AcDbRotatedDimension
  0
DIMENSION
  5
30F
330
1F
100
AcDbEntity
  8
0
  6
Continuous
 62
     7
370
     0
100
AcDbDimension
  2
*D8
 10
127.4903012048
 20
236.0737156639
 30
0.0
 11
117.1542372771
 21
236.0737156639
 31
0.0
 70
   160
 71
     2
 42
-1.0
  3
SLDDIMSTYLE0
100
AcDbAlignedDimension
 13
107.4903012048
 23
170.8236092337
 33
0.0
 14
127.4903012048
 24
170.8236092337
 34
0.0
100
AcDbRotatedDimension
  0
LINE
  5
319
330
1F
100
AcDbEntity
  8
0
  6
Continuous
 62
     7
370
    15
100
AcDbLine
 10
280.7148757439
 20
194.1233038871
 30
0.0
 11
280.7148757439
 21
204.123301801
 31
0.0
  0
LINE
  5
31A
330
1F
100
AcDbEntity
  8
0
  6
Continuous
 62
     7
370
    15
100
AcDbLine
 10
275.5151658367
 20
194.1233038871
 30
0.0
 11
275.5151658367
 21
204.123301801
 31
0.0
  0
CIRCLE
  5
31B
330
1F
100
AcDbEntity
  8
0
  6
Continuous
 62
     7
370
    15
100
AcDbCircle
 10
278.115020654
 20
199.1233046472
 30
0.0
 40
1.249999999999972
  0
LINE
  5
31C
330
1F
100
AcDbEntity
  8
0
  6
Continuous
 62
     7
370
    15
100
AcDbLine
 10
280.7148757439
 20
194.1233038871
 30
0.0
 11
275.5151658367
 21
194.1233038871
 31
0.0
  0
LINE
  5
31D
330
1F
100
AcDbEntity
  8
0
  6
Continuous
 62
     7
370
    15
100
AcDbLine
 10
280.7148757439
 20
204.123301801
 30
0.0
 11
275.5151658367
 21
204.123301801
 31
0.0
  0
LINE
  5
31E
330
1F
100
AcDbEntity
  8
0
  6
Continuous
 62
     7
370
    15
100
AcDbLine
 10
281.0148752343
 20
194.1233038871
 30
0.0
 11
281.0148752343
 21
204.123301801
 31
0.0
  0
LINE
  5
31F
330
1F
100
AcDbEntity
  8
0
  6
Continuous
 62
     7
370
    15
100
AcDbLine
 10
281.0148752343
 20
194.1233038871
 30
0.0
 11
280.7148757439
 21
194.1233038871
 31
0.0
  0
LINE
  5
320
330
1F
100
AcDbEntity
  8
0
  6
Continuous
 62
     7
370
    15
100
AcDbLine
 10
281.0148752343
 20
204.123301801
 30
0.0
 11
280.7148757439
 21
204.123301801
 31
0.0
  0
LINE
  5
321
330
1F
100
AcDbEntity
  8
0
  6
Continuous
 62
     7
370
    15
100
AcDbLine
 10
275.2151663463
 20
194.1233038871
 30
0.0
 11
275.2151663463
 21
204.123301801
 31
0.0
  0
LINE
  5
322
330
1F
100
AcDbEntity
  8
0
  6
Continuous
 62
     7
370
    15
100
AcDbLine
 10
275.5151658367
 20
194.1233038871
 30
0.0
 11
275.2151663463
 21
194.1233038871
 31
0.0
  0
LINE
  5
323
330
1F
100
AcDbEntity
  8
0
  6
Continuous
 62
     7
370
    15
100
AcDbLine
 10
275.5151658367
 20
204.123301801
 30
0.0
 11
275.2151663463
 21
204.123301801
 31
0.0
  0
LINE
  5
324
330
1F
100
AcDbEntity
  8
0
  6
Continuous
 62
     7
370
    15
100
AcDbLine
 10
281.1150203507
 20
194.1233038871
 30
0.0
 11
281.0148752343
 21
194.1233038871
 31
0.0
  0
LINE
  5
325
330
1F
100
AcDbEntity
  8
0
  6
Continuous
 62
     7
370
    15
100
AcDbLine
 10
281.1150203507
 20
204.123301801
 30
0.0
 11
281.0148752343
 21
204.123301801
 31
0.0
  0
LINE
  5
326
330
1F
100
AcDbEntity
  8
0
  6
Continuous
 62
     7
370
    15
100
AcDbLine
 10
275.2151663463
 20
194.1233038871
 30
0.0
 11
275.1150212299
 21
194.1233038871
 31
0.0
  0
LINE
  5
327
330
1F
100
AcDbEntity
  8
0
  6
Continuous
 62
     7
370
    15
100
AcDbLine
 10
275.2151663463
 20
204.123301801
 30
0.0
 11
275.1150212299
 21
204.123301801
 31
0.0
  0
LINE
  5
328
330
1F
100
AcDbEntity
  8
0
  6
Continuous
 62
     7
370
    15
100
AcDbLine
 10
280.7148757439
 20
84.1233044832
 30
0.0
 11
280.7148757439
 21
94.1233042597
 31
0.0
  0
LINE
  5
329
330
1F
100
AcDbEntity
  8
0
  6
Continuous
 62
     7
370
    15
100
AcDbLine
 10
275.5151658367
 20
84.1233044832
 30
0.0
 11
275.5151658367
 21
94.1233042597
 31
0.0
  0
CIRCLE
  5
32A
330
1F
100
AcDbEntity
  8
0
  6
Continuous
 62
     7
370
    15
100
AcDbCircle
 10
278.115020654
 20
89.1233046472
 30
0.0
 40
1.249999999999986
  0
LINE
  5
32B
330
1F
100
AcDbEntity
  8
0
  6
Continuous
 62
     7
370
    15
100
AcDbLine
 10
280.7148757439
 20
84.1233044832
 30
0.0
 11
275.5151658367
 21
84.1233044832
 31
0.0
  0
LINE
  5
32C
330
1F
100
AcDbEntity
  8
0
  6
Continuous
 62
     7
370
    15
100
AcDbLine
 10
280.7148757439
 20
94.1233042597
 30
0.0
 11
275.5151658367
 21
94.1233042597
 31
0.0
  0
LINE
  5
32D
330
1F
100
AcDbEntity
  8
0
  6
Continuous
 62
     7
370
    15
100
AcDbLine
 10
281.0148752343
 20
84.1233044832
 30
0.0
 11
281.0148752343
 21
94.1233042597
 31
0.0
  0
LINE
  5
32E
330
1F
100
AcDbEntity
  8
0
  6
Continuous
 62
     7
370
    15
100
AcDbLine
 10
281.0148752343
 20
84.1233044832
 30
0.0
 11
280.7148757439
 21
84.1233044832
 31
0.0
  0
LINE
  5
32F
330
1F
100
AcDbEntity
  8
0
  6
Continuous
 62
     7
370
    15
100
AcDbLine
 10
281.0148752343
 20
94.1233042597
 30
0.0
 11
280.7148757439
 21
94.1233042597
 31
0.0
  0
LINE
  5
330
330
1F
100
AcDbEntity
  8
0
  6
Continuous
 62
     7
370
    15
100
AcDbLine
 10
275.2151663463
 20
84.1233044832
 30
0.0
 11
275.2151663463
 21
94.1233042597
 31
0.0
  0
LINE
  5
331
330
1F
100
AcDbEntity
  8
0
  6
Continuous
 62
     7
370
    15
100
AcDbLine
 10
275.5151658367
 20
84.1233044832
 30
0.0
 11
275.2151663463
 21
84.1233044832
 31
0.0
  0
LINE
  5
332
330
1F
100
AcDbEntity
  8
0
  6
Continuous
 62
     7
370
    15
100
AcDbLine
 10
275.5151658367
 20
94.1233042597
 30
0.0
 11
275.2151663463
 21
94.1233042597
 31
0.0
  0
LINE
  5
333
330
1F
100
AcDbEntity
  8
0
  6
Continuous
 62
     7
370
    15
100
AcDbLine
 10
281.1150203507
 20
84.1233044832
 30
0.0
 11
281.0148752343
 21
84.1233044832
 31
0.0
  0
LINE
  5
334
330
1F
100
AcDbEntity
  8
0
  6
Continuous
 62
     7
370
    15
100
AcDbLine
 10
281.1150203507
 20
94.1233042597
 30
0.0
 11
281.0148752343
 21
94.1233042597
 31
0.0
  0
LINE
  5
335
330
1F
100
AcDbEntity
  8
0
  6
Continuous
 62
     7
370
    15
100
AcDbLine
 10
275.2151663463
 20
84.1233044832
 30
0.0
 11
275.1150212299
 21
84.1233044832
 31
0.0
  0
LINE
  5
336
330
1F
100
AcDbEntity
  8
0
  6
Continuous
 62
     7
370
    15
100
AcDbLine
 10
275.2151663463
 20
94.1233042597
 30
0.0
 11
275.1150212299
 21
94.1233042597
 31
0.0
  0
LINE
  5
337
330
1F
100
AcDbEntity
  8
0
  6
Continuous
 62
     7
370
    15
100
AcDbLine
 10
275.1150212299
 20
94.3233039199
 30
0.0
 11
281.1150203507
 21
94.3233039199
 31
0.0
  0
LINE
  5
338
330
1F
100
AcDbEntity
  8
0
  6
Continuous
 62
     7
370
    15
100
AcDbLine
 10
275.1150212299
 20
95.423303914
 30
0.0
 11
281.1150203507
 21
95.423303914
 31
0.0
  0
LINE
  5
339
330
1F
100
AcDbEntity
  8
0
  6
Continuous
 62
     7
370
    15
100
AcDbLine
 10
275.1150212299
 20
83.9233048229
 30
0.0
 11
281.1150203507
 21
83.9233048229
 31
0.0
  0
LINE
  5
33A
330
1F
100
AcDbEntity
  8
0
  6
Continuous
 62
     7
370
    15
100
AcDbLine
 10
275.1150212299
 20
82.8233048289
 30
0.0
 11
281.1150203507
 21
82.8233048289
 31
0.0
  0
SPLINE
  5
33B
330
1F
100
AcDbEntity
  8
0
  6
Continuous
 62
     7
370
    15
100
AcDbSpline
210
0.0
220
0.0
230
1.0
 70
     8
 71
     3
 72
     9
 73
     5
 74
     0
 42
0.00000001
 43
0.00000001
 40
0.0
 40
0.0
 40
0.0
 40
0.0
 40
0.6311115944913283
 40
1.0
 40
1.0
 40
1.0
 40
1.0
 10
278.5150210421281
 20
83.92330482294251
 30
0.0
 10
278.5121458209118
 20
83.96864249678023
 30
0.0
 10
278.507590016136
 20
84.04048030523354
 30
0.0
 10
278.4688720074099
 20
84.1009850020585
 30
0.0
 10
278.4545893829064
 20
84.12330448319604
 30
0.0
  0
SPLINE
  5
33C
330
1F
100
AcDbEntity
  8
0
  6
Continuous
 62
     7
370
    15
100
AcDbSpline
210
0.0
220
0.0
230
1.0
 70
     8
 71
     3
 72
     9
 73
     5
 74
     0
 42
0.00000001
 43
0.00000001
 40
0.0
 40
0.0
 40
0.0
 40
0.0
 40
0.5354710898245404
 40
0.9999999999999999
 40
0.9999999999999999
 40
0.9999999999999999
 40
0.9999999999999999
 10
277.7719671886163
 20
84.12330448319604
 30
0.0
 10
277.7541314123556
 20
84.08957536103395
 30
0.0
 10
277.7208228423888
 20
84.02658573787217
 30
0.0
 10
277.7168609513809
 20
83.95606414269433
 30
0.0
 10
277.7150205384688
 20
83.92330482294251
 30
0.0
  0
SPLINE
  5
33D
330
1F
100
AcDbEntity
  8
0
  6
Continuous
 62
     7
370
    15
100
AcDbSpline
210
0.0
220
0.0
230
1.0
 70
     8
 71
     3
 72
    10
 73
     6
 74
     0
 42
0.00000001
 43
0.00000001
 40
0.0
 40
0.0
 40
0.0
 40
0.0
 40
0.1794853128268926
 40
0.8332532491409163
 40
1.0
 40
1.0
 40
1.0
 40
1.0
 10
277.7150205384688
 20
94.32330391993214
 30
0.0
 10
277.7154690714938
 20
94.31074545405666
 30
0.0
 10
277.7175513677803
 20
94.25244328810136
 30
0.0
 10
277.7315450221796
 20
94.17943031991621
 30
0.0
 10
277.7667499240624
 20
94.13278385426483
 30
0.0
 10
277.7739043395715
 20
94.12330425967862
 30
0.0
  0
SPLINE
  5
33E
330
1F
100
AcDbEntity
  8
0
  6
Continuous
 62
     7
370
    15
100
AcDbSpline
210
0.0
220
0.0
230
1.0
 70
     8
 71
     3
 72
    10
 73
     6
 74
     0
 42
0.00000001
 43
0.00000001
 40
0.0
 40
0.0
 40
0.0
 40
0.0
 40
0.3402069172633229
 40
0.9786677987016356
 40
1.0
 40
1.0
 40
1.0
 40
1.0
 10
278.4550736706452
 20
94.12330425967862
 30
0.0
 10
278.4681274420865
 20
94.14375441173894
 30
0.0
 10
278.5056790176512
 20
94.202583037156
 30
0.0
 10
278.514808220968
 20
94.275447082467
 30
0.0
 10
278.5150143767701
 20
94.32180508893256
 30
0.0
 10
278.5150210421281
 20
94.32330391993214
 30
0.0
  0
LINE
  5
33F
330
1F
100
AcDbEntity
  8
0
  6
Continuous
 62
     7
370
    15
100
AcDbLine
 10
275.1150212299
 20
204.3233051865
 30
0.0
 11
281.1150203507
 21
204.3233051865
 31
0.0
  0
LINE
  5
340
330
1F
100
AcDbEntity
  8
0
  6
Continuous
 62
     7
370
    15
100
AcDbLine
 10
275.1150212299
 20
205.4233014553
 30
0.0
 11
281.1150203507
 21
205.4233014553
 31
0.0
  0
LINE
  5
341
330
1F
100
AcDbEntity
  8
0
  6
Continuous
 62
     7
370
    15
100
AcDbLine
 10
275.1150212299
 20
192.8233042329
 30
0.0
 11
281.1150203507
 21
192.8233042329
 31
0.0
  0
LINE
  5
342
330
1F
100
AcDbEntity
  8
0
  6
Continuous
 62
     7
370
    15
100
AcDbLine
 10
275.1150212299
 20
193.9233079522
 30
0.0
 11
281.1150203507
 21
193.9233079522
 31
0.0
  0
SPLINE
  5
343
330
1F
100
AcDbEntity
  8
0
  6
Continuous
 62
     7
370
    15
100
AcDbSpline
210
0.0
220
0.0
230
1.0
 70
     8
 71
     3
 72
     9
 73
     5
 74
     0
 42
0.00000001
 43
0.00000001
 40
0.0
 40
0.0
 40
0.0
 40
0.0
 40
0.6311054880437255
 40
1.0
 40
1.0
 40
1.0
 40
1.0
 10
278.5150210421281
 20
193.9233079521864
 30
0.0
 10
278.5121455967266
 20
193.9686443011832
 30
0.0
 10
278.5075893926434
 20
194.0404807054861
 30
0.0
 10
278.4688720121045
 20
194.1009844045952
 30
0.0
 10
278.4545893829064
 20
194.1233038871496
 30
0.0
  0
SPLINE
  5
344
330
1F
100
AcDbEntity
  8
0
  6
Continuous
 62
     7
370
    15
100
AcDbSpline
210
0.0
220
0.0
230
1.0
 70
     8
 71
     3
 72
     9
 73
     5
 74
     0
 42
0.00000001
 43
0.00000001
 40
0.0
 40
0.0
 40
0.0
 40
0.0
 40
0.5354800759840217
 40
1.0
 40
1.0
 40
1.0
 40
1.0
 10
277.7719671886163
 20
194.1233038871496
 30
0.0
 10
277.7541314093417
 20
194.0895747530324
 30
0.0
 10
277.7208233927141
 20
194.026586164605
 30
0.0
 10
277.7168611016246
 20
193.9560659820353
 30
0.0
 10
277.7150205384688
 20
193.9233079521864
 30
0.0
  0
SPLINE
  5
345
330
1F
100
AcDbEntity
  8
0
  6
Continuous
 62
     7
370
    15
100
AcDbSpline
210
0.0
220
0.0
230
1.0
 70
     8
 71
     3
 72
    10
 73
     6
 74
     0
 42
0.00000001
 43
0.00000001
 40
0.0
 40
0.0
 40
0.0
 40
0.0
 40
0.1794995038313388
 40
0.833241800355357
 40
1.0
 40
1.0
 40
1.0
 40
1.0
 10
277.7150205384688
 20
204.3233051865309
 30
0.0
 10
277.7154689877282
 20
204.3107454447585
 30
0.0
 10
277.7175507019407
 20
204.2524427663498
 30
0.0
 10
277.7315482155387
 20
204.1794313929873
 30
0.0
 10
277.76674995236
 20
204.1327826693232
 30
0.0
 10
277.7739043395715
 20
204.123301800987
 30
0.0
  0
SPLINE
  5
346
330
1F
100
AcDbEntity
  8
0
  6
Continuous
 62
     7
370
    15
100
AcDbSpline
210
0.0
220
0.0
230
1.0
 70
     8
 71
     3
 72
    10
 73
     6
 74
     0
 42
0.00000001
 43
0.00000001
 40
0.0
 40
0.0
 40
0.0
 40
0.0
 40
0.3402089131391485
 40
0.9786597452575383
 40
1.0
 40
1.0
 40
1.0
 40
1.0
 10
278.4550736706452
 20
204.123301800987
 30
0.0
 10
278.4681274256455
 20
204.1437526418071
 30
0.0
 10
278.5056784246048
 20
204.2025824193184
 30
0.0
 10
278.5148083552546
 20
204.2754461600892
 30
0.0
 10
278.5150143785203
 20
204.3218057344375
 30
0.0
 10
278.5150210421281
 20
204.3233051865309
 30
0.0
  0
LINE
  5
347
330
1F
100
AcDbEntity
  8
0
  6
Continuous
 62
     7
370
    15
100
AcDbLine
 10
281.0148752343
 20
139.1233041852
 30
0.0
 11
281.0148752343
 21
149.1233039617
 31
0.0
  0
LINE
  5
348
330
1F
100
AcDbEntity
  8
0
  6
Continuous
 62
     7
370
    15
100
AcDbLine
 10
280.7148757439
 20
139.1233041852
 30
0.0
 11
280.7148757439
 21
149.1233039617
 31
0.0
  0
LINE
  5
349
330
1F
100
AcDbEntity
  8
0
  6
Continuous
 62
     7
370
    15
100
AcDbLine
 10
281.0148752343
 20
149.1233039617
 30
0.0
 11
280.7148757439
 21
149.1233039617
 31
0.0
  0
LINE
  5
34A
330
1F
100
AcDbEntity
  8
0
  6
Continuous
 62
     7
370
    15
100
AcDbLine
 10
281.0148752343
 20
139.1233041852
 30
0.0
 11
280.7148757439
 21
139.1233041852
 31
0.0
  0
LINE
  5
34B
330
1F
100
AcDbEntity
  8
0
  6
Continuous
 62
     7
370
    15
100
AcDbLine
 10
275.5151658367
 20
139.1233041852
 30
0.0
 11
275.5151658367
 21
149.1233039617
 31
0.0
  0
CIRCLE
  5
34C
330
1F
100
AcDbEntity
  8
0
  6
Continuous
 62
     7
370
    15
100
AcDbCircle
 10
278.115020654
 20
144.1233046472
 30
0.0
 40
1.650000000000006
  0
LINE
  5
34D
330
1F
100
AcDbEntity
  8
0
  6
Continuous
 62
     7
370
    15
100
AcDbLine
 10
280.7148757439
 20
149.1233039617
 30
0.0
 11
275.5151658367
 21
149.1233039617
 31
0.0
  0
LINE
  5
34E
330
1F
100
AcDbEntity
  8
0
  6
Continuous
 62
     7
370
    15
100
AcDbLine
 10
280.7148757439
 20
139.1233041852
 30
0.0
 11
275.5151658367
 21
139.1233041852
 31
0.0
  0
LINE
  5
34F
330
1F
100
AcDbEntity
  8
0
  6
Continuous
 62
     7
370
    15
100
AcDbLine
 10
275.2151663463
 20
139.1233041852
 30
0.0
 11
275.2151663463
 21
149.1233039617
 31
0.0
  0
LINE
  5
350
330
1F
100
AcDbEntity
  8
0
  6
Continuous
 62
     7
370
    15
100
AcDbLine
 10
275.5151658367
 20
149.1233039617
 30
0.0
 11
275.2151663463
 21
149.1233039617
 31
0.0
  0
LINE
  5
351
330
1F
100
AcDbEntity
  8
0
  6
Continuous
 62
     7
370
    15
100
AcDbLine
 10
275.5151658367
 20
139.1233041852
 30
0.0
 11
275.2151663463
 21
139.1233041852
 31
0.0
  0
LINE
  5
352
330
1F
100
AcDbEntity
  8
0
  6
Continuous
 62
     7
370
    15
100
AcDbLine
 10
281.1150203507
 20
149.1233039617
 30
0.0
 11
281.0148752343
 21
149.1233039617
 31
0.0
  0
LINE
  5
353
330
1F
100
AcDbEntity
  8
0
  6
Continuous
 62
     7
370
    15
100
AcDbLine
 10
281.1150203507
 20
139.1233041852
 30
0.0
 11
281.0148752343
 21
139.1233041852
 31
0.0
  0
LINE
  5
354
330
1F
100
AcDbEntity
  8
0
  6
Continuous
 62
     7
370
    15
100
AcDbLine
 10
275.2151663463
 20
149.1233039617
 30
0.0
 11
275.1150212299
 21
149.1233039617
 31
0.0
  0
LINE
  5
355
330
1F
100
AcDbEntity
  8
0
  6
Continuous
 62
     7
370
    15
100
AcDbLine
 10
275.2151663463
 20
139.1233041852
 30
0.0
 11
275.1150212299
 21
139.1233041852
 31
0.0
  0
LINE
  5
356
330
1F
100
AcDbEntity
  8
0
  6
Continuous
 62
     7
370
    15
100
AcDbLine
 10
285.1150191437
 20
219.123302397
 30
0.0
 11
285.1150191437
 21
69.1233038871
 31
0.0
  0
LINE
  5
357
330
1F
100
AcDbEntity
  8
0
  6
Continuous
 62
     7
370
    15
100
AcDbLine
 10
286.1150211703
 20
219.123302397
 30
0.0
 11
286.1150211703
 21
69.1233038871
 31
0.0
  0
LINE
  5
358
330
1F
100
AcDbEntity
  8
0
  6
Continuous
 62
     7
370
    15
100
AcDbLine
 10
285.1150191437
 20
69.1233038871
 30
0.0
 11
286.1150211703
 21
69.1233038871
 31
0.0
  0
LINE
  5
359
330
1F
100
AcDbEntity
  8
0
  6
Continuous
 62
     7
370
    15
100
AcDbLine
 10
285.1150191437
 20
219.123302397
 30
0.0
 11
286.1150211703
 21
219.123302397
 31
0.0
  0
LINE
  5
35A
330
1F
100
AcDbEntity
  8
0
  6
Continuous
 62
     7
370
    15
100
AcDbLine
 10
281.4150198411
 20
219.123302397
 30
0.0
 11
281.4150198411
 21
69.1233038871
 31
0.0
  0
LINE
  5
35B
330
1F
100
AcDbEntity
  8
0
  6
Continuous
 62
     7
370
    15
100
AcDbLine
 10
281.4150198411
 20
69.1233038871
 30
0.0
 11
285.1150191437
 21
69.1233038871
 31
0.0
  0
LINE
  5
35C
330
1F
100
AcDbEntity
  8
0
  6
Continuous
 62
     7
370
    15
100
AcDbLine
 10
281.4150198411
 20
219.123302397
 30
0.0
 11
285.1150191437
 21
219.123302397
 31
0.0
  0
LINE
  5
35D
330
1F
100
AcDbEntity
  8
0
  6
Continuous
 62
     7
370
    15
100
AcDbLine
 10
281.1150203507
 20
219.123302397
 30
0.0
 11
281.1150203507
 21
69.1233038871
 31
0.0
  0
LINE
  5
35E
330
1F
100
AcDbEntity
  8
0
  6
Continuous
 62
     7
370
    15
100
AcDbLine
 10
281.1150203507
 20
69.1233038871
 30
0.0
 11
281.4150198411
 21
69.1233038871
 31
0.0
  0
LINE
  5
35F
330
1F
100
AcDbEntity
  8
0
  6
Continuous
 62
     7
370
    15
100
AcDbLine
 10
281.1150203507
 20
219.123302397
 30
0.0
 11
281.4150198411
 21
219.123302397
 31
0.0
  0
LINE
  5
360
330
1F
100
AcDbEntity
  8
0
  6
Continuous
 62
     7
370
    15
100
AcDbLine
 10
274.8150198769
 20
219.123302397
 30
0.0
 11
274.8150198769
 21
69.1233038871
 31
0.0
  0
LINE
  5
361
330
1F
100
AcDbEntity
  8
0
  6
Continuous
 62
     7
370
    15
100
AcDbLine
 10
275.1150212299
 20
219.123302397
 30
0.0
 11
275.1150212299
 21
69.1233038871
 31
0.0
  0
LINE
  5
362
330
1F
100
AcDbEntity
  8
0
  6
Continuous
 62
     7
370
    15
100
AcDbLine
 10
274.8150198769
 20
69.1233038871
 30
0.0
 11
275.1150212299
 21
69.1233038871
 31
0.0
  0
LINE
  5
363
330
1F
100
AcDbEntity
  8
0
  6
Continuous
 62
     7
370
    15
100
AcDbLine
 10
274.8150198769
 20
219.123302397
 30
0.0
 11
275.1150212299
 21
219.123302397
 31
0.0
  0
LINE
  5
364
330
1F
100
AcDbEntity
  8
0
  6
Continuous
 62
     7
370
    15
100
AcDbLine
 10
271.1150205742
 20
219.123302397
 30
0.0
 11
271.1150205742
 21
69.1233038871
 31
0.0
  0
LINE
  5
365
330
1F
100
AcDbEntity
  8
0
  6
Continuous
 62
     7
370
    15
100
AcDbLine
 10
271.1150205742
 20
69.1233038871
 30
0.0
 11
274.8150198769
 21
69.1233038871
 31
0.0
  0
LINE
  5
366
330
1F
100
AcDbEntity
  8
0
  6
Continuous
 62
     7
370
    15
100
AcDbLine
 10
271.1150205742
 20
219.123302397
 30
0.0
 11
274.8150198769
 21
219.123302397
 31
0.0
  0
LINE
  5
367
330
1F
100
AcDbEntity
  8
0
  6
Continuous
 62
     7
370
    15
100
AcDbLine
 10
270.1150204103
 20
219.123302397
 30
0.0
 11
270.1150204103
 21
69.1233038871
 31
0.0
  0
LINE
  5
368
330
1F
100
AcDbEntity
  8
0
  6
Continuous
 62
     7
370
    15
100
AcDbLine
 10
270.1150204103
 20
69.1233038871
 30
0.0
 11
271.1150205742
 21
69.1233038871
 31
0.0
  0
LINE
  5
369
330
1F
100
AcDbEntity
  8
0
  6
Continuous
 62
     7
370
    15
100
AcDbLine
 10
270.1150204103
 20
219.123302397
 30
0.0
 11
271.1150205742
 21
219.123302397
 31
0.0
  0
LINE
  5
36A
330
1F
100
AcDbEntity
  8
0
  6
Continuous
 62
     7
370
    15
100
AcDbLine
 10
280.9297560762
 20
69.1233038871
 30
0.0
 11
281.1150203507
 21
69.1233038871
 31
0.0
  0
LINE
  5
36B
330
1F
100
AcDbEntity
  8
0
  6
Continuous
 62
     7
370
    15
100
AcDbLine
 10
280.9297560762
 20
219.123302397
 30
0.0
 11
281.1150203507
 21
219.123302397
 31
0.0
  0
LINE
  5
36C
330
1F
100
AcDbEntity
  8
0
  6
Continuous
 62
     7
370
    15
100
AcDbLine
 10
275.1150212299
 20
69.1233038871
 30
0.0
 11
275.3002855044
 21
69.1233038871
 31
0.0
  0
LINE
  5
36D
330
1F
100
AcDbEntity
  8
0
  6
Continuous
 62
     7
370
    15
100
AcDbLine
 10
275.1150212299
 20
219.123302397
 30
0.0
 11
275.3002855044
 21
219.123302397
 31
0.0
  0
LINE
  5
36E
330
1F
100
AcDbEntity
  8
0
  6
Continuous
 62
     7
370
    15
100
AcDbLine
 10
278.5392838578
 20
69.1233038871
 30
0.0
 11
280.9297560762
 21
69.1233038871
 31
0.0
  0
LINE
  5
36F
330
1F
100
AcDbEntity
  8
0
  6
Continuous
 62
     7
370
    15
100
AcDbLine
 10
278.5392838578
 20
219.123302397
 30
0.0
 11
280.9297560762
 21
219.123302397
 31
0.0
  0
LINE
  5
370
330
1F
100
AcDbEntity
  8
0
  6
Continuous
 62
     7
370
    15
100
AcDbLine
 10
278.3271527897
 20
219.123302397
 30
0.0
 11
278.5392838578
 21
219.123302397
 31
0.0
  0
LINE
  5
371
330
1F
100
AcDbEntity
  8
0
  6
Continuous
 62
     7
370
    15
100
AcDbLine
 10
277.6907558601
 20
219.123302397
 30
0.0
 11
277.9028887909
 21
219.123302397
 31
0.0
  0
LINE
  5
372
330
1F
100
AcDbEntity
  8
0
  6
Continuous
 62
     7
370
    15
100
AcDbLine
 10
275.3002855044
 20
69.1233038871
 30
0.0
 11
277.6907558601
 21
69.1233038871
 31
0.0
  0
LINE
  5
373
330
1F
100
AcDbEntity
  8
0
  6
Continuous
 62
     7
370
    15
100
AcDbLine
 10
275.3002855044
 20
219.123302397
 30
0.0
 11
277.6907558601
 21
219.123302397
 31
0.0
  0
LINE
  5
374
330
1F
100
AcDbEntity
  8
0
  6
Continuous
 62
     7
370
    15
100
AcDbLine
 10
278.3271527897
 20
69.1233038871
 30
0.0
 11
278.5392838578
 21
69.1233038871
 31
0.0
  0
LINE
  5
375
330
1F
100
AcDbEntity
  8
0
  6
Continuous
 62
     7
370
    15
100
AcDbLine
 10
277.6907558601
 20
69.1233038871
 30
0.0
 11
277.9028887909
 21
69.1233038871
 31
0.0
  0
LINE
  5
376
330
1F
100
AcDbEntity
  8
0
  6
Continuous
 62
     7
370
    15
100
AcDbLine
 10
278.115019859
 20
219.123302397
 30
0.0
 11
278.115019859
 21
205.4233014553
 31
0.0
  0
LINE
  5
377
330
1F
100
AcDbEntity
  8
0
  6
Continuous
 62
     7
370
    15
100
AcDbLine
 10
278.115019859
 20
200.3733053773
 30
0.0
 11
278.115019859
 21
197.8733077615
 31
0.0
  0
LINE
  5
378
330
1F
100
AcDbEntity
  8
0
  6
Continuous
 62
     7
370
    15
100
AcDbLine
 10
278.115019859
 20
192.8233042329
 30
0.0
 11
278.115019859
 21
149.1233039617
 31
0.0
  0
LINE
  5
379
330
1F
100
AcDbEntity
  8
0
  6
Continuous
 62
     7
370
    15
100
AcDbLine
 10
278.115019859
 20
219.123302397
 30
0.0
 11
278.3271527897
 21
219.123302397
 31
0.0
  0
LINE
  5
37A
330
1F
100
AcDbEntity
  8
0
  6
Continuous
 62
     7
370
    15
100
AcDbLine
 10
277.9028887909
 20
219.123302397
 30
0.0
 11
278.115019859
 21
219.123302397
 31
0.0
  0
LINE
  5
37B
330
1F
100
AcDbEntity
  8
0
  6
Continuous
 62
     7
370
    15
100
AcDbLine
 10
278.115019859
 20
139.1233041852
 30
0.0
 11
278.115019859
 21
95.423303914
 31
0.0
  0
LINE
  5
37C
330
1F
100
AcDbEntity
  8
0
  6
Continuous
 62
     7
370
    15
100
AcDbLine
 10
278.115019859
 20
90.3733059733
 30
0.0
 11
278.115019859
 21
87.8733046322
 31
0.0
  0
LINE
  5
37D
330
1F
100
AcDbEntity
  8
0
  6
Continuous
 62
     7
370
    15
100
AcDbLine
 10
278.115019859
 20
82.8233048289
 30
0.0
 11
278.115019859
 21
69.1233038871
 31
0.0
  0
LINE
  5
37E
330
1F
100
AcDbEntity
  8
0
  6
Continuous
 62
     7
370
    15
100
AcDbLine
 10
278.115019859
 20
69.1233038871
 30
0.0
 11
278.3271527897
 21
69.1233038871
 31
0.0
  0
LINE
  5
37F
330
1F
100
AcDbEntity
  8
0
  6
Continuous
 62
     7
370
    15
100
AcDbLine
 10
277.9028887909
 20
69.1233038871
 30
0.0
 11
278.115019859
 21
69.1233038871
 31
0.0
  0
LINE
  5
380
330
1F
100
AcDbEntity
  8
0
  6
Continuous
 62
     7
370
    15
100
AcDbLine
 10
287.3359589886
 20
171.0439383953
 30
0.0
 11
287.6153259586
 21
171.3233053653
 31
0.0
  0
LINE
  5
381
330
1F
100
AcDbEntity
  8
0
  6
Continuous
 62
     7
370
    15
100
AcDbLine
 10
287.22157395
 20
171.0439383953
 30
0.0
 11
287.3359589886
 21
171.0439383953
 31
0.0
  0
LINE
  5
382
330
1F
100
AcDbEntity
  8
0
  6
Continuous
 62
     7
370
    15
100
AcDbLine
 10
286.6342074286
 20
171.0194930403
 30
0.0
 11
287.22157395
 21
171.0439383953
 31
0.0
  0
LINE
  5
383
330
1F
100
AcDbEntity
  8
0
  6
Continuous
 62
     7
370
    15
100
AcDbLine
 10
286.3772406291
 20
171.0194930403
 30
0.0
 11
286.6342074286
 21
171.0194930403
 31
0.0
  0
LINE
  5
384
330
1F
100
AcDbEntity
  8
0
  6
Continuous
 62
     7
370
    15
100
AcDbLine
 10
286.3650216769
 20
171.0439383953
 30
0.0
 11
286.3772406291
 21
171.0194930403
 31
0.0
  0
LINE
  5
385
330
1F
100
AcDbEntity
  8
0
  6
Continuous
 62
     7
370
    15
100
AcDbLine
 10
269.8650199037
 20
171.0439383953
 30
0.0
 11
270.1150204103
 21
171.0439383953
 31
0.0
  0
LINE
  5
386
330
1F
100
AcDbEntity
  8
0
  6
Continuous
 62
     7
370
    15
100
AcDbLine
 10
286.1150211703
 20
171.0439383953
 30
0.0
 11
286.3650216769
 21
171.0439383953
 31
0.0
  0
LINE
  5
387
330
1F
100
AcDbEntity
  8
0
  6
Continuous
 62
     7
370
    15
100
AcDbLine
 10
269.8528028141
 20
171.0194930403
 30
0.0
 11
269.8650199037
 21
171.0439383953
 31
0.0
  0
LINE
  5
388
330
1F
100
AcDbEntity
  8
0
  6
Continuous
 62
     7
370
    15
100
AcDbLine
 10
269.5958360146
 20
171.0194930403
 30
0.0
 11
269.8528028141
 21
171.0194930403
 31
0.0
  0
LINE
  5
389
330
1F
100
AcDbEntity
  8
0
  6
Continuous
 62
     7
370
    15
100
AcDbLine
 10
269.008465768
 20
171.0439383953
 30
0.0
 11
269.5958360146
 21
171.0194930403
 31
0.0
  0
LINE
  5
38A
330
1F
100
AcDbEntity
  8
0
  6
Continuous
 62
     7
370
    15
100
AcDbLine
 10
268.894082592
 20
171.0439383953
 30
0.0
 11
269.008465768
 21
171.0439383953
 31
0.0
  0
LINE
  5
38B
330
1F
100
AcDbEntity
  8
0
  6
Continuous
 62
     7
370
    15
100
AcDbLine
 10
268.614715622
 20
171.3233053653
 30
0.0
 11
268.894082592
 21
171.0439383953
 31
0.0
  0
LINE
  5
38C
330
1F
100
AcDbEntity
  8
0
  6
Continuous
 62
     7
370
    15
100
AcDbLine
 10
268.614715622
 20
171.3233053653
 30
0.0
 11
270.1150204103
 21
171.3233053653
 31
0.0
  0
LINE
  5
38D
330
1F
100
AcDbEntity
  8
0
  6
Continuous
 62
     7
370
    15
100
AcDbLine
 10
286.1150211703
 20
171.3233053653
 30
0.0
 11
287.6153259586
 21
171.3233053653
 31
0.0
  0
LINE
  5
38E
330
1F
100
AcDbEntity
  8
0
  6
Continuous
 62
     7
370
    15
100
AcDbLine
 10
287.22157395
 20
116.9233046441
 30
0.0
 11
287.22157395
 21
171.0439383953
 31
0.0
  0
LINE
  5
38F
330
1F
100
AcDbEntity
  8
0
  6
Continuous
 62
     7
370
    15
100
AcDbLine
 10
286.6342074286
 20
116.9233046441
 30
0.0
 11
286.6342074286
 21
171.0194930403
 31
0.0
  0
LINE
  5
390
330
1F
100
AcDbEntity
  8
0
  6
Continuous
 62
     7
370
    15
100
AcDbLine
 10
286.6342074286
 20
116.9233046441
 30
0.0
 11
287.22157395
 21
116.9233046441
 31
0.0
  0
LINE
  5
391
330
1F
100
AcDbEntity
  8
0
  6
Continuous
 62
     7
370
    15
100
AcDbLine
 10
286.3772406291
 20
116.9233046441
 30
0.0
 11
286.3772406291
 21
171.0194930403
 31
0.0
  0
LINE
  5
392
330
1F
100
AcDbEntity
  8
0
  6
Continuous
 62
     7
370
    15
100
AcDbLine
 10
286.3772406291
 20
116.9233046441
 30
0.0
 11
286.6342074286
 21
116.9233046441
 31
0.0
  0
LINE
  5
393
330
1F
100
AcDbEntity
  8
0
  6
Continuous
 62
     7
370
    15
100
AcDbLine
 10
286.3650216769
 20
116.9233046441
 30
0.0
 11
286.3650216769
 21
171.0439383953
 31
0.0
  0
LINE
  5
394
330
1F
100
AcDbEntity
  8
0
  6
Continuous
 62
     7
370
    15
100
AcDbLine
 10
286.3650216769
 20
116.9233046441
 30
0.0
 11
286.3772406291
 21
116.9233046441
 31
0.0
  0
LINE
  5
395
330
1F
100
AcDbEntity
  8
0
  6
Continuous
 62
     7
370
    15
100
AcDbLine
 10
269.8650199037
 20
116.9233046441
 30
0.0
 11
269.8650199037
 21
171.0439383953
 31
0.0
  0
LINE
  5
396
330
1F
100
AcDbEntity
  8
0
  6
Continuous
 62
     7
370
    15
100
AcDbLine
 10
269.8528028141
 20
116.9233046441
 30
0.0
 11
269.8650199037
 21
116.9233046441
 31
0.0
  0
LINE
  5
397
330
1F
100
AcDbEntity
  8
0
  6
Continuous
 62
     7
370
    15
100
AcDbLine
 10
269.8528028141
 20
116.9233046441
 30
0.0
 11
269.8528028141
 21
171.0194930403
 31
0.0
  0
LINE
  5
398
330
1F
100
AcDbEntity
  8
0
  6
Continuous
 62
     7
370
    15
100
AcDbLine
 10
269.5958360146
 20
116.9233046441
 30
0.0
 11
269.5958360146
 21
171.0194930403
 31
0.0
  0
LINE
  5
399
330
1F
100
AcDbEntity
  8
0
  6
Continuous
 62
     7
370
    15
100
AcDbLine
 10
269.5958360146
 20
116.9233046441
 30
0.0
 11
269.8528028141
 21
116.9233046441
 31
0.0
  0
LINE
  5
39A
330
1F
100
AcDbEntity
  8
0
  6
Continuous
 62
     7
370
    15
100
AcDbLine
 10
269.008465768
 20
116.9233046441
 30
0.0
 11
269.008465768
 21
171.0439383953
 31
0.0
  0
LINE
  5
39B
330
1F
100
AcDbEntity
  8
0
  6
Continuous
 62
     7
370
    15
100
AcDbLine
 10
269.008465768
 20
116.9233046441
 30
0.0
 11
269.5958360146
 21
116.9233046441
 31
0.0
  0
LINE
  5
39C
330
1F
100
AcDbEntity
  8
0
  6
Continuous
 62
     7
370
    15
100
AcDbLine
 10
287.835654528
 20
102.1023657142
 30
0.0
 11
288.1150214981
 21
101.8230006068
 31
0.0
  0
LINE
  5
39D
330
1F
100
AcDbEntity
  8
0
  6
Continuous
 62
     7
370
    15
100
AcDbLine
 10
287.835654528
 20
170.5442428558
 30
0.0
 11
287.835654528
 21
102.1023657142
 31
0.0
  0
LINE
  5
39E
330
1F
100
AcDbEntity
  8
0
  6
Continuous
 62
     7
370
    15
100
AcDbLine
 10
288.1150214981
 20
170.8236098259
 30
0.0
 11
287.835654528
 21
170.5442428558
 31
0.0
  0
LINE
  5
39F
330
1F
100
AcDbEntity
  8
0
  6
Continuous
 62
     7
370
    15
100
AcDbLine
 10
288.1150214981
 20
170.8236098259
 30
0.0
 11
288.1150214981
 21
161.6233050792
 31
0.0
  0
LINE
  5
3A0
330
1F
100
AcDbEntity
  8
0
  6
Continuous
 62
     7
370
    15
100
AcDbLine
 10
287.9753380131
 20
161.6233050792
 30
0.0
 11
288.1150214981
 21
161.6233050792
 31
0.0
  0
LINE
  5
3A1
330
1F
100
AcDbEntity
  8
0
  6
Continuous
 62
     7
370
    15
100
AcDbLine
 10
287.9753380131
 20
126.3233047414
 30
0.0
 11
287.9753380131
 21
161.6233050792
 31
0.0
  0
LINE
  5
3A2
330
1F
100
AcDbEntity
  8
0
  6
Continuous
 62
     7
370
    15
100
AcDbLine
 10
288.0752465736
 20
126.2733648966
 30
0.0
 11
287.9753380131
 21
126.3233047414
 31
0.0
  0
ELLIPSE
  5
3A3
330
1F
100
AcDbEntity
  8
0
  6
Continuous
 62
     7
370
    15
100
AcDbEllipse
 10
288.0750646488
 20
125.9734106048
 30
0.0
 11
0.0
 21
0.2999999999999972
 31
0.0
210
0.0
220
0.0
230
1.0
 40
0.0349207695
 41
5.497787143789451
 42
6.265732014664514
  0
LINE
  5
3A4
330
1F
100
AcDbEntity
  8
0
  6
Continuous
 62
     7
370
    15
100
AcDbLine
 10
288.1119518589
 20
125.3413523284
 30
0.0
 11
288.0824736368
 21
126.1855425748
 31
0.0
  0
ELLIPSE
  5
3A5
330
1F
100
AcDbEntity
  8
0
  6
Continuous
 62
     7
370
    15
100
AcDbEllipse
 10
288.1045444232
 20
125.1292203187
 30
0.0
 11
0.0
 21
0.2999999999999972
 31
0.0
210
0.0
220
0.0
230
1.0
 40
0.0349207695
 41
4.712388980384596
 42
5.497787143789451
  0
LINE
  5
3A6
330
1F
100
AcDbEntity
  8
0
  6
Continuous
 62
     7
370
    15
100
AcDbLine
 10
288.1150214981
 20
125.1292203289
 30
0.0
 11
288.1150214981
 21
101.8230006068
 31
0.0
  0
LINE
  5
3A7
330
1F
100
AcDbEntity
  8
0
  6
Continuous
 62
     7
370
    15
100
AcDbLine
 10
287.6153259586
 20
101.3233050673
 30
0.0
 11
287.3359589886
 21
101.6026701747
 31
0.0
  0
ELLIPSE
  5
3A8
330
1F
100
AcDbEntity
  8
0
  6
Continuous
 62
     7
370
    15
100
AcDbEllipse
 10
287.335349726
 20
102.1029755752
 30
0.0
 11
-0.3539842722996127
 21
0.3539842722995984
 31
0.0
210
0.0
220
0.0
230
0.9999999999999998
 40
0.998782766
 41
2.356803477777889
 42
3.926381829401671
  0
ELLIPSE
  5
3A9
330
1F
100
AcDbEntity
  8
0
  6
Continuous
 62
     7
370
    15
100
AcDbEllipse
 10
287.6147158819
 20
101.8236094193
 30
0.0
 11
-0.3539842722995559
 21
0.3539842722995843
 31
0.0
210
0.0
220
0.0
230
1.0
 40
0.998782766
 41
2.356803477777989
 42
3.926381829401606
  0
ELLIPSE
  5
3AA
330
1F
100
AcDbEntity
  8
0
  6
Continuous
 62
     7
370
    15
100
AcDbEllipse
 10
287.335349726
 20
170.5436337191
 30
0.0
 11
-0.3539842722996128
 21
-0.3539842722995843
 31
0.0
210
0.0
220
0.0
230
1.0
 40
0.998782766
 41
2.356803477777969
 42
3.926381829401711
  0
ELLIPSE
  5
3AB
330
1F
100
AcDbEntity
  8
0
  6
Continuous
 62
     7
370
    15
100
AcDbEllipse
 10
287.6147158819
 20
170.822999875
 30
0.0
 11
-0.3539842722995559
 21
-0.3539842722996127
 31
0.0
210
0.0
220
0.0
230
0.9999999999999998
 40
0.998782766
 41
2.356803477777812
 42
3.926381829401571
  0
ELLIPSE
  5
3AC
330
1F
100
AcDbEntity
  8
0
  6
Continuous
 62
     7
370
    15
100
AcDbEllipse
 10
268.8946915821
 20
170.5436337191
 30
0.0
 11
0.3539842722995559
 21
-0.3539842722995843
 31
0.0
210
0.0
220
0.0
230
1.0
 40
0.998782766
 41
2.356803477777969
 42
3.926381829401711
  0
LINE
  5
3AD
330
1F
100
AcDbEntity
  8
0
  6
Continuous
 62
     7
370
    15
100
AcDbLine
 10
287.3359589886
 20
101.6026701747
 30
0.0
 11
286.1150211703
 21
101.6026701747
 31
0.0
  0
LINE
  5
3AE
330
1F
100
AcDbEntity
  8
0
  6
Continuous
 62
     7
370
    15
100
AcDbLine
 10
270.1150204103
 20
101.6026701747
 30
0.0
 11
268.894082592
 21
101.6026701747
 31
0.0
  0
ELLIPSE
  5
3AF
330
1F
100
AcDbEntity
  8
0
  6
Continuous
 62
     7
370
    15
100
AcDbEllipse
 10
268.8946915821
 20
102.1029755752
 30
0.0
 11
0.3539842722995559
 21
0.3539842722995985
 31
0.0
210
0.0
220
0.0
230
1.0
 40
0.998782766
 41
2.356803477777909
 42
3.926381829401571
  0
LINE
  5
3B0
330
1F
100
AcDbEntity
  8
0
  6
Continuous
 62
     7
370
    15
100
AcDbLine
 10
268.3943870526
 20
102.1023657142
 30
0.0
 11
268.3943870526
 21
170.5442428558
 31
0.0
  0
LINE
  5
3B1
330
1F
100
AcDbEntity
  8
0
  6
Continuous
 62
     7
370
    15
100
AcDbLine
 10
287.6153259586
 20
101.3233050673
 30
0.0
 11
286.1150211703
 21
101.3233050673
 31
0.0
  0
LINE
  5
3B2
330
1F
100
AcDbEntity
  8
0
  6
Continuous
 62
     7
370
    15
100
AcDbLine
 10
270.1150204103
 20
101.3233050673
 30
0.0
 11
268.614715622
 21
101.3233050673
 31
0.0
  0
LINE
  5
3B3
330
1F
100
AcDbEntity
  8
0
  6
Continuous
 62
     7
370
    15
100
AcDbLine
 10
268.894082592
 20
101.6026701747
 30
0.0
 11
268.614715622
 21
101.3233050673
 31
0.0
  0
LINE
  5
3B4
330
1F
100
AcDbEntity
  8
0
  6
Continuous
 62
     7
370
    15
100
AcDbLine
 10
268.1150200825
 20
101.8230006068
 30
0.0
 11
268.3943870526
 21
102.1023657142
 31
0.0
  0
ELLIPSE
  5
3B5
330
1F
100
AcDbEntity
  8
0
  6
Continuous
 62
     7
370
    15
100
AcDbEllipse
 10
268.6153254262
 20
101.8236094193
 30
0.0
 11
0.3539842722996128
 21
0.3539842722995843
 31
0.0
210
0.0
220
0.0
230
1.0
 40
0.998782766
 41
2.356803477778065
 42
3.926381829401701
  0
LINE
  5
3B6
330
1F
100
AcDbEntity
  8
0
  6
Continuous
 62
     7
370
    15
100
AcDbLine
 10
268.3943870526
 20
170.5442428558
 30
0.0
 11
268.1150200825
 21
170.8236098259
 31
0.0
  0
ELLIPSE
  5
3B7
330
1F
100
AcDbEntity
  8
0
  6
Continuous
 62
     7
370
    15
100
AcDbEllipse
 10
268.6153254262
 20
170.822999875
 30
0.0
 11
0.3539842722996127
 21
-0.3539842722996127
 31
0.0
210
0.0
220
0.0
230
0.9999999999999998
 40
0.998782766
 41
2.356803477777889
 42
3.926381829401768
  0
ELLIPSE
  5
3B8
330
1F
100
AcDbEntity
  8
0
  6
Continuous
 62
     7
370
    15
100
AcDbEllipse
 10
268.1549766593
 20
125.9734106048
 30
0.0
 11
0.0
 21
0.2999999999999972
 31
0.0
210
0.0
220
0.0
230
1.0
 40
0.0349207695
 41
0.0174532925210033
 42
0.785398163400721
  0
LINE
  5
3B9
330
1F
100
AcDbEntity
  8
0
  6
Continuous
 62
     7
370
    15
100
AcDbLine
 10
268.1547931444
 20
126.2733648966
 30
0.0
 11
268.2547035675
 21
126.3233047414
 31
0.0
  0
LINE
  5
3BA
330
1F
100
AcDbEntity
  8
0
  6
Continuous
 62
     7
370
    15
100
AcDbLine
 10
268.2547035675
 20
126.3233047414
 30
0.0
 11
268.2547035675
 21
161.6233050792
 31
0.0
  0
LINE
  5
3BB
330
1F
100
AcDbEntity
  8
0
  6
Continuous
 62
     7
370
    15
100
AcDbLine
 10
268.1150200825
 20
161.6233050792
 30
0.0
 11
268.1150200825
 21
170.8236098259
 31
0.0
  0
LINE
  5
3BC
330
1F
100
AcDbEntity
  8
0
  6
Continuous
 62
     7
370
    15
100
AcDbLine
 10
268.1150200825
 20
101.8230006068
 30
0.0
 11
268.1150200825
 21
125.1292203289
 31
0.0
  0
ELLIPSE
  5
3BD
330
1F
100
AcDbEntity
  8
0
  6
Continuous
 62
     7
370
    15
100
AcDbEllipse
 10
268.1254968849
 20
125.1292203187
 30
0.0
 11
0.0
 21
0.2999999999999972
 31
0.0
210
0.0
220
0.0
230
1.0
 40
0.0349207695
 41
0.7853981633995972
 42
1.570796326794991
  0
LINE
  5
3BE
330
1F
100
AcDbEntity
  8
0
  6
Continuous
 62
     7
370
    15
100
AcDbLine
 10
268.1475679438
 20
126.1855425748
 30
0.0
 11
268.1180897217
 21
125.3413523284
 31
0.0
  0
LINE
  5
3BF
330
1F
100
AcDbEntity
  8
0
  6
Continuous
 62
     7
370
    15
100
AcDbLine
 10
268.2547035675
 20
161.6233050792
 30
0.0
 11
268.1150200825
 21
161.6233050792
 31
0.0
  0
LINE
  5
3C0
330
1F
100
AcDbEntity
  8
0
  6
Continuous
 62
     8
370
    15
100
AcDbLine
 10
280.9297560762
 20
219.123302397
 30
0.0
 11
280.9297560762
 21
205.4233014553
 31
0.0
  0
LINE
  5
3C1
330
1F
100
AcDbEntity
  8
0
  6
Continuous
 62
     8
370
    15
100
AcDbLine
 10
280.9297560762
 20
204.3233051865
 30
0.0
 11
280.9297560762
 21
204.123301801
 31
0.0
  0
LINE
  5
3C2
330
1F
100
AcDbEntity
  8
0
  6
Continuous
 62
     8
370
    15
100
AcDbLine
 10
280.9297560762
 20
194.1233038871
 30
0.0
 11
280.9297560762
 21
193.9233079522
 31
0.0
  0
LINE
  5
3C3
330
1F
100
AcDbEntity
  8
0
  6
Continuous
 62
     8
370
    15
100
AcDbLine
 10
280.9297560762
 20
192.8233042329
 30
0.0
 11
280.9297560762
 21
149.1233039617
 31
0.0
  0
LINE
  5
3C4
330
1F
100
AcDbEntity
  8
0
  6
Continuous
 62
     8
370
    15
100
AcDbLine
 10
280.9297560762
 20
139.1233041852
 30
0.0
 11
280.9297560762
 21
95.423303914
 31
0.0
  0
LINE
  5
3C5
330
1F
100
AcDbEntity
  8
0
  6
Continuous
 62
     8
370
    15
100
AcDbLine
 10
280.9297560762
 20
94.3233039199
 30
0.0
 11
280.9297560762
 21
94.1233042597
 31
0.0
  0
LINE
  5
3C6
330
1F
100
AcDbEntity
  8
0
  6
Continuous
 62
     8
370
    15
100
AcDbLine
 10
280.9297560762
 20
84.1233044832
 30
0.0
 11
280.9297560762
 21
83.9233048229
 31
0.0
  0
LINE
  5
3C7
330
1F
100
AcDbEntity
  8
0
  6
Continuous
 62
     8
370
    15
100
AcDbLine
 10
280.9297560762
 20
82.8233048289
 30
0.0
 11
280.9297560762
 21
69.1233038871
 31
0.0
  0
LINE
  5
3C8
330
1F
100
AcDbEntity
  8
0
  6
Continuous
 62
     8
370
    15
100
AcDbLine
 10
275.3002855044
 20
219.123302397
 30
0.0
 11
275.3002855044
 21
205.4233014553
 31
0.0
  0
LINE
  5
3C9
330
1F
100
AcDbEntity
  8
0
  6
Continuous
 62
     8
370
    15
100
AcDbLine
 10
275.3002855044
 20
204.3233051865
 30
0.0
 11
275.3002855044
 21
204.123301801
 31
0.0
  0
LINE
  5
3CA
330
1F
100
AcDbEntity
  8
0
  6
Continuous
 62
     8
370
    15
100
AcDbLine
 10
275.3002855044
 20
194.1233038871
 30
0.0
 11
275.3002855044
 21
193.9233079522
 31
0.0
  0
LINE
  5
3CB
330
1F
100
AcDbEntity
  8
0
  6
Continuous
 62
     8
370
    15
100
AcDbLine
 10
275.3002855044
 20
192.8233042329
 30
0.0
 11
275.3002855044
 21
149.1233039617
 31
0.0
  0
LINE
  5
3CC
330
1F
100
AcDbEntity
  8
0
  6
Continuous
 62
     8
370
    15
100
AcDbLine
 10
275.3002855044
 20
139.1233041852
 30
0.0
 11
275.3002855044
 21
95.423303914
 31
0.0
  0
LINE
  5
3CD
330
1F
100
AcDbEntity
  8
0
  6
Continuous
 62
     8
370
    15
100
AcDbLine
 10
275.3002855044
 20
94.3233039199
 30
0.0
 11
275.3002855044
 21
94.1233042597
 31
0.0
  0
LINE
  5
3CE
330
1F
100
AcDbEntity
  8
0
  6
Continuous
 62
     8
370
    15
100
AcDbLine
 10
275.3002855044
 20
84.1233044832
 30
0.0
 11
275.3002855044
 21
83.9233048229
 31
0.0
  0
LINE
  5
3CF
330
1F
100
AcDbEntity
  8
0
  6
Continuous
 62
     8
370
    15
100
AcDbLine
 10
275.3002855044
 20
82.8233048289
 30
0.0
 11
275.3002855044
 21
69.1233038871
 31
0.0
  0
LINE
  5
3D0
330
1F
100
AcDbEntity
  8
0
  6
Continuous
 62
     8
370
    15
100
AcDbLine
 10
278.5392838578
 20
139.1233041852
 30
0.0
 11
278.5392838578
 21
95.423303914
 31
0.0
  0
LINE
  5
3D1
330
1F
100
AcDbEntity
  8
0
  6
Continuous
 62
     8
370
    15
100
AcDbLine
 10
278.5392838578
 20
94.3233039199
 30
0.0
 11
278.5392838578
 21
94.1233042597
 31
0.0
  0
LINE
  5
3D2
330
1F
100
AcDbEntity
  8
0
  6
Continuous
 62
     8
370
    15
100
AcDbLine
 10
278.5392838578
 20
90.2991019159
 30
0.0
 11
278.5392838578
 21
87.9475086897
 31
0.0
  0
LINE
  5
3D3
330
1F
100
AcDbEntity
  8
0
  6
Continuous
 62
     8
370
    15
100
AcDbLine
 10
278.5392838578
 20
84.1233044832
 30
0.0
 11
278.5392838578
 21
83.9233048229
 31
0.0
  0
LINE
  5
3D4
330
1F
100
AcDbEntity
  8
0
  6
Continuous
 62
     8
370
    15
100
AcDbLine
 10
278.5392838578
 20
82.8233048289
 30
0.0
 11
278.5392838578
 21
69.1233038871
 31
0.0
  0
LINE
  5
3D5
330
1F
100
AcDbEntity
  8
0
  6
Continuous
 62
     8
370
    15
100
AcDbLine
 10
278.5392838578
 20
219.123302397
 30
0.0
 11
278.5392838578
 21
205.4233014553
 31
0.0
  0
LINE
  5
3D6
330
1F
100
AcDbEntity
  8
0
  6
Continuous
 62
     8
370
    15
100
AcDbLine
 10
278.5392838578
 20
204.3233051865
 30
0.0
 11
278.5392838578
 21
204.123301801
 31
0.0
  0
LINE
  5
3D7
330
1F
100
AcDbEntity
  8
0
  6
Continuous
 62
     8
370
    15
100
AcDbLine
 10
278.5392838578
 20
200.2991050451
 30
0.0
 11
278.5392838578
 21
197.9475080936
 31
0.0
  0
LINE
  5
3D8
330
1F
100
AcDbEntity
  8
0
  6
Continuous
 62
     8
370
    15
100
AcDbLine
 10
278.5392838578
 20
194.1233038871
 30
0.0
 11
278.5392838578
 21
193.9233079522
 31
0.0
  0
LINE
  5
3D9
330
1F
100
AcDbEntity
  8
0
  6
Continuous
 62
     8
370
    15
100
AcDbLine
 10
278.5392838578
 20
192.8233042329
 30
0.0
 11
278.5392838578
 21
149.1233039617
 31
0.0
  0
LINE
  5
3DA
330
1F
100
AcDbEntity
  8
0
  6
Continuous
 62
     8
370
    15
100
AcDbLine
 10
278.3271527897
 20
219.123302397
 30
0.0
 11
278.3271527897
 21
205.4233014553
 31
0.0
  0
LINE
  5
3DB
330
1F
100
AcDbEntity
  8
0
  6
Continuous
 62
     8
370
    15
100
AcDbLine
 10
278.3271527897
 20
200.3551706641
 30
0.0
 11
278.3271527897
 21
197.891435024
 31
0.0
  0
LINE
  5
3DC
330
1F
100
AcDbEntity
  8
0
  6
Continuous
 62
     8
370
    15
100
AcDbLine
 10
278.3271527897
 20
192.8233042329
 30
0.0
 11
278.3271527897
 21
149.1233039617
 31
0.0
  0
LINE
  5
3DD
330
1F
100
AcDbEntity
  8
0
  6
Continuous
 62
     8
370
    15
100
AcDbLine
 10
277.9028887909
 20
219.123302397
 30
0.0
 11
277.9028887909
 21
205.4233014553
 31
0.0
  0
LINE
  5
3DE
330
1F
100
AcDbEntity
  8
0
  6
Continuous
 62
     8
370
    15
100
AcDbLine
 10
277.9028887909
 20
200.3551706641
 30
0.0
 11
277.9028887909
 21
197.891435024
 31
0.0
  0
LINE
  5
3DF
330
1F
100
AcDbEntity
  8
0
  6
Continuous
 62
     8
370
    15
100
AcDbLine
 10
277.9028887909
 20
192.8233042329
 30
0.0
 11
277.9028887909
 21
149.1233039617
 31
0.0
  0
LINE
  5
3E0
330
1F
100
AcDbEntity
  8
0
  6
Continuous
 62
     8
370
    15
100
AcDbLine
 10
277.6907558601
 20
219.123302397
 30
0.0
 11
277.6907558601
 21
205.4233014553
 31
0.0
  0
LINE
  5
3E1
330
1F
100
AcDbEntity
  8
0
  6
Continuous
 62
     8
370
    15
100
AcDbLine
 10
277.6907558601
 20
204.3233051865
 30
0.0
 11
277.6907558601
 21
204.123301801
 31
0.0
  0
LINE
  5
3E2
330
1F
100
AcDbEntity
  8
0
  6
Continuous
 62
     8
370
    15
100
AcDbLine
 10
277.6907558601
 20
200.2991050451
 30
0.0
 11
277.6907558601
 21
197.9475080936
 31
0.0
  0
LINE
  5
3E3
330
1F
100
AcDbEntity
  8
0
  6
Continuous
 62
     8
370
    15
100
AcDbLine
 10
277.6907558601
 20
194.1233038871
 30
0.0
 11
277.6907558601
 21
193.9233079522
 31
0.0
  0
LINE
  5
3E4
330
1F
100
AcDbEntity
  8
0
  6
Continuous
 62
     8
370
    15
100
AcDbLine
 10
277.6907558601
 20
192.8233042329
 30
0.0
 11
277.6907558601
 21
149.1233039617
 31
0.0
  0
LINE
  5
3E5
330
1F
100
AcDbEntity
  8
0
  6
Continuous
 62
     8
370
    15
100
AcDbLine
 10
277.6907558601
 20
139.1233041852
 30
0.0
 11
277.6907558601
 21
95.423303914
 31
0.0
  0
LINE
  5
3E6
330
1F
100
AcDbEntity
  8
0
  6
Continuous
 62
     8
370
    15
100
AcDbLine
 10
277.6907558601
 20
94.3233039199
 30
0.0
 11
277.6907558601
 21
94.1233042597
 31
0.0
  0
LINE
  5
3E7
330
1F
100
AcDbEntity
  8
0
  6
Continuous
 62
     8
370
    15
100
AcDbLine
 10
277.6907558601
 20
90.2991019159
 30
0.0
 11
277.6907558601
 21
87.9475086897
 31
0.0
  0
LINE
  5
3E8
330
1F
100
AcDbEntity
  8
0
  6
Continuous
 62
     8
370
    15
100
AcDbLine
 10
277.6907558601
 20
84.1233044832
 30
0.0
 11
277.6907558601
 21
83.9233048229
 31
0.0
  0
LINE
  5
3E9
330
1F
100
AcDbEntity
  8
0
  6
Continuous
 62
     8
370
    15
100
AcDbLine
 10
277.6907558601
 20
82.8233048289
 30
0.0
 11
277.6907558601
 21
69.1233038871
 31
0.0
  0
LINE
  5
3EA
330
1F
100
AcDbEntity
  8
0
  6
Continuous
 62
     8
370
    15
100
AcDbLine
 10
278.3271527897
 20
139.1233041852
 30
0.0
 11
278.3271527897
 21
95.423303914
 31
0.0
  0
LINE
  5
3EB
330
1F
100
AcDbEntity
  8
0
  6
Continuous
 62
     8
370
    15
100
AcDbLine
 10
278.3271527897
 20
90.3551749854
 30
0.0
 11
278.3271527897
 21
87.8914356201
 31
0.0
  0
LINE
  5
3EC
330
1F
100
AcDbEntity
  8
0
  6
Continuous
 62
     8
370
    15
100
AcDbLine
 10
278.3271527897
 20
82.8233048289
 30
0.0
 11
278.3271527897
 21
69.1233038871
 31
0.0
  0
LINE
  5
3ED
330
1F
100
AcDbEntity
  8
0
  6
Continuous
 62
     8
370
    15
100
AcDbLine
 10
277.9028887909
 20
139.1233041852
 30
0.0
 11
277.9028887909
 21
95.423303914
 31
0.0
  0
LINE
  5
3EE
330
1F
100
AcDbEntity
  8
0
  6
Continuous
 62
     8
370
    15
100
AcDbLine
 10
277.9028887909
 20
90.3551749854
 30
0.0
 11
277.9028887909
 21
87.8914356201
 31
0.0
  0
LINE
  5
3EF
330
1F
100
AcDbEntity
  8
0
  6
Continuous
 62
     8
370
    15
100
AcDbLine
 10
277.9028887909
 20
82.8233048289
 30
0.0
 11
277.9028887909
 21
69.1233038871
 31
0.0
  0
DIMENSION
  5
3F0
330
1F
100
AcDbEntity
  8
0
  6
Continuous
 62
     7
370
     0
100
AcDbDimension
  2
*D9
 10
255.0039561339
 20
144.1233046472
 30
0.0
 11
255.0039561339
 21
182.3190233339
 31
0.0
 70
   160
 71
     2
 42
-1.0
  3
SLDDIMSTYLE0
100
AcDbAlignedDimension
 13
271.115020654
 23
219.1233046472
 33
0.0
 14
273.965020654
 24
144.1233046472
 34
0.0
 50
90.0
100
AcDbRotatedDimension
  0
INSERT
  5
401
330
1F
100
AcDbEntity
  8
0
  6
Continuous
 62
     7
370
     0
100
AcDbBlockReference
  2
SW_RADIAL_DIMENSION_0
 10
294.9061506388
 20
228.8456893704
 30
0.0
  0
INSERT
  5
40D
330
1F
100
AcDbEntity
  8
0
  6
Continuous
 62
     7
370
     0
100
AcDbBlockReference
  2
SW_CENTERMARKSYMBOL_0
 10
278.115020654
 20
144.1233046472
 30
0.0
  0
LINE
  5
40E
330
1F
100
AcDbEntity
  8
0
  6
Continuous
 62
     7
370
    15
100
AcDbLine
 10
203.9099539337
 20
260.0447577269
 30
0.0
 11
203.9099539337
 21
259.9056460739
 31
0.0
  0
LINE
  5
40F
330
1F
100
AcDbEntity
  8
0
  6
Continuous
 62
     7
370
    15
100
AcDbLine
 10
203.9099539337
 20
268.1838669659
 30
0.0
 11
203.9099539337
 21
268.0447571756
 31
0.0
  0
LINE
  5
410
330
1F
100
AcDbEntity
  8
0
  6
Continuous
 62
     7
370
    15
100
AcDbLine
 10
201.1098433226
 20
262.0447580547
 30
0.0
 11
201.2098433855
 21
262.0447580547
 31
0.0
  0
LINE
  5
411
330
1F
100
AcDbEntity
  8
0
  6
Continuous
 62
     7
370
    15
100
AcDbLine
 10
201.2098433855
 20
266.0447568477
 30
0.0
 11
201.1098433226
 21
266.0447568477
 31
0.0
  0
LINE
  5
412
330
1F
100
AcDbEntity
  8
0
  6
Continuous
 62
     7
370
    15
100
AcDbLine
 10
199.7098433725
 20
256.9947563888
 30
0.0
 11
200.5098434105
 21
257.7947568924
 31
0.0
  0
LINE
  5
413
330
1F
100
AcDbEntity
  8
0
  6
Continuous
 62
     7
370
    15
100
AcDbLine
 10
200.5098434105
 20
270.29475801
 30
0.0
 11
199.7098433725
 21
271.094756651
 31
0.0
  0
LINE
  5
414
330
1F
100
AcDbEntity
  8
0
  6
Continuous
 62
     7
370
    15
100
AcDbLine
 10
200.5098434105
 20
257.7947568924
 30
0.0
 11
201.1098433226
 21
257.8052305461
 31
0.0
  0
LINE
  5
415
330
1F
100
AcDbEntity
  8
0
  6
Continuous
 62
     7
370
    15
100
AcDbLine
 10
201.1098433226
 20
270.2842824937
 30
0.0
 11
200.5098434105
 21
270.29475801
 31
0.0
  0
LINE
  5
416
330
1F
100
AcDbEntity
  8
0
  6
Continuous
 62
     7
370
    15
100
AcDbLine
 10
204.4520863504
 20
260.2751930089
 30
0.0
 11
204.1776087075
 21
260.4673267187
 31
0.0
  0
ARC
  5
417
330
1F
100
AcDbEntity
  8
0
  6
Continuous
 62
     7
370
    15
100
AcDbCircle
 10
205.2098414154
 20
261.9419442958
 30
0.0
 40
1.799999999999983
100
AcDbArc
 50
180.0
 51
235.0079593175
  0
LINE
  5
418
330
1F
100
AcDbEntity
  8
0
  6
Continuous
 62
     7
370
    15
100
AcDbLine
 10
203.4098413946
 20
261.9419437678
 30
0.0
 11
203.4098413946
 21
266.1475711347
 31
0.0
  0
ARC
  5
419
330
1F
100
AcDbEntity
  8
0
  6
Continuous
 62
     7
370
    15
100
AcDbCircle
 10
205.2098414154
 20
266.1475703341
 30
0.0
 40
1.799999999999995
100
AcDbArc
 50
124.9920406825
 51
180.0
  0
LINE
  5
41A
330
1F
100
AcDbEntity
  8
0
  6
Continuous
 62
     7
370
    15
100
AcDbLine
 10
204.1776087075
 20
267.6221863211
 30
0.0
 11
204.4520863504
 21
267.8143218936
 31
0.0
  0
ARC
  5
41B
330
1F
100
AcDbEntity
  8
0
  6
Continuous
 62
     7
370
    15
100
AcDbCircle
 10
207.1098433835
 20
267.3446120854
 30
0.0
 40
0.4000000100000136
100
AcDbArc
 50
180.0
 51
270.0
  0
ARC
  5
41C
330
1F
100
AcDbEntity
  8
0
  6
Continuous
 62
     7
370
    15
100
AcDbCircle
 10
207.2098425635
 20
261.4449025646
 30
0.0
 40
0.3000000100000193
100
AcDbArc
 50
270.0
 51
0.0
  0
LINE
  5
41D
330
1F
100
AcDbEntity
  8
0
  6
Continuous
 62
     7
370
    15
100
AcDbLine
 10
207.2098425064
 20
261.1449030073
 30
0.0
 11
207.1098436076
 21
261.1449030073
 31
0.0
  0
ARC
  5
41E
330
1F
100
AcDbEntity
  8
0
  6
Continuous
 62
     7
370
    15
100
AcDbCircle
 10
207.1098433835
 20
260.7449025446
 30
0.0
 40
0.4000000100000136
100
AcDbArc
 50
90.0
 51
180.0
  0
ARC
  5
41F
330
1F
100
AcDbEntity
  8
0
  6
Continuous
 62
     7
370
    15
100
AcDbCircle
 10
207.2098425635
 20
266.6446120654
 30
0.0
 40
0.3000000100000193
100
AcDbArc
 50
0.0
 51
90.0
  0
LINE
  5
420
330
1F
100
AcDbEntity
  8
0
  6
Continuous
 62
     7
370
    15
100
AcDbLine
 10
207.5098424624
 20
266.6446124048
 30
0.0
 11
207.5098424624
 21
261.4449024976
 31
0.0
  0
LINE
  5
421
330
1F
100
AcDbEntity
  8
0
  6
Continuous
 62
     7
370
    15
100
AcDbLine
 10
207.1098436076
 20
266.9446118952
 30
0.0
 11
207.2098425064
 21
266.9446118952
 31
0.0
  0
LINE
  5
422
330
1F
100
AcDbEntity
  8
0
  6
Continuous
 62
     7
370
    15
100
AcDbLine
 10
204.5628030259
 20
268.8367166401
 30
0.0
 11
204.7098433772
 21
268.8367166401
 31
0.0
  0
SPLINE
  5
423
330
1F
100
AcDbEntity
  8
0
  6
Continuous
 62
     7
370
    15
100
AcDbSpline
210
0.0
220
0.0
230
1.0
 70
     8
 71
     3
 72
    13
 73
     9
 74
     0
 42
0.00000001
 43
0.00000001
 40
0.0
 40
0.0
 40
0.0
 40
0.0
 40
0.2749558334541041
 40
0.4983886083376391
 40
0.6684105571061054
 40
0.8070664676221163
 40
0.9462048593506814
 40
1.0
 40
1.0
 40
1.0
 40
1.0
 10
204.7181473984728
 20
268.8447558165705
 30
0.0
 10
204.8380013325171
 20
268.9636693558929
 30
0.0
 10
205.0552501707823
 20
269.1792136221516
 30
0.0
 10
205.3089677032581
 20
269.4661910168638
 30
0.0
 10
205.4624666580544
 20
269.6673106058827
 30
0.0
 10
205.5329285863213
 20
269.7925119449467
 30
0.0
 10
205.5344876374958
 20
269.84045127546
 30
0.0
 10
205.5117875664644
 20
269.8438188666788
 30
0.0
 10
205.5054581663916
 20
269.8447578431284
 30
0.0
  0
LINE
  5
424
330
1F
100
AcDbEntity
  8
0
  6
Continuous
 62
     7
370
    15
100
AcDbLine
 10
204.7098433772
 20
268.8367166401
 30
0.0
 11
204.7181473985
 21
268.8447558166
 31
0.0
  0
LINE
  5
425
330
1F
100
AcDbEntity
  8
0
  6
Continuous
 62
     7
370
    15
100
AcDbLine
 10
204.7098433772
 20
259.2527982623
 30
0.0
 11
204.7098433772
 21
268.8367166401
 31
0.0
  0
LINE
  5
426
330
1F
100
AcDbEntity
  8
0
  6
Continuous
 62
     7
370
    15
100
AcDbLine
 10
204.5628030259
 20
259.2527982623
 30
0.0
 11
204.7098433772
 21
259.2527982623
 31
0.0
  0
SPLINE
  5
427
330
1F
100
AcDbEntity
  8
0
  6
Continuous
 62
     7
370
    15
100
AcDbSpline
210
0.0
220
0.0
230
1.0
 70
     8
 71
     3
 72
    10
 73
     6
 74
     0
 42
0.00000001
 43
0.00000001
 40
0.0
 40
0.0
 40
0.0
 40
0.0
 40
0.1884059300891723
 40
0.8483573137272118
 40
1.0
 40
1.0
 40
1.0
 40
1.0
 10
204.4520863504494
 20
264.4447577030575
 30
0.0
 10
204.4493527575811
 20
264.4442745719624
 30
0.0
 10
204.4370438907556
 20
264.4420991213394
 30
0.0
 10
204.4221318239089
 20
264.4282782719004
 30
0.0
 10
204.4130042849011
 20
264.3940578375413
 30
0.0
 10
204.4112988454635
 20
264.3876639039432
 30
0.0
  0
SPLINE
  5
428
330
1F
100
AcDbEntity
  8
0
  6
Continuous
 62
     7
370
    15
100
AcDbSpline
210
0.0
220
0.0
230
1.0
 70
     8
 71
     3
 72
    10
 73
     6
 74
     0
 42
0.00000001
 43
0.00000001
 40
0.0
 40
0.0
 40
0.0
 40
0.0
 40
0.3376137790265488
 40
0.9848456395219668
 40
1.0
 40
1.0
 40
1.0
 40
1.0
 10
204.4113731184388
 20
263.7032237679874
 30
0.0
 10
204.4154150797457
 20
263.6905388553685
 30
0.0
 10
204.4272057950999
 20
263.6535359791336
 30
0.0
 10
204.4421798828719
 20
263.6449080837637
 30
0.0
 10
204.4518647752628
 20
263.6447605741866
 30
0.0
 10
204.4520863504494
 20
263.6447571993982
 30
0.0
  0
LINE
  5
429
330
1F
100
AcDbEntity
  8
0
  6
Continuous
 62
     7
370
    15
100
AcDbLine
 10
204.4520863504
 20
268.0447571756
 30
0.0
 11
204.4520863504
 21
264.4447577031
 31
0.0
  0
LINE
  5
42A
330
1F
100
AcDbEntity
  8
0
  6
Continuous
 62
     7
370
    15
100
AcDbLine
 10
203.9099539337
 20
268.0447571756
 30
0.0
 11
204.4520863504
 21
268.0447571756
 31
0.0
  0
LINE
  5
42B
330
1F
100
AcDbEntity
  8
0
  6
Continuous
 62
     7
370
    15
100
AcDbLine
 10
203.9099539337
 20
260.0447577269
 30
0.0
 11
204.4520863504
 21
260.0447577269
 31
0.0
  0
LINE
  5
42C
330
1F
100
AcDbEntity
  8
0
  6
Continuous
 62
     7
370
    15
100
AcDbLine
 10
204.4520863504
 20
263.6447571994
 30
0.0
 11
204.4520863504
 21
260.0447577269
 31
0.0
  0
LINE
  5
42D
330
1F
100
AcDbEntity
  8
0
  6
Continuous
 62
     7
370
    15
100
AcDbLine
 10
206.7098433557
 20
268.8447558166
 30
0.0
 11
204.7181473985
 21
268.8447558166
 31
0.0
  0
LINE
  5
42E
330
1F
100
AcDbEntity
  8
0
  6
Continuous
 62
     7
370
    15
100
AcDbLine
 10
205.5708432976
 20
269.8447578431
 30
0.0
 11
206.6926860656
 21
269.8447578431
 31
0.0
  0
LINE
  5
42F
330
1F
100
AcDbEntity
  8
0
  6
Continuous
 62
     7
370
    15
100
AcDbLine
 10
204.7181473985
 20
259.2447572232
 30
0.0
 11
206.7098433557
 21
259.2447572232
 31
0.0
  0
LINE
  5
430
330
1F
100
AcDbEntity
  8
0
  6
Continuous
 62
     7
370
    15
100
AcDbLine
 10
204.7098433772
 20
259.2527982623
 30
0.0
 11
204.7181473985
 21
259.2447572232
 31
0.0
  0
LINE
  5
431
330
1F
100
AcDbEntity
  8
0
  6
Continuous
 62
     7
370
    15
100
AcDbLine
 10
206.7098433557
 20
260.7447565378
 30
0.0
 11
206.7098433557
 21
267.344756502
 31
0.0
  0
LINE
  5
432
330
1F
100
AcDbEntity
  8
0
  6
Continuous
 62
     7
370
    15
100
AcDbLine
 10
206.6926860656
 20
258.2447570593
 30
0.0
 11
205.5708432976
 21
258.2447570593
 31
0.0
  0
SPLINE
  5
433
330
1F
100
AcDbEntity
  8
0
  6
Continuous
 62
     7
370
    15
100
AcDbSpline
210
0.0
220
0.0
230
1.0
 70
     8
 71
     3
 72
    13
 73
     9
 74
     0
 42
0.00000001
 43
0.00000001
 40
0.0
 40
0.0
 40
0.0
 40
0.0
 40
0.1331477132048443
 40
0.2663836021575614
 40
0.3986238621828555
 40
0.5969276675980357
 40
0.8780528045128216
 40
1.0
 40
1.0
 40
1.0
 40
1.0
 10
205.5054581663916
 20
258.2447570593273
 30
0.0
 10
205.5181198959363
 20
258.2504116777564
 30
0.0
 10
205.5434517401298
 20
258.2617246593293
 30
0.0
 10
205.5042022758193
 20
258.3538561741777
 30
0.0
 10
205.4017912528132
 20
258.5063187078547
 30
0.0
 10
205.1964566921592
 20
258.7555021985002
 30
0.0
 10
204.947423984819
 20
259.0201414941937
 30
0.0
 10
204.7714018684698
 20
259.1925853386444
 30
0.0
 10
204.7181473984728
 20
259.2447572232401
 30
0.0
  0
LINE
  5
434
330
1F
100
AcDbEntity
  8
0
  6
Continuous
 62
     7
370
    15
100
AcDbLine
 10
204.0812814315
 20
260.0447577269
 30
0.0
 11
203.4776106533
 21
260.4673267187
 31
0.0
  0
ARC
  5
435
330
1F
100
AcDbEntity
  8
0
  6
Continuous
 62
     7
370
    15
100
AcDbCircle
 10
204.5098433735
 20
261.9419442958
 30
0.0
 40
1.800000000000011
100
AcDbArc
 50
180.0
 51
235.0079593175
  0
LINE
  5
436
330
1F
100
AcDbEntity
  8
0
  6
Continuous
 62
     7
370
    15
100
AcDbLine
 10
202.7098433767
 20
263.620492521
 30
0.0
 11
202.7098433767
 21
264.4690205188
 31
0.0
  0
ARC
  5
437
330
1F
100
AcDbEntity
  8
0
  6
Continuous
 62
     7
370
    15
100
AcDbCircle
 10
204.5098433735
 20
266.1475703341
 30
0.0
 40
1.800000000000011
100
AcDbArc
 50
124.9920406825
 51
180.0
  0
LINE
  5
438
330
1F
100
AcDbEntity
  8
0
  6
Continuous
 62
     7
370
    15
100
AcDbLine
 10
203.4776106533
 20
267.6221863211
 30
0.0
 11
204.0812814315
 21
268.0447571756
 31
0.0
  0
LINE
  5
439
330
1F
100
AcDbEntity
  8
0
  6
Continuous
 62
     7
370
    15
100
AcDbLine
 10
200.0098433285
 20
256.0447570712
 30
0.0
 11
207.7098435196
 21
256.0447570712
 31
0.0
  0
ARC
  5
43A
330
1F
100
AcDbEntity
  8
0
  6
Continuous
 62
     7
370
    15
100
AcDbCircle
 10
200.0098433735
 20
256.344757315
 30
0.0
 40
0.3000000000000114
100
AcDbArc
 50
180.0
 51
270.0
  0
LINE
  5
43B
330
1F
100
AcDbEntity
  8
0
  6
Continuous
 62
     7
370
    15
100
AcDbLine
 10
199.7098433725
 20
256.5204934062
 30
0.0
 11
199.7098433725
 21
256.3447565616
 31
0.0
  0
ARC
  5
43C
330
1F
100
AcDbEntity
  8
0
  6
Continuous
 62
     7
370
    15
100
AcDbCircle
 10
200.0098433735
 20
256.5204932463
 30
0.0
 40
0.3000000000000114
100
AcDbArc
 50
135.0
 51
180.0
  0
LINE
  5
43D
330
1F
100
AcDbEntity
  8
0
  6
Continuous
 62
     7
370
    15
100
AcDbLine
 10
200.5219755168
 20
257.4568898262
 30
0.0
 11
199.7977113291
 21
256.7326244743
 31
0.0
  0
ARC
  5
43E
330
1F
100
AcDbEntity
  8
0
  6
Continuous
 62
     7
370
    15
100
AcDbCircle
 10
200.7341074422
 20
257.244757315
 30
0.0
 40
0.2999999999999743
100
AcDbArc
 50
90.0
 51
135.0
  0
LINE
  5
43F
330
1F
100
AcDbEntity
  8
0
  6
Continuous
 62
     7
370
    15
100
AcDbLine
 10
203.4252589741
 20
257.5447563858
 30
0.0
 11
200.7341075163
 21
257.5447563858
 31
0.0
  0
ARC
  5
440
330
1F
100
AcDbEntity
  8
0
  6
Continuous
 62
     7
370
    15
100
AcDbCircle
 10
203.4252589612
 20
257.844757315
 30
0.0
 40
0.3000000000000114
100
AcDbArc
 50
270.0
 51
45.0
  0
LINE
  5
441
330
1F
100
AcDbEntity
  8
0
  6
Continuous
 62
     7
370
    15
100
AcDbLine
 10
201.3562900187
 20
260.3379902275
 30
0.0
 11
203.6373909735
 21
258.0568888069
 31
0.0
  0
ARC
  5
442
330
1F
100
AcDbEntity
  8
0
  6
Continuous
 62
     7
370
    15
100
AcDbCircle
 10
201.7098433735
 20
260.6915437526
 30
0.0
 40
0.5
100
AcDbArc
 50
180.0
 51
225.0
  0
LINE
  5
443
330
1F
100
AcDbEntity
  8
0
  6
Continuous
 62
     7
370
    15
100
AcDbLine
 10
201.2098433855
 20
267.3979704113
 30
0.0
 11
201.2098433855
 21
260.6915444912
 31
0.0
  0
ARC
  5
444
330
1F
100
AcDbEntity
  8
0
  6
Continuous
 62
     7
370
    15
100
AcDbCircle
 10
201.7098433735
 20
267.3979708773
 30
0.0
 40
0.5
100
AcDbArc
 50
135.0
 51
180.0
  0
LINE
  5
445
330
1F
100
AcDbEntity
  8
0
  6
Continuous
 62
     7
370
    15
100
AcDbLine
 10
203.6373909735
 20
270.0326242329
 30
0.0
 11
201.3562900187
 21
267.751524675
 31
0.0
  0
ARC
  5
446
330
1F
100
AcDbEntity
  8
0
  6
Continuous
 62
     7
370
    15
100
AcDbCircle
 10
203.4252589612
 20
270.244757315
 30
0.0
 40
0.3000000000000114
100
AcDbArc
 50
315.0
 51
90.0
  0
ARC
  5
447
330
1F
100
AcDbEntity
  8
0
  6
Continuous
 62
     7
370
    15
100
AcDbCircle
 10
208.4098433735
 20
267.344757315
 30
0.0
 40
0.3000000000000114
100
AcDbArc
 50
270.0
 51
0.0
  0
LINE
  5
448
330
1F
100
AcDbEntity
  8
0
  6
Continuous
 62
     7
370
    15
100
AcDbLine
 10
207.0098433118
 20
267.0447570116
 30
0.0
 11
208.4098432619
 21
267.0447570116
 31
0.0
  0
ARC
  5
449
330
1F
100
AcDbEntity
  8
0
  6
Continuous
 62
     7
370
    15
100
AcDbCircle
 10
207.0098433735
 20
267.344757315
 30
0.0
 40
0.3000000000000114
100
AcDbArc
 50
180.0
 51
270.0
  0
LINE
  5
44A
330
1F
100
AcDbEntity
  8
0
  6
Continuous
 62
     7
370
    15
100
AcDbLine
 10
206.7098433557
 20
269.7447561504
 30
0.0
 11
206.7098433557
 21
267.344756502
 31
0.0
  0
LINE
  5
44B
330
1F
100
AcDbEntity
  8
0
  6
Continuous
 62
     7
370
    15
100
AcDbLine
 10
202.7977113393
 20
267.0716256679
 30
0.0
 11
205.6829754669
 21
269.9568890811
 31
0.0
  0
ARC
  5
44C
330
1F
100
AcDbEntity
  8
0
  6
Continuous
 62
     7
370
    15
100
AcDbCircle
 10
203.0098433735
 20
266.8594932463
 30
0.0
 40
0.3000000000000346
100
AcDbArc
 50
135.0
 51
180.0
  0
LINE
  5
44D
330
1F
100
AcDbEntity
  8
0
  6
Continuous
 62
     7
370
    15
100
AcDbLine
 10
202.7098433767
 20
264.4690205188
 30
0.0
 11
202.7098433767
 21
266.8594927372
 31
0.0
  0
ARC
  5
44E
330
1F
100
AcDbEntity
  8
0
  6
Continuous
 62
     7
370
    15
100
AcDbCircle
 10
202.4098433735
 20
264.4690213837
 30
0.0
 40
0.2999999999999944
100
AcDbArc
 50
315.0
 51
0.0
  0
LINE
  5
44F
330
1F
100
AcDbEntity
  8
0
  6
Continuous
 62
     7
370
    15
100
AcDbLine
 10
202.4098433843
 20
264.0447565199
 30
0.0
 11
202.6219754129
 21
264.2568894507
 31
0.0
  0
LINE
  5
450
330
1F
100
AcDbEntity
  8
0
  6
Continuous
 62
     7
370
    15
100
AcDbLine
 10
202.6219754129
 20
263.8326254518
 30
0.0
 11
202.4098433843
 21
264.0447565199
 31
0.0
  0
ARC
  5
451
330
1F
100
AcDbEntity
  8
0
  6
Continuous
 62
     7
370
    15
100
AcDbCircle
 10
202.4098433735
 20
263.6204932463
 30
0.0
 40
0.2999999999999944
100
AcDbArc
 50
0.0
 51
45.0
  0
LINE
  5
452
330
1F
100
AcDbEntity
  8
0
  6
Continuous
 62
     7
370
    15
100
AcDbLine
 10
202.7098433767
 20
261.2300221653
 30
0.0
 11
202.7098433767
 21
263.620492521
 31
0.0
  0
ARC
  5
453
330
1F
100
AcDbEntity
  8
0
  6
Continuous
 62
     7
370
    15
100
AcDbCircle
 10
203.0098433735
 20
261.2300213837
 30
0.0
 40
0.3000000000000346
100
AcDbArc
 50
180.0
 51
225.0
  0
LINE
  5
454
330
1F
100
AcDbEntity
  8
0
  6
Continuous
 62
     7
370
    15
100
AcDbLine
 10
205.6829754669
 20
258.1326258213
 30
0.0
 11
202.7977113393
 21
261.0178892345
 31
0.0
  0
ARC
  5
455
330
1F
100
AcDbEntity
  8
0
  6
Continuous
 62
     7
370
    15
100
AcDbCircle
 10
205.8951074422
 20
258.344757315
 30
0.0
 40
0.3000000000000145
100
AcDbArc
 50
225.0
 51
270.0
  0
LINE
  5
456
330
1F
100
AcDbEntity
  8
0
  6
Continuous
 62
     7
370
    15
100
AcDbLine
 10
206.4098433997
 20
258.0447573991
 30
0.0
 11
205.8951074663
 21
258.0447573991
 31
0.0
  0
ARC
  5
457
330
1F
100
AcDbEntity
  8
0
  6
Continuous
 62
     7
370
    15
100
AcDbCircle
 10
206.4098433735
 20
258.344757315
 30
0.0
 40
0.3000000000000114
100
AcDbArc
 50
270.0
 51
0.0
  0
LINE
  5
458
330
1F
100
AcDbEntity
  8
0
  6
Continuous
 62
     7
370
    15
100
AcDbLine
 10
206.7098433557
 20
260.7447565378
 30
0.0
 11
206.7098433557
 21
258.3447568895
 31
0.0
  0
ARC
  5
459
330
1F
100
AcDbEntity
  8
0
  6
Continuous
 62
     7
370
    15
100
AcDbCircle
 10
207.0098433735
 20
260.744757315
 30
0.0
 40
0.3000000000000114
100
AcDbArc
 50
90.0
 51
180.0
  0
LINE
  5
45A
330
1F
100
AcDbEntity
  8
0
  6
Continuous
 62
     7
370
    15
100
AcDbLine
 10
208.4098432619
 20
261.0447578908
 30
0.0
 11
207.0098433118
 21
261.0447578908
 31
0.0
  0
ARC
  5
45B
330
1F
100
AcDbEntity
  8
0
  6
Continuous
 62
     7
370
    15
100
AcDbCircle
 10
208.4098433735
 20
260.744757315
 30
0.0
 40
0.3000000000000114
100
AcDbArc
 50
0.0
 51
90.0
  0
LINE
  5
45C
330
1F
100
AcDbEntity
  8
0
  6
Continuous
 62
     7
370
    15
100
AcDbLine
 10
208.7098432179
 20
257.0447572352
 30
0.0
 11
208.7098432179
 21
260.7447565378
 31
0.0
  0
ARC
  5
45D
330
1F
100
AcDbEntity
  8
0
  6
Continuous
 62
     7
370
    15
100
AcDbCircle
 10
207.7098433735
 20
257.044757315
 30
0.0
 40
1.0
100
AcDbArc
 50
270.0
 51
0.0
  0
LINE
  5
45E
330
1F
100
AcDbEntity
  8
0
  6
Continuous
 62
     7
370
    15
100
AcDbLine
 10
199.7098433725
 20
271.7447564782
 30
0.0
 11
199.7098433725
 21
271.5690196336
 31
0.0
  0
ARC
  5
45F
330
1F
100
AcDbEntity
  8
0
  6
Continuous
 62
     7
370
    15
100
AcDbCircle
 10
200.0098433735
 20
271.744757315
 30
0.0
 40
0.3000000000000114
100
AcDbArc
 50
90.0
 51
180.0
  0
LINE
  5
460
330
1F
100
AcDbEntity
  8
0
  6
Continuous
 62
     7
370
    15
100
AcDbLine
 10
207.7098435196
 20
272.0447578312
 30
0.0
 11
200.0098433285
 21
272.0447578312
 31
0.0
  0
ARC
  5
461
330
1F
100
AcDbEntity
  8
0
  6
Continuous
 62
     7
370
    15
100
AcDbCircle
 10
207.7098433735
 20
271.044757315
 30
0.0
 40
1.0
100
AcDbArc
 50
0.0
 51
90.0
  0
LINE
  5
462
330
1F
100
AcDbEntity
  8
0
  6
Continuous
 62
     7
370
    15
100
AcDbLine
 10
208.7098432179
 20
267.344756502
 30
0.0
 11
208.7098432179
 21
271.0447558046
 31
0.0
  0
LINE
  5
463
330
1F
100
AcDbEntity
  8
0
  6
Continuous
 62
     7
370
    15
100
AcDbLine
 10
200.7341075163
 20
270.5447585167
 30
0.0
 11
203.4252589741
 21
270.5447585167
 31
0.0
  0
ARC
  5
464
330
1F
100
AcDbEntity
  8
0
  6
Continuous
 62
     7
370
    15
100
AcDbCircle
 10
200.7341074422
 20
270.844757315
 30
0.0
 40
0.3000000000000682
100
AcDbArc
 50
225.0
 51
270.0
  0
LINE
  5
465
330
1F
100
AcDbEntity
  8
0
  6
Continuous
 62
     7
370
    15
100
AcDbLine
 10
199.7977113291
 20
271.3568904282
 30
0.0
 11
200.5219755168
 21
270.6326269389
 31
0.0
  0
ARC
  5
466
330
1F
100
AcDbEntity
  8
0
  6
Continuous
 62
     7
370
    15
100
AcDbCircle
 10
200.0098433735
 20
271.5690213837
 30
0.0
 40
0.3000000000000114
100
AcDbArc
 50
180.0
 51
225.0
  0
ARC
  5
467
330
1F
100
AcDbEntity
  8
0
  6
Continuous
 62
     7
370
    15
100
AcDbCircle
 10
206.4098433735
 20
269.744757315
 30
0.0
 40
0.3000000000000114
100
AcDbArc
 50
0.0
 51
90.0
  0
LINE
  5
468
330
1F
100
AcDbEntity
  8
0
  6
Continuous
 62
     7
370
    15
100
AcDbLine
 10
205.8951074663
 20
270.0447575034
 30
0.0
 11
206.4098433997
 21
270.0447575034
 31
0.0
  0
ARC
  5
469
330
1F
100
AcDbEntity
  8
0
  6
Continuous
 62
     7
370
    15
100
AcDbCircle
 10
205.8951074422
 20
269.744757315
 30
0.0
 40
0.3000000000000145
100
AcDbArc
 50
90.0
 51
135.0
  0
LINE
  5
46A
330
1F
100
AcDbEntity
  8
0
  6
Continuous
 62
     7
370
    15
100
AcDbLine
 10
199.7098433725
 20
273.2656956495
 30
0.0
 11
191.709843691
 21
273.5450626196
 31
0.0
  0
LINE
  5
46B
330
1F
100
AcDbEntity
  8
0
  6
Continuous
 62
     7
370
    15
100
AcDbLine
 10
199.7098433725
 20
273.1513106109
 30
0.0
 11
199.7098433725
 21
273.2656956495
 31
0.0
  0
LINE
  5
46C
330
1F
100
AcDbEntity
  8
0
  6
Continuous
 62
     7
370
    15
100
AcDbLine
 10
200.4098433475
 20
272.5639440895
 30
0.0
 11
199.7098433725
 21
273.1513106109
 31
0.0
  0
LINE
  5
46D
330
1F
100
AcDbEntity
  8
0
  6
Continuous
 62
     7
370
    15
100
AcDbLine
 10
200.4098433475
 20
272.30697729
 30
0.0
 11
200.4098433475
 21
272.5639440895
 31
0.0
  0
LINE
  5
46E
330
1F
100
AcDbEntity
  8
0
  6
Continuous
 62
     7
370
    15
100
AcDbLine
 10
199.7098433725
 20
272.2947583378
 30
0.0
 11
200.4098433475
 21
272.30697729
 31
0.0
  0
LINE
  5
46F
330
1F
100
AcDbEntity
  8
0
  6
Continuous
 62
     7
370
    15
100
AcDbLine
 10
199.7098433725
 20
255.7947565646
 30
0.0
 11
199.7098433725
 21
256.3447565616
 31
0.0
  0
LINE
  5
470
330
1F
100
AcDbEntity
  8
0
  6
Continuous
 62
     7
370
    15
100
AcDbLine
 10
199.7098433725
 20
256.5204934062
 30
0.0
 11
199.7098433725
 21
271.5690196336
 31
0.0
  0
LINE
  5
471
330
1F
100
AcDbEntity
  8
0
  6
Continuous
 62
     7
370
    15
100
AcDbLine
 10
199.7098433725
 20
271.7447564782
 30
0.0
 11
199.7098433725
 21
272.2947583378
 31
0.0
  0
LINE
  5
472
330
1F
100
AcDbEntity
  8
0
  6
Continuous
 62
     7
370
    15
100
AcDbLine
 10
200.4098433475
 20
255.7825394751
 30
0.0
 11
199.7098433725
 21
255.7947565646
 31
0.0
  0
LINE
  5
473
330
1F
100
AcDbEntity
  8
0
  6
Continuous
 62
     7
370
    15
100
AcDbLine
 10
200.4098433475
 20
255.5255726756
 30
0.0
 11
200.4098433475
 21
255.7825394751
 31
0.0
  0
LINE
  5
474
330
1F
100
AcDbEntity
  8
0
  6
Continuous
 62
     7
370
    15
100
AcDbLine
 10
199.7098433725
 20
254.9382024289
 30
0.0
 11
200.4098433475
 21
255.5255726756
 31
0.0
  0
LINE
  5
475
330
1F
100
AcDbEntity
  8
0
  6
Continuous
 62
     7
370
    15
100
AcDbLine
 10
199.7098433725
 20
254.823819253
 30
0.0
 11
199.7098433725
 21
254.9382024289
 31
0.0
  0
LINE
  5
476
330
1F
100
AcDbEntity
  8
0
  6
Continuous
 62
     7
370
    15
100
AcDbLine
 10
191.709843691
 20
254.5444522829
 30
0.0
 11
199.7098433725
 21
254.823819253
 31
0.0
  0
LINE
  5
477
330
1F
100
AcDbEntity
  8
0
  6
Continuous
 62
     7
370
    15
100
AcDbLine
 10
191.709843691
 20
254.5444522829
 30
0.0
 11
191.709843691
 21
273.5450626196
 31
0.0
  0
LINE
  5
478
330
1F
100
AcDbEntity
  8
0
  6
Continuous
 62
     7
370
    15
100
AcDbLine
 10
191.709843691
 20
274.044758159
 30
0.0
 11
199.7098433725
 21
273.765391189
 31
0.0
  0
LINE
  5
479
330
1F
100
AcDbEntity
  8
0
  6
Continuous
 62
     7
370
    15
100
AcDbLine
 10
199.7098433725
 20
273.765391189
 30
0.0
 11
199.7098433725
 21
273.2656956495
 31
0.0
  0
LINE
  5
47A
330
1F
100
AcDbEntity
  8
0
  6
Continuous
 62
     7
370
    15
100
AcDbLine
 10
191.709843691
 20
273.5450626196
 30
0.0
 11
191.709843691
 21
274.044758159
 31
0.0
  0
LINE
  5
47B
330
1F
100
AcDbEntity
  8
0
  6
Continuous
 62
     7
370
    15
100
AcDbLine
 10
199.7098433725
 20
254.823819253
 30
0.0
 11
199.7098433725
 21
254.3241237135
 31
0.0
  0
LINE
  5
47C
330
1F
100
AcDbEntity
  8
0
  6
Continuous
 62
     7
370
    15
100
AcDbLine
 10
199.7098433725
 20
254.3241237135
 30
0.0
 11
191.709843691
 21
254.0447567434
 31
0.0
  0
LINE
  5
47D
330
1F
100
AcDbEntity
  8
0
  6
Continuous
 62
     7
370
    15
100
AcDbLine
 10
191.709843691
 20
254.0447567434
 30
0.0
 11
191.709843691
 21
254.5444522829
 31
0.0
  0
LINE
  5
47E
330
1F
100
AcDbEntity
  8
0
  6
Continuous
 62
     7
370
    15
100
AcDbLine
 10
200.5098434105
 20
270.29475801
 30
0.0
 11
200.5098434105
 21
257.7947568924
 31
0.0
  0
LINE
  5
47F
330
1F
100
AcDbEntity
  8
0
  6
Continuous
 62
     7
370
    15
100
AcDbLine
 10
201.1098433226
 20
270.2842824937
 30
0.0
 11
201.1098433226
 21
257.8052305461
 31
0.0
  0
ENDSEC
  0
SECTION
  2
OBJECTS
  0
DICTIONARY
  5
C
330
0
100
AcDbDictionary
281
     1
  3
ACAD_GROUP
350
D
  3
ACAD_LAYOUT
350
1A
  3
ACAD_MLINESTYLE
350
17
  3
ACAD_PLOTSETTINGS
350
19
  3
ACAD_PLOTSTYLENAME
350
E
  0
DICTIONARY
  5
D
102
{ACAD_REACTORS
330
C
102
}
330
C
100
AcDbDictionary
281
     1
  0
DICTIONARY
  5
1A
102
{ACAD_REACTORS
330
C
102
}
330
C
100
AcDbDictionary
281
     1
  3
Layout1
350
1E
  3
Layout2
350
26
  3
Model
350
22
  0
DICTIONARY
  5
17
102
{ACAD_REACTORS
330
C
102
}
330
C
100
AcDbDictionary
281
     1
  3
Standard
350
18
  0
DICTIONARY
  5
19
102
{ACAD_REACTORS
330
C
102
}
330
C
100
AcDbDictionary
281
     1
  0
ACDBDICTIONARYWDFLT
  5
E
102
{ACAD_REACTORS
330
C
102
}
330
C
100
AcDbDictionary
281
     1
  3
Normal
350
F
100
AcDbDictionaryWithDefault
340
F
  0
LAYOUT
  5
1E
102
{ACAD_REACTORS
330
1A
102
}
330
1A
100
AcDbPlotSettings
  1

  2
none_device
  4

  6

 40
0.0
 41
0.0
 42
0.0
 43
0.0
 44
0.0
 45
0.0
 46
0.0
 47
0.0
 48
0.0
 49
0.0
140
0.0
141
0.0
142
1.0
143
1.0
 70
   688
 72
     0
 73
     0
 74
     5
  7

 75
    16
147
1.0
148
0.0
149
0.0
100
AcDbLayout
  1
Layout1
 70
     1
 71
     1
 10
0.0
 20
0.0
 11
420.0
 21
297.0
 12
0.0
 22
0.0
 32
0.0
 14
1.0000000000E+20
 24
1.0000000000E+20
 34
1.0000000000E+20
 15
-1.0000000000E+20
 25
-1.0000000000E+20
 35
-1.0000000000E+20
146
0.0
 13
0.0
 23
0.0
 33
0.0
 16
1.0
 26
0.0
 36
0.0
 17
0.0
 27
1.0
 37
0.0
 76
     0
330
1B
  0
LAYOUT
  5
26
102
{ACAD_REACTORS
330
1A
102
}
330
1A
100
AcDbPlotSettings
  1

  2
none_device
  4

  6

 40
0.0
 41
0.0
 42
0.0
 43
0.0
 44
0.0
 45
0.0
 46
0.0
 47
0.0
 48
0.0
 49
0.0
140
0.0
141
0.0
142
1.0
143
1.0
 70
   688
 72
     0
 73
     0
 74
     5
  7

 75
    16
147
1.0
148
0.0
149
0.0
100
AcDbLayout
  1
Layout2
 70
     1
 71
     2
 10
0.0
 20
0.0
 11
0.0
 21
0.0
 12
0.0
 22
0.0
 32
0.0
 14
0.0
 24
0.0
 34
0.0
 15
0.0
 25
0.0
 35
0.0
146
0.0
 13
0.0
 23
0.0
 33
0.0
 16
1.0
 26
0.0
 36
0.0
 17
0.0
 27
1.0
 37
0.0
 76
     0
330
23
  0
LAYOUT
  5
22
102
{ACAD_REACTORS
330
1A
102
}
330
1A
100
AcDbPlotSettings
  1

  2
none_device
  4

  6

 40
0.0
 41
0.0
 42
0.0
 43
0.0
 44
0.0
 45
0.0
 46
0.0
 47
0.0
 48
0.0
 49
0.0
140
0.0
141
0.0
142
1.0
143
1.0
 70
  1712
 72
     0
 73
     0
 74
     0
  7

 75
     0
147
1.0
148
0.0
149
0.0
100
AcDbLayout
  1
Model
 70
     1
 71
     0
 10
0.0
 20
0.0
 11
420.0
 21
297.0
 12
0.0
 22
0.0
 32
0.0
 14
0.0
 24
0.0
 34
0.0
 15
420.0
 25
297.0
 35
0.0
146
0.0
 13
0.0
 23
0.0
 33
0.0
 16
1.0
 26
0.0
 36
0.0
 17
0.0
 27
1.0
 37
0.0
 76
     0
330
1F
331
29
  0
MLINESTYLE
  5
18
102
{ACAD_REACTORS
330
17
102
}
330
17
100
AcDbMlineStyle
  2
Standard
 70
     0
  3

 62
   256
 51
90.0
 52
90.0
 71
     2
 49
0.5
 62
   256
  6
BYLAYER
 49
-0.5
 62
   256
  6
BYLAYER
  0
ACDBPLACEHOLDER
  5
F
102
{ACAD_REACTORS
330
E
102
}
330
E
  0
ENDSEC
  0
EOF
